  0
SECTION
  2
HEADER
  9
$ACADVER
  1
AC1024
  9
$ACADMAINTVER
 70
     6
  9
$DWGCODEPAGE
  3
ANSI_1252
  9
$LASTSAVEDBY
  1
renzo.ceresoli
  9
$INSBASE
 10
0.0
 20
0.0
 30
0.0
  9
$EXTMIN
 10
-91.8773887437037
 20
-138.9423575583123
 30
-0.0000000000000087
  9
$EXTMAX
 10
276.6620525516009
 20
157.7066534654163
 30
0.0000000000000066
  9
$LIMMIN
 10
-20.0
 20
-0.021978
  9
$LIMMAX
 10
2645.85
 20
758.35
  9
$ORTHOMODE
 70
     1
  9
$REGENMODE
 70
     1
  9
$FILLMODE
 70
     1
  9
$QTEXTMODE
 70
     0
  9
$MIRRTEXT
 70
     1
  9
$LTSCALE
 40
10.0
  9
$ATTMODE
 70
     1
  9
$TEXTSIZE
 40
0.2
  9
$TRACEWID
 40
0.05
  9
$TEXTSTYLE
  7
Standard
  9
$CLAYER
  8
0
  9
$CELTYPE
  6
Continuous
  9
$CECOLOR
 62
   256
  9
$CELTSCALE
 40
1.0
  9
$DISPSILH
 70
     0
  9
$DIMSCALE
 40
1.0
  9
$DIMASZ
 40
1.25
  9
$DIMEXO
 40
0.0
  9
$DIMDLI
 40
0.38
  9
$DIMRND
 40
0.0
  9
$DIMDLE
 40
0.0
  9
$DIMEXE
 40
0.75
  9
$DIMTP
 40
0.0
  9
$DIMTM
 40
0.0
  9
$DIMTXT
 40
2.5
  9
$DIMCEN
 40
0.09
  9
$DIMTSZ
 40
0.0
  9
$DIMTOL
 70
     0
  9
$DIMLIM
 70
     0
  9
$DIMTIH
 70
     0
  9
$DIMTOH
 70
     0
  9
$DIMSE1
 70
     0
  9
$DIMSE2
 70
     0
  9
$DIMTAD
 70
     1
  9
$DIMZIN
 70
     0
  9
$DIMBLK
  1

  9
$DIMASO
 70
     1
  9
$DIMSHO
 70
     1
  9
$DIMPOST
  1

  9
$DIMAPOST
  1

  9
$DIMALT
 70
     0
  9
$DIMALTD
 70
     2
  9
$DIMALTF
 40
25.4
  9
$DIMLFAC
 40
1.0
  9
$DIMTOFL
 70
     0
  9
$DIMTVP
 40
0.0
  9
$DIMTIX
 70
     0
  9
$DIMSOXD
 70
     0
  9
$DIMSAH
 70
     0
  9
$DIMBLK1
  1

  9
$DIMBLK2
  1

  9
$DIMSTYLE
  2
Standard
  9
$DIMCLRD
 70
     7
  9
$DIMCLRE
 70
     7
  9
$DIMCLRT
 70
     7
  9
$DIMTFAC
 40
0.8
  9
$DIMGAP
 40
1.25
  9
$DIMJUST
 70
     0
  9
$DIMSD1
 70
     0
  9
$DIMSD2
 70
     0
  9
$DIMTOLJ
 70
     1
  9
$DIMTZIN
 70
     0
  9
$DIMALTZ
 70
     0
  9
$DIMALTTZ
 70
     0
  9
$DIMUPT
 70
     0
  9
$DIMDEC
 70
     2
  9
$DIMTDEC
 70
     4
  9
$DIMALTU
 70
     2
  9
$DIMALTTD
 70
     2
  9
$DIMTXSTY
  7
Standard
  9
$DIMAUNIT
 70
     0
  9
$DIMADEC
 70
     0
  9
$DIMALTRND
 40
0.0
  9
$DIMAZIN
 70
     0
  9
$DIMDSEP
 70
     0
  9
$DIMATFIT
 70
     3
  9
$DIMFRAC
 70
     0
  9
$DIMLDRBLK
  1

  9
$DIMLUNIT
 70
     2
  9
$DIMLWD
 70
     0
  9
$DIMLWE
 70
     0
  9
$DIMTMOVE
 70
     0
  9
$DIMFXL
 40
1.0
  9
$DIMFXLON
 70
     0
  9
$DIMJOGANG
 40
0.7853981633974483
  9
$DIMTFILL
 70
     0
  9
$DIMTFILLCLR
 70
     0
  9
$DIMARCSYM
 70
     0
  9
$DIMLTYPE
  6

  9
$DIMLTEX1
  6

  9
$DIMLTEX2
  6

  9
$DIMTXTDIRECTION
 70
     0
  9
$LUNITS
 70
     2
  9
$LUPREC
 70
     4
  9
$SKETCHINC
 40
0.1
  9
$FILLETRAD
 40
0.0
  9
$AUNITS
 70
     0
  9
$AUPREC
 70
     0
  9
$MENU
  1
acad
  9
$ELEVATION
 40
0.0
  9
$PELEVATION
 40
0.0
  9
$THICKNESS
 40
0.0
  9
$LIMCHECK
 70
     0
  9
$CHAMFERA
 40
0.0
  9
$CHAMFERB
 40
0.0
  9
$CHAMFERC
 40
0.0
  9
$CHAMFERD
 40
0.0
  9
$SKPOLY
 70
     0
  9
$TDCREATE
 40
2455329.702198472
  9
$TDUCREATE
 40
2455329.618865139
  9
$TDUPDATE
 40
2455380.596770139
  9
$TDUUPDATE
 40
2455380.513436805
  9
$TDINDWG
 40
0.0548491551
  9
$TDUSRTIMER
 40
2455709.497762292
  9
$USRTIMER
 70
     1
  9
$ANGBASE
 50
0.0
  9
$ANGDIR
 70
     0
  9
$PDMODE
 70
     0
  9
$PDSIZE
 40
0.0
  9
$PLINEWID
 40
0.0
  9
$SPLFRAME
 70
     0
  9
$SPLINETYPE
 70
     6
  9
$SPLINESEGS
 70
     8
  9
$HANDSEED
  5
7C5E
  9
$SURFTAB1
 70
     6
  9
$SURFTAB2
 70
     6
  9
$SURFTYPE
 70
     6
  9
$SURFU
 70
     6
  9
$SURFV
 70
     6
  9
$UCSBASE
  2

  9
$UCSNAME
  2

  9
$UCSORG
 10
0.0
 20
0.0
 30
0.0
  9
$UCSXDIR
 10
1.0
 20
0.0
 30
0.0
  9
$UCSYDIR
 10
0.0
 20
1.0
 30
0.0
  9
$UCSORTHOREF
  2

  9
$UCSORTHOVIEW
 70
     0
  9
$UCSORGTOP
 10
0.0
 20
0.0
 30
0.0
  9
$UCSORGBOTTOM
 10
0.0
 20
0.0
 30
0.0
  9
$UCSORGLEFT
 10
0.0
 20
0.0
 30
0.0
  9
$UCSORGRIGHT
 10
0.0
 20
0.0
 30
0.0
  9
$UCSORGFRONT
 10
0.0
 20
0.0
 30
0.0
  9
$UCSORGBACK
 10
0.0
 20
0.0
 30
0.0
  9
$PUCSBASE
  2

  9
$PUCSNAME
  2

  9
$PUCSORG
 10
0.0
 20
0.0
 30
0.0
  9
$PUCSXDIR
 10
1.0
 20
0.0
 30
0.0
  9
$PUCSYDIR
 10
0.0
 20
1.0
 30
0.0
  9
$PUCSORTHOREF
  2

  9
$PUCSORTHOVIEW
 70
     0
  9
$PUCSORGTOP
 10
0.0
 20
0.0
 30
0.0
  9
$PUCSORGBOTTOM
 10
0.0
 20
0.0
 30
0.0
  9
$PUCSORGLEFT
 10
0.0
 20
0.0
 30
0.0
  9
$PUCSORGRIGHT
 10
0.0
 20
0.0
 30
0.0
  9
$PUCSORGFRONT
 10
0.0
 20
0.0
 30
0.0
  9
$PUCSORGBACK
 10
0.0
 20
0.0
 30
0.0
  9
$USERI1
 70
     0
  9
$USERI2
 70
     0
  9
$USERI3
 70
     0
  9
$USERI4
 70
     0
  9
$USERI5
 70
     0
  9
$USERR1
 40
0.0
  9
$USERR2
 40
0.0
  9
$USERR3
 40
0.0
  9
$USERR4
 40
0.0
  9
$USERR5
 40
0.0
  9
$WORLDVIEW
 70
     1
  9
$SHADEDGE
 70
     3
  9
$SHADEDIF
 70
    70
  9
$TILEMODE
 70
     1
  9
$MAXACTVP
 70
    16
  9
$PINSBASE
 10
0.0
 20
0.0
 30
0.0
  9
$PLIMCHECK
 70
     0
  9
$PEXTMIN
 10
1.000000000000000E+20
 20
1.000000000000000E+20
 30
1.000000000000000E+20
  9
$PEXTMAX
 10
-1.000000000000000E+20
 20
-1.000000000000000E+20
 30
-1.000000000000000E+20
  9
$PLIMMIN
 10
0.0
 20
0.0
  9
$PLIMMAX
 10
12.0
 20
9.0
  9
$UNITMODE
 70
     0
  9
$VISRETAIN
 70
     0
  9
$PLINEGEN
 70
     1
  9
$PSLTSCALE
 70
     0
  9
$TREEDEPTH
 70
  3020
  9
$CMLSTYLE
  2
Standard
  9
$CMLJUST
 70
     0
  9
$CMLSCALE
 40
1.0
  9
$PROXYGRAPHICS
 70
     0
  9
$MEASUREMENT
 70
     1
  9
$CELWEIGHT
370
     0
  9
$ENDCAPS
280
     0
  9
$JOINSTYLE
280
     0
  9
$LWDISPLAY
290
     0
  9
$INSUNITS
 70
     0
  9
$HYPERLINKBASE
  1

  9
$STYLESHEET
  1

  9
$XEDIT
290
     1
  9
$CEPSNTYPE
380
     0
  9
$PSTYLEMODE
290
     1
  9
$FINGERPRINTGUID
  2

  9
$VERSIONGUID
  2
{BB6D9EB8-01CC-4609-8FC5-5B9A2ED0DCC0}
  9
$EXTNAMES
290
     1
  9
$PSVPSCALE
 40
0.0
  9
$OLESTARTUP
290
     0
  9
$SORTENTS
280
   127
  9
$INDEXCTL
280
     0
  9
$HIDETEXT
280
     1
  9
$XCLIPFRAME
280
     2
  9
$HALOGAP
280
     0
  9
$OBSCOLOR
 70
   257
  9
$OBSLTYPE
280
     0
  9
$INTERSECTIONDISPLAY
280
     0
  9
$INTERSECTIONCOLOR
 70
   257
  9
$DIMASSOC
280
     1
  9
$PROJECTNAME
  1

  9
$CAMERADISPLAY
290
     0
  9
$LENSLENGTH
 40
50.0
  9
$CAMERAHEIGHT
 40
0.0
  9
$STEPSPERSEC
 40
2.0
  9
$STEPSIZE
 40
6.0
  9
$3DDWFPREC
 40
2.0
  9
$PSOLWIDTH
 40
0.25
  9
$PSOLHEIGHT
 40
4.0
  9
$LOFTANG1
 40
1.570796326794897
  9
$LOFTANG2
 40
1.570796326794897
  9
$LOFTMAG1
 40
0.0
  9
$LOFTMAG2
 40
0.0
  9
$LOFTPARAM
 70
     7
  9
$LOFTNORMALS
280
     1
  9
$LATITUDE
 40
37.795
  9
$LONGITUDE
 40
-122.394
  9
$NORTHDIRECTION
 40
0.0
  9
$TIMEZONE
 70
 -8000
  9
$LIGHTGLYPHDISPLAY
280
     1
  9
$TILEMODELIGHTSYNCH
280
     1
  9
$SOLIDHIST
280
     1
  9
$SHOWHIST
280
     1
  9
$DWFFRAME
280
     2
  9
$DGNFRAME
280
     2
  9
$REALWORLDSCALE
290
     1
  9
$INTERFERECOLOR
 62
   256
  9
$CSHADOW
280
     0
  9
$SHADOWPLANELOCATION
 40
0.0
  0
ENDSEC
  0
SECTION
  2
CLASSES
  0
CLASS
  1
IMAGE
  2
AcDbRasterImage
  3
ISM
 90
      127
 91
        5
280
     0
281
     1
  0
CLASS
  1
DICTIONARYVAR
  2
AcDbDictionaryVar
  3
ObjectDBX Classes
 90
        0
 91
        4
280
     0
281
     0
  0
CLASS
  1
RASTERVARIABLES
  2
AcDbRasterVariables
  3
ISM
 90
        0
 91
        4
280
     0
281
     0
  0
CLASS
  1
IMAGEDEF
  2
AcDbRasterImageDef
  3
ISM
 90
        0
 91
        4
280
     0
281
     0
  0
CLASS
  1
IMAGEDEF_REACTOR
  2
AcDbRasterImageDefReactor
  3
ISM
 90
        1
 91
        4
280
     0
281
     0
  0
CLASS
  1
IDBUFFER
  2
AcDbIdBuffer
  3
ObjectDBX Classes
 90
        0
 91
        4
280
     0
281
     0
  0
CLASS
  1
SPATIAL_FILTER
  2
AcDbSpatialFilter
  3
ObjectDBX Classes
 90
        0
 91
        4
280
     0
281
     0
  0
CLASS
  1
SORTENTSTABLE
  2
AcDbSortentsTable
  3
ObjectDBX Classes
 90
        0
 91
        4
280
     0
281
     0
  0
CLASS
  1
LAYER_INDEX
  2
AcDbLayerIndex
  3
ObjectDBX Classes
 90
        0
 91
        4
280
     0
281
     0
  0
CLASS
  1
SPATIAL_INDEX
  2
AcDbSpatialIndex
  3
AutoCAD 2000
 90
        0
 91
        4
280
     0
281
     0
  0
CLASS
  1
OBJECT_PTR
  2
CAseDLPNTableRecord
  3
ASE-LPNTableRecord
 90
        1
 91
        4
280
     0
281
     0
  0
CLASS
  1
LAYOUT
  2
AcDbLayout
  3
ObjectDBX Classes
 90
        0
 91
        1
280
     0
281
     0
  0
CLASS
  1
PLOTSETTINGS
  2
AcDbPlotSettings
  3
ObjectDBX Classes
 90
        0
 91
        4
280
     0
281
     0
  0
CLASS
  1
ACDBDICTIONARYWDFLT
  2
AcDbDictionaryWithDefault
  3
ObjectDBX Classes
 90
        0
 91
        4
280
     0
281
     0
  0
CLASS
  1
ACDBPLACEHOLDER
  2
AcDbPlaceHolder
  3
ObjectDBX Classes
 90
        0
 91
        1
280
     0
281
     0
  0
CLASS
  1
VBA_PROJECT
  2
AcDbVbaProject
  3
ObjectDBX Classes
 90
        0
 91
        1
280
     0
281
     0
  0
CLASS
  1
WIPEOUT
  2
AcDbWipeout
  3
WipeOut|AutoCAD Express Tool|expresstools@autodesk.com
 90
      127
 91
        4
280
     0
281
     1
  0
CLASS
  1
WIPEOUTVARIABLES
  2
AcDbWipeoutVariables
  3
WipeOut|AutoCAD Express Tool|expresstools@autodesk.com
 90
        0
 91
        4
280
     0
281
     0
  0
CLASS
  1
RTEXT
  2
RText
  3
RText|AutoCAD Express Tool|expresstools@autodesk.com
 90
        0
 91
        4
280
     0
281
     1
  0
CLASS
  1
ARCALIGNEDTEXT
  2
AcDbArcAlignedText
  3
ATEXT|AutoCAD Express Tool|expresstools@autodesk.com
 90
        0
 91
        4
280
     0
281
     1
  0
CLASS
  1
MATERIAL
  2
AcDbMaterial
  3
ObjectDBX Classes
 90
     1153
 91
        4
280
     0
281
     0
  0
CLASS
  1
VISUALSTYLE
  2
AcDbVisualStyle
  3
ObjectDBX Classes
 90
     4095
 91
        4
280
     0
281
     0
  0
CLASS
  1
TABLESTYLE
  2
AcDbTableStyle
  3
ObjectDBX Classes
 90
     4095
 91
        4
280
     0
281
     0
  0
CLASS
  1
SCALE
  2
AcDbScale
  3
ObjectDBX Classes
 90
     1153
 91
        4
280
     0
281
     0
  0
CLASS
  1
MLEADERSTYLE
  2
AcDbMLeaderStyle
  3
ACDB_MLEADERSTYLE_CLASS
 90
     4095
 91
        4
280
     0
281
     0
  0
CLASS
  1
CELLSTYLEMAP
  2
AcDbCellStyleMap
  3
ObjectDBX Classes
 90
     1152
 91
        4
280
     0
281
     0
  0
ENDSEC
  0
SECTION
  2
TABLES
  0
TABLE
  2
VPORT
  5
7
330
0
100
AcDbSymbolTable
 70
     1
  0
VPORT
  5
15
330
7
100
AcDbSymbolTableRecord
100
AcDbViewportTableRecord
  2
*ACTIVE
 70
     0
 10
0.0
 20
0.0
 11
1.0
 21
1.0
 12
92.10304904648613
 22
15.68337715815261
 13
0.0
 23
0.0
 14
1.0
 24
1.0
 15
0.0
 25
0.0
 16
0.0
 26
0.0
 36
1.0
 17
0.0
 27
0.0
 37
0.0
 40
335.6323554549148
 41
1.611330698287219
 42
50.0
 43
0.0
 44
0.0
 50
0.0
 51
0.0
 71
     0
 72
   100
 73
     1
 74
     1
 75
     0
 76
     0
 77
     0
 78
     0
281
     0
 65
     0
110
0.0
120
0.0
130
0.0
111
1.0
121
0.0
131
0.0
112
0.0
122
1.0
132
0.0
 79
     0
146
0.0
 60
     3
 61
     5
292
     1
282
     1
141
0.0
142
0.0
 63
   256
  0
ENDTAB
  0
TABLE
  2
LTYPE
  5
4
330
0
100
AcDbSymbolTable
 70
     2
  0
LTYPE
  5
11
330
4
100
AcDbSymbolTableRecord
100
AcDbLinetypeTableRecord
  2
ByBlock
 70
     0
  3

 72
    65
 73
     0
 40
0.0
  0
LTYPE
  5
12
330
4
100
AcDbSymbolTableRecord
100
AcDbLinetypeTableRecord
  2
ByLayer
 70
     0
  3

 72
    65
 73
     0
 40
0.0
  0
LTYPE
  5
13
330
4
100
AcDbSymbolTableRecord
100
AcDbLinetypeTableRecord
  2
Continuous
 70
     0
  3
Solid line
 72
    65
 73
     0
 40
0.0
  0
LTYPE
  5
2A2
330
4
100
AcDbSymbolTableRecord
100
AcDbLinetypeTableRecord
  2
CENTER
 70
     0
  3
____ _ ____ _ ____ _ ____ _ ____ _ ____ _ ____
 72
    65
 73
     4
 40
2.0
 49
1.25
 74
     0
 49
-0.25
 74
     0
 49
0.25
 74
     0
 49
-0.25
 74
     0
  0
ENDTAB
  0
TABLE
  2
LAYER
  5
2
330
0
100
AcDbSymbolTable
 70
     2
  0
LAYER
  5
14
102
{ACAD_XDICTIONARY
360
72C9
102
}
330
2
100
AcDbSymbolTableRecord
100
AcDbLayerTableRecord
  2
0
 70
     0
 62
     7
  6
Continuous
370
    -3
390
1D
347
396F
  0
LAYER
  5
7C29
330
2
100
AcDbSymbolTableRecord
100
AcDbLayerTableRecord
  2
Defpoints
 70
     0
 62
     7
  6
Continuous
290
     0
370
    -3
390
1D
347
396F
  0
ENDTAB
  0
TABLE
  2
STYLE
  5
3
330
0
100
AcDbSymbolTable
 70
     1
  0
STYLE
  5
17
330
3
100
AcDbSymbolTableRecord
100
AcDbTextStyleTableRecord
  2
Standard
 70
     0
 40
0.0
 41
1.0
 50
0.0
 71
     0
 42
0.0
  3
I011000D_0.TTF
  4

1001
ACAD
1000
IsonormD
1071
        0
  0
ENDTAB
  0
TABLE
  2
VIEW
  5
5
330
0
100
AcDbSymbolTable
 70
     0
  0
ENDTAB
  0
TABLE
  2
UCS
  5
6
330
0
100
AcDbSymbolTable
 70
     0
  0
ENDTAB
  0
TABLE
  2
APPID
  5
8
330
0
100
AcDbSymbolTable
 70
     4
  0
APPID
  5
16
330
8
100
AcDbSymbolTableRecord
100
AcDbRegAppTableRecord
  2
ACAD
 70
     0
  0
APPID
  5
26
330
8
100
AcDbSymbolTableRecord
100
AcDbRegAppTableRecord
  2
TopSolid_Draft
 70
     0
  0
APPID
  5
39AF
330
8
100
AcDbSymbolTableRecord
100
AcDbRegAppTableRecord
  2
ACAD_MLEADERVER
 70
     0
  0
APPID
  5
72C7
330
8
100
AcDbSymbolTableRecord
100
AcDbRegAppTableRecord
  2
DCO15
 70
     0
  0
ENDTAB
  0
TABLE
  2
DIMSTYLE
  5
9
330
0
100
AcDbSymbolTable
 70
     1
100
AcDbDimStyleTable
  0
DIMSTYLE
105
18
102
{ACAD_REACTORS
330
7C28
102
}
330
9
100
AcDbSymbolTableRecord
100
AcDbDimStyleTableRecord
  2
Standard
 70
     0
 41
1.25
 42
0.0
 44
0.75
 73
     0
 74
     0
 77
     1
140
2.5
146
0.8
147
1.25
176
     7
177
     7
178
     7
271
     2
340
17
  0
ENDTAB
  0
TABLE
  2
BLOCK_RECORD
  5
1
330
0
100
AcDbSymbolTable
 70
     1
  0
BLOCK_RECORD
  5
A
102
{ACAD_XDICTIONARY
360
39B7
102
}
330
1
100
AcDbSymbolTableRecord
100
AcDbBlockTableRecord
  2
*MODEL_SPACE
340
20
 70
     0
280
     1
281
     0
  0
BLOCK_RECORD
  5
B
330
1
100
AcDbSymbolTableRecord
100
AcDbBlockTableRecord
  2
*PAPER_SPACE
340
21
 70
     0
280
     1
281
     0
  0
BLOCK_RECORD
  5
7C2A
330
1
100
AcDbSymbolTableRecord
100
AcDbBlockTableRecord
  2
*D0
340
0
 70
     0
280
     1
281
     0
  0
ENDTAB
  0
ENDSEC
  0
SECTION
  2
BLOCKS
  0
BLOCK
  5
D
330
A
100
AcDbEntity
  8
0
100
AcDbBlockBegin
  2
*MODEL_SPACE
 70
     0
 10
0.0
 20
0.0
 30
0.0
  3
*MODEL_SPACE
  1

  0
ENDBLK
  5
E
330
A
100
AcDbEntity
  8
0
100
AcDbBlockEnd
  0
BLOCK
  5
F
330
B
100
AcDbEntity
 67
     1
  8
0
100
AcDbBlockBegin
  2
*PAPER_SPACE
 70
     0
 10
0.0
 20
0.0
 30
0.0
  3
*PAPER_SPACE
  1

  0
ENDBLK
  5
10
330
B
100
AcDbEntity
 67
     1
  8
0
100
AcDbBlockEnd
  0
BLOCK
  5
7C2B
330
7C2A
100
AcDbEntity
  8
0
370
     0
100
AcDbBlockBegin
  2
*D0
 70
     1
 10
0.0
 20
0.0
 30
0.0
  3
*D0
  1

  0
LINE
  5
7C43
330
7C2A
100
AcDbEntity
  8
0
  6
Continuous
 62
     7
370
     0
100
AcDbLine
 10
53.00000000000006
 20
77.5
 30
0.0
 11
53.00000000000006
 21
105.6459483265001
 31
0.0
  0
LINE
  5
7C44
330
7C2A
100
AcDbEntity
  8
0
  6
Continuous
 62
     7
370
     0
100
AcDbLine
 10
59.00000000000005
 20
77.5
 30
0.0
 11
59.00000000000005
 21
105.6459483265001
 31
0.0
  0
LINE
  5
7C45
330
7C2A
100
AcDbEntity
  8
0
  6
Continuous
 62
     7
370
     0
100
AcDbLine
 10
54.25000000000006
 20
104.8959483265001
 30
0.0
 11
57.75000000000005
 21
104.8959483265001
 31
0.0
  0
LINE
  5
7C46
330
7C2A
100
AcDbEntity
  8
0
  6
Continuous
 62
     7
370
     0
100
AcDbLine
 10
59.00000000000005
 20
104.8959483265001
 30
0.0
 11
68.03367496339683
 21
104.8959483265001
 31
0.0
  0
SOLID
  5
7C47
330
7C2A
100
AcDbEntity
  8
0
  6
Continuous
 62
     7
370
     0
100
AcDbTrace
 10
54.25000000000006
 20
105.1042816598335
 30
0.0
 11
54.25000000000006
 21
104.6876149931668
 31
0.0
 12
53.00000000000006
 22
104.8959483265001
 32
0.0
 13
53.00000000000006
 23
104.8959483265001
 33
0.0
  0
SOLID
  5
7C48
330
7C2A
100
AcDbEntity
  8
0
  6
Continuous
 62
     7
370
     0
100
AcDbTrace
 10
57.75000000000005
 20
105.1042816598335
 30
0.0
 11
57.75000000000005
 21
104.6876149931668
 31
0.0
 12
59.00000000000005
 22
104.8959483265001
 32
0.0
 13
59.00000000000005
 23
104.8959483265001
 33
0.0
  0
MTEXT
  5
7C49
330
7C2A
100
AcDbEntity
  8
0
  6
Continuous
 62
     7
370
     0
100
AcDbMText
 10
64.14183748169845
 20
107.4014388096627
 30
0.0
 40
2.5
 41
0.0
 46
0.0
 71
     5
 72
     1
  1
\A1;6.00
 73
     1
 44
1.0
  0
POINT
  5
7C4A
330
7C2A
100
AcDbEntity
  8
Defpoints
  6
Continuous
 62
     0
370
     0
100
AcDbPoint
 10
53.00000000000006
 20
77.5
 30
0.0
  0
POINT
  5
7C4B
330
7C2A
100
AcDbEntity
  8
Defpoints
  6
Continuous
 62
     0
370
     0
100
AcDbPoint
 10
59.00000000000005
 20
77.5
 30
0.0
  0
POINT
  5
7C4C
330
7C2A
100
AcDbEntity
  8
Defpoints
  6
Continuous
 62
     0
370
     0
100
AcDbPoint
 10
59.00000000000005
 20
104.8959483265001
 30
0.0
  0
ENDBLK
  5
7C2C
330
7C2A
100
AcDbEntity
  8
0
370
     0
100
AcDbBlockEnd
  0
ENDSEC
  0
SECTION
  2
ENTITIES
  0
LINE
  5
1FAD
330
A
100
AcDbEntity
  8
0
  6
CENTER
 62
     1
100
AcDbLine
 10
35.09191100000004
 20
-67.50000000000017
 30
0.0
 11
44.90808900000013
 21
-67.50000000000017
 31
0.0
  0
LINE
  5
1FAE
330
A
100
AcDbEntity
  8
0
  6
CENTER
 62
     1
100
AcDbLine
 10
40.00000000000006
 20
-72.40808899999999
 30
0.0
 11
40.00000000000006
 21
-62.5919110000002
 31
0.0
  0
LINE
  5
1FAF
330
A
100
AcDbEntity
  8
0
  6
CENTER
 62
     1
100
AcDbLine
 10
34.25000000000006
 20
140.0
 30
0.0
 11
45.75000000000005
 21
140.0
 31
0.0
  0
LINE
  5
1FB0
330
A
100
AcDbEntity
  8
0
  6
CENTER
 62
     1
100
AcDbLine
 10
40.00000000000006
 20
134.25
 30
0.0
 11
40.00000000000006
 21
145.75
 31
0.0
  0
LINE
  5
1FB1
330
A
100
AcDbEntity
  8
0
  6
CENTER
 62
     1
100
AcDbLine
 10
40.00000000000006
 20
69.75
 30
0.0
 11
40.00000000000006
 21
3.750000000000007
 31
0.0
  0
LINE
  5
562F
330
A
100
AcDbEntity
  8
0
  6
Continuous
 62
     7
100
AcDbLine
 10
230.6598140000003
 20
-54.72666700000012
 30
0.0
 11
269.6568390000003
 21
-62.68690199999991
 31
0.0
  0
ELLIPSE
  5
5630
330
A
100
AcDbEntity
  8
0
  6
Continuous
 62
     7
100
AcDbEllipse
 10
269.6568390000003
 20
-67.06868200000012
 30
0.0
 11
-3.035786556671916
 21
3.718064009982868
 31
0.0
210
0.0
220
0.0
230
1.0
 40
0.816497
 41
3.926990816348324
 42
5.497787143142777
  0
LINE
  5
5631
330
A
100
AcDbEntity
  8
0
  6
Continuous
 62
     7
100
AcDbLine
 10
273.9500899999999
 20
-67.94503800000004
 30
0.0
 11
273.9500899999999
 21
-130.020262
 31
0.0
  0
ELLIPSE
  5
5632
330
A
100
AcDbEntity
  8
0
  6
Continuous
 62
     7
100
AcDbEllipse
 10
269.6568390000003
 20
-129.1439049999999
 30
0.0
 11
-3.035786556671915
 21
3.71806400998281
 31
0.0
210
0.0
220
0.0
230
1.0
 40
0.8164970000000001
 41
3.141592653590024
 42
3.926990816348313
  0
LINE
  5
5633
330
A
100
AcDbEntity
  8
0
  6
Continuous
 62
     9
100
AcDbLine
 10
273.9500899999999
 20
-67.94503800000004
 30
0.0
 11
274.3078609999998
 21
-67.65292000000017
 31
0.0
  0
LINE
  5
5634
330
A
100
AcDbEntity
  8
0
  6
Continuous
 62
     9
100
AcDbLine
 10
269.6568390000003
 20
-62.68690199999991
 30
0.0
 11
270.0146100000002
 21
-62.39478299999992
 31
0.0
  0
ELLIPSE
  5
5635
330
A
100
AcDbEntity
  8
0
  6
Continuous
 62
     7
100
AcDbEllipse
 10
270.0146100000002
 20
-66.77656399999992
 30
0.0
 11
-3.035786556671916
 21
3.718064009982868
 31
0.0
210
0.0
220
0.0
230
1.0
 40
0.816497
 41
3.926990816348305
 42
5.497787143142777
  0
LINE
  5
5636
330
A
100
AcDbEntity
  8
0
  6
Continuous
 62
     9
100
AcDbLine
 10
230.6598140000003
 20
-54.72666700000012
 30
0.0
 11
231.0175850000002
 21
-54.43454900000018
 31
0.0
  0
LINE
  5
5637
330
A
100
AcDbEntity
  8
0
  6
Continuous
 62
     7
100
AcDbLine
 10
231.0175850000002
 20
-54.43454900000018
 30
0.0
 11
270.0146100000002
 21
-62.39478299999992
 31
0.0
  0
LINE
  5
5638
330
A
100
AcDbEntity
  8
0
  6
Continuous
 62
     9
100
AcDbLine
 10
273.9500899999999
 20
-130.020262
 30
0.0
 11
274.3078609999998
 21
-129.7281430000001
 31
0.0
  0
LINE
  5
5639
330
A
100
AcDbEntity
  8
0
  6
Continuous
 62
     7
100
AcDbLine
 10
274.3078609999998
 20
-67.65292000000017
 30
0.0
 11
274.3078609999998
 21
-129.7281430000001
 31
0.0
  0
ELLIPSE
  5
563A
330
A
100
AcDbEntity
  8
0
  6
Continuous
 62
     7
100
AcDbEllipse
 10
230.6598140000003
 20
-58.74329899999999
 30
0.0
 11
-2.782804343615995
 21
3.408225342484302
 31
-2.000000000000000E-16
210
-2.874797875636316E-17
220
3.520893948847368E-17
230
1.0
 40
0.816497
 41
5.497787143143021
 42
6.283185307179584
  0
ELLIPSE
  5
563B
330
A
100
AcDbEntity
  8
0
  6
Continuous
 62
     7
100
AcDbEllipse
 10
231.0175850000002
 20
-58.45118099999977
 30
0.0
 11
-2.782804343615995
 21
3.408225342484302
 31
0.0
210
0.0
220
0.0
230
1.0
 40
0.816497
 41
5.497787143143018
 42
6.283185307179584
  0
ELLIPSE
  5
563C
330
A
100
AcDbEntity
  8
0
  6
Continuous
 62
     7
100
AcDbEllipse
 10
270.0146100000002
 20
-128.8517869999999
 30
0.0
 11
-3.035786556671915
 21
3.71806400998281
 31
0.0
210
0.0
220
0.0
230
1.0
 40
0.8164970000000001
 41
3.141592653589943
 42
3.926990816348313
  0
LINE
  5
563D
330
A
100
AcDbEntity
  8
0
  6
Continuous
 62
     9
100
AcDbLine
 10
273.5923190000009
 20
-68.23715700000008
 30
0.0
 11
273.9500899999999
 21
-67.94503800000004
 31
0.0
  0
LINE
  5
563E
330
A
100
AcDbEntity
  8
0
  6
Continuous
 62
     9
100
AcDbLine
 10
273.9500899999999
 20
-67.94503800000004
 30
0.0
 11
274.3078609999998
 21
-67.65292000000017
 31
0.0
  0
ELLIPSE
  5
563F
330
A
100
AcDbEntity
  8
0
  6
Continuous
 62
     7
100
AcDbEllipse
 10
269.299068
 20
-67.36080099999998
 30
0.0
 11
-3.035786556671916
 21
3.718064009982868
 31
2.000000000000000E-16
210
8.635231378330678E-17
220
1.671493367355017E-17
230
1.0
 40
0.816497
 41
3.926990816348316
 42
5.497787143142867
  0
LINE
  5
5640
330
A
100
AcDbEntity
  8
0
  6
Continuous
 62
     9
100
AcDbLine
 10
269.299068
 20
-62.97901999999998
 30
0.0
 11
269.6568390000003
 21
-62.68690199999991
 31
0.0
  0
LINE
  5
5641
330
A
100
AcDbEntity
  8
0
  6
Continuous
 62
     9
100
AcDbLine
 10
269.6568390000003
 20
-62.68690199999991
 30
0.0
 11
270.0146100000002
 21
-62.39478299999992
 31
0.0
  0
ELLIPSE
  5
5642
330
A
100
AcDbEntity
  8
0
  6
Continuous
 62
     7
100
AcDbEllipse
 10
270.0146100000002
 20
-66.77656399999992
 30
0.0
 11
-3.035786556671916
 21
3.718064009982868
 31
2.000000000000000E-16
210
8.635231378330678E-17
220
1.671493367355017E-17
230
1.0
 40
0.816497
 41
3.926990816348316
 42
5.497787143142867
  0
ELLIPSE
  5
5643
330
A
100
AcDbEntity
  8
0
  6
Continuous
 62
     7
100
AcDbEllipse
 10
230.3020430000003
 20
-59.03541799999993
 30
0.0
 11
-2.782804343615995
 21
3.408225342484302
 31
0.0
210
5.999999992330614E-17
220
4.898979487131864E-17
230
1.0
 40
0.816497
 41
0.0000000000001577
 42
0.3639405939898
  0
LINE
  5
5644
330
A
100
AcDbEntity
  8
0
  6
Continuous
 62
     7
100
AcDbLine
 10
230.3020430000003
 20
-55.01878599999997
 30
0.0
 11
269.299068
 21
-62.97901999999998
 31
0.0
  0
LINE
  5
5645
330
A
100
AcDbEntity
  8
0
  6
Continuous
 62
     7
100
AcDbLine
 10
273.5923190000009
 20
-68.23715700000008
 30
0.0
 11
273.5923190000009
 21
-130.3123799999999
 31
0.0
  0
ELLIPSE
  5
5646
330
A
100
AcDbEntity
  8
0
  6
Continuous
 62
     7
100
AcDbEllipse
 10
269.299068
 20
-129.4360240000001
 30
0.0
 11
-3.035786556671915
 21
3.71806400998281
 31
2.000000000000000E-16
210
8.635231378330652E-17
220
1.671493367355023E-17
230
1.0
 40
0.8164970000000001
 41
3.141592653589931
 42
3.926990816348288
  0
LINE
  5
5647
330
A
100
AcDbEntity
  8
0
  6
Continuous
 62
     9
100
AcDbLine
 10
230.3020430000003
 20
-55.01878599999997
 30
0.0
 11
230.6598140000003
 21
-54.72666700000012
 31
0.0
  0
LINE
  5
5648
330
A
100
AcDbEntity
  8
0
  6
Continuous
 62
     9
100
AcDbLine
 10
230.6598140000003
 20
-54.72666700000012
 30
0.0
 11
231.0175850000002
 21
-54.43454900000018
 31
0.0
  0
LINE
  5
5649
330
A
100
AcDbEntity
  8
0
  6
Continuous
 62
     7
100
AcDbLine
 10
231.0175850000002
 20
-54.43454900000018
 30
0.0
 11
270.0146100000002
 21
-62.39478299999992
 31
0.0
  0
LINE
  5
564A
330
A
100
AcDbEntity
  8
0
  6
Continuous
 62
     9
100
AcDbLine
 10
273.5923190000009
 20
-130.3123799999999
 30
0.0
 11
273.9500899999999
 21
-130.020262
 31
0.0
  0
LINE
  5
564B
330
A
100
AcDbEntity
  8
0
  6
Continuous
 62
     9
100
AcDbLine
 10
273.9500899999999
 20
-130.020262
 30
0.0
 11
274.3078609999998
 21
-129.7281430000001
 31
0.0
  0
LINE
  5
564C
330
A
100
AcDbEntity
  8
0
  6
Continuous
 62
     7
100
AcDbLine
 10
274.3078609999998
 20
-67.65292000000017
 30
0.0
 11
274.3078609999998
 21
-129.7281430000001
 31
0.0
  0
ELLIPSE
  5
564D
330
A
100
AcDbEntity
  8
0
  6
Continuous
 62
     7
100
AcDbEllipse
 10
230.3020430000003
 20
-59.03541799999993
 30
0.0
 11
-2.782804343615995
 21
3.408225342484302
 31
0.0
210
5.999999992330614E-17
220
4.898979487131864E-17
230
1.0
 40
0.816497
 41
5.497787143143018
 42
6.283185307179584
  0
ELLIPSE
  5
564E
330
A
100
AcDbEntity
  8
0
  6
Continuous
 62
     7
100
AcDbEllipse
 10
231.0175850000002
 20
-58.45118099999977
 30
0.0
 11
-2.782804343615995
 21
3.408225342484302
 31
-2.000000000000000E-16
210
2.024181611495548E-17
220
7.520893956516755E-17
230
1.0
 40
0.816497
 41
5.497787143143018
 42
6.283185307179584
  0
ELLIPSE
  5
564F
330
A
100
AcDbEntity
  8
0
  6
Continuous
 62
     7
100
AcDbEllipse
 10
269.299068
 20
-129.4360240000001
 30
0.0
 11
-3.035786556671915
 21
3.71806400998281
 31
2.000000000000000E-16
210
8.635231378330652E-17
220
1.671493367355023E-17
230
1.0
 40
0.8164970000000001
 41
2.827888758371461
 42
3.141592653589785
  0
ELLIPSE
  5
5650
330
A
100
AcDbEntity
  8
0
  6
Continuous
 62
     7
100
AcDbEllipse
 10
270.0146100000002
 20
-128.8517869999999
 30
0.0
 11
-3.035786556671915
 21
3.71806400998281
 31
2.000000000000000E-16
210
8.635231378330652E-17
220
1.671493367355023E-17
230
1.0
 40
0.8164970000000001
 41
3.141592653589951
 42
3.926990816348319
  0
ELLIPSE
  5
5651
330
A
100
AcDbEntity
  8
0
  6
Continuous
 62
     7
100
AcDbEllipse
 10
230.4809280000001
 20
-58.889359
 30
0.0
 11
3.794733195840116
 21
-4.647580012478668
 31
0.0
210
0.0
220
0.0
230
0.9999999999999999
 40
0.816497
 41
2.356194489553232
 42
3.141592653589722
  0
LINE
  5
5652
330
A
100
AcDbEntity
  8
0
  6
Continuous
 62
     7
100
AcDbLine
 10
230.4809280000001
 20
-53.41213300000014
 30
0.0
 11
269.8357250000001
 21
-61.44539699999993
 31
0.0
  0
ELLIPSE
  5
5653
330
A
100
AcDbEntity
  8
0
  6
Continuous
 62
     7
100
AcDbEllipse
 10
269.8357250000001
 20
-66.92262300000013
 30
0.0
 11
3.794733195840116
 21
-4.647580012478668
 31
0.0
210
0.0
220
0.0
230
0.9999999999999999
 40
0.816497
 41
0.7853981627582999
 42
2.356194489553232
  0
LINE
  5
5654
330
A
100
AcDbEntity
  8
0
  6
Continuous
 62
     7
100
AcDbLine
 10
275.2022880000001
 20
-68.018068
 30
0.0
 11
275.2022880000001
 21
-130.0932910000001
 31
0.0
  0
ELLIPSE
  5
5655
330
A
100
AcDbEntity
  8
0
  6
Continuous
 62
     7
100
AcDbEllipse
 10
269.8357250000001
 20
-128.997846
 30
0.0
 11
3.794733195840116
 21
-4.647580012478612
 31
2.000000000000000E-16
210
2.790794378331924E-17
220
6.581988903490858E-17
230
1.0
 40
0.8164970000000001
 41
5.738036922750785
 42
6.283185307179588
  0
ELLIPSE
  5
5656
330
A
100
AcDbEntity
  8
0
  6
Continuous
 62
     7
100
AcDbEllipse
 10
270.1934959999999
 20
-129.4360240000001
 30
0.0
 11
3.035786556671915
 21
-3.71806400998281
 31
0.0
210
0.0
220
0.0
230
1.0
 40
0.8164970000000001
 41
5.74271823757753
 42
6.283185307179584
  0
LINE
  5
5657
330
A
100
AcDbEntity
  8
0
  6
Continuous
 62
     7
100
AcDbLine
 10
274.4867460000001
 20
-130.3123799999999
 30
0.0
 11
274.4867460000001
 21
-67.50685999999993
 31
0.0
  0
ELLIPSE
  5
5658
330
A
100
AcDbEntity
  8
0
  6
Continuous
 62
     7
100
AcDbEllipse
 10
270.1934959999999
 20
-66.63050400000014
 30
0.0
 11
3.035786556671916
 21
-3.718064009982868
 31
2.000000000000000E-16
210
8.263748093462621E-17
220
1.212646561457793E-16
230
1.0
 40
0.816497
 41
0.785398162758348
 42
2.356194489553246
  0
LINE
  5
5659
330
A
100
AcDbEntity
  8
0
  6
Continuous
 62
     7
100
AcDbLine
 10
270.1934959999999
 20
-62.24872400000014
 30
0.0
 11
230.8386990000001
 21
-54.21546000000013
 31
0.0
  0
ELLIPSE
  5
565A
330
A
100
AcDbEntity
  8
0
  6
Continuous
 62
     7
100
AcDbEllipse
 10
230.8386990000001
 20
-58.59724000000016
 30
0.0
 11
3.035786556671916
 21
-3.718064009982868
 31
2.000000000000000E-16
210
8.263748093462621E-17
220
1.212646561457793E-16
230
1.0
 40
0.816497
 41
2.356194489553244
 42
3.141592653589808
  0
LINE
  5
565B
330
A
100
AcDbEntity
  8
0
  6
Continuous
 62
     9
100
AcDbLine
 10
269.8357250000001
 20
-61.44539699999993
 30
0.0
 11
270.909037
 21
-60.56904099999993
 31
0.0
  0
ELLIPSE
  5
565C
330
A
100
AcDbEntity
  8
0
  6
Continuous
 62
     9
100
AcDbEllipse
 10
270.909037
 20
-66.046267
 30
0.0
 11
3.794733195840116
 21
-4.647580012478668
 31
0.0
210
0.0
220
0.0
230
0.9999999999999999
 40
0.816497
 41
0.7853981627582999
 42
2.356194489553232
  0
LINE
  5
565D
330
A
100
AcDbEntity
  8
0
  6
Continuous
 62
     9
100
AcDbLine
 10
276.2756000000001
 20
-67.14171199999998
 30
0.0
 11
275.2022880000001
 21
-68.018068
 31
0.0
  0
ELLIPSE
  5
565E
330
A
100
AcDbEntity
  8
0
  6
Continuous
 62
     7
100
AcDbEllipse
 10
270.3723809999998
 20
-129.2899650000002
 30
0.0
 11
3.035786556671915
 21
-3.71806400998281
 31
3.000000000000000E-16
210
9.461324081318591E-18
220
8.841229187334594E-17
230
1.0
 40
0.8164970000000001
 41
5.703231185821787
 42
6.253718260297985
  0
ELLIPSE
  5
565F
330
A
100
AcDbEntity
  8
0
  6
Continuous
 62
     9
100
AcDbEllipse
 10
273.4134329999998
 20
-66.5574750000001
 30
0.0
 11
3.200000000000091
 21
0.0
 31
0.0
210
0.0
220
0.0
230
1.0
 40
0.4082480000000002
 41
5.819537698817907
 42
6.283187528910023
  0
ELLIPSE
  5
5660
330
A
100
AcDbEntity
  8
0
  6
Continuous
 62
     9
100
AcDbEllipse
 10
270.909037
 20
-63.49022799999998
 30
0.0
 11
0.6399999990183149
 21
3.135346870962841
 31
0.0
210
0.0
220
0.0
230
1.0
 40
0.4082480000000003
 41
6.283183615924117
 42
6.74683291605242
  0
LINE
  5
5661
330
A
100
AcDbEntity
  8
0
  6
Continuous
 62
     9
100
AcDbLine
 10
231.5542409999999
 20
-52.53577699999992
 30
0.0
 11
230.4809280000001
 21
-53.41213300000014
 31
0.0
  0
LINE
  5
5662
330
A
100
AcDbEntity
  8
0
  6
Continuous
 62
     9
100
AcDbLine
 10
270.909037
 20
-60.56904099999993
 30
0.0
 11
231.5542409999999
 21
-52.53577699999992
 31
0.0
  0
LINE
  5
5663
330
A
100
AcDbEntity
  8
0
  6
Continuous
 62
     9
100
AcDbLine
 10
276.2756000000001
 20
-129.2169349999999
 30
0.0
 11
276.2756000000001
 21
-67.14171199999998
 31
0.0
  0
LINE
  5
5664
330
A
100
AcDbEntity
  8
0
  6
Continuous
 62
     9
100
AcDbLine
 10
275.2022880000001
 20
-130.0932910000001
 30
0.0
 11
276.2756000000001
 21
-129.2169349999999
 31
0.0
  0
ELLIPSE
  5
5665
330
A
100
AcDbEntity
  8
0
  6
Continuous
 62
     9
100
AcDbEllipse
 10
231.5542409999999
 20
-55.45696399999995
 30
0.0
 11
0.6399999990183149
 21
3.135346870962841
 31
1.000000000000000E-16
210
-6.249999990413279E-18
220
-3.061862178674673E-17
230
1.0
 40
0.4082480000000003
 41
6.283185307179584
 42
6.74683291605242
  0
ELLIPSE
  5
5666
330
A
100
AcDbEntity
  8
0
  6
Continuous
 62
     9
100
AcDbEllipse
 10
273.4134329999998
 20
-128.6326980000001
 30
0.0
 11
3.200000000000091
 21
0.0
 31
-2.000000000000000E-16
210
6.249999999999822E-17
220
0.0
230
1.0
 40
0.4082480000000002
 41
5.819537698817862
 42
6.283185307179584
  0
ELLIPSE
  5
5667
330
A
100
AcDbEntity
  8
0
  6
Continuous
 62
     7
100
AcDbEllipse
 10
230.4809280000001
 20
-58.889359
 30
0.0
 11
3.794733195840116
 21
-4.647580012478668
 31
2.000000000000000E-16
210
2.790794378331941E-17
220
6.581988903490794E-17
230
0.9999999999999999
 40
0.816497
 41
3.141592653589666
 42
3.686741038016041
  0
ELLIPSE
  5
5668
330
A
100
AcDbEntity
  8
0
  6
Continuous
 62
     9
100
AcDbEllipse
 10
231.5542409999999
 20
-58.01300300000015
 30
0.0
 11
3.794733195840116
 21
-4.647580012478668
 31
0.0
210
0.0
220
0.0
230
0.9999999999999999
 40
0.816497
 41
2.356194489553232
 42
3.141592653589722
  0
ELLIPSE
  5
5669
330
A
100
AcDbEntity
  8
0
  6
Continuous
 62
     7
100
AcDbEllipse
 10
231.0175850000002
 20
-58.45118099999977
 30
0.0
 11
3.035786556671916
 21
-3.718064009982868
 31
3.000000000000000E-16
210
9.461324081319170E-18
220
8.841229187334504E-17
230
1.0
 40
0.816497
 41
3.171059716209123
 42
3.615844654965366
  0
ELLIPSE
  5
566A
330
A
100
AcDbEntity
  8
0
  6
Continuous
 62
     7
100
AcDbEllipse
 10
230.8386990000001
 20
-58.59724000000016
 30
0.0
 11
3.035786556671916
 21
-3.718064009982868
 31
0.0
210
0.0
220
0.0
230
1.0
 40
0.816497
 41
3.141592653589808
 42
3.674310560900245
  0
ELLIPSE
  5
566B
330
A
100
AcDbEntity
  8
0
  6
Continuous
 62
     7
100
AcDbEllipse
 10
269.8357250000001
 20
-128.997846
 30
0.0
 11
3.794733195840116
 21
-4.647580012478612
 31
2.000000000000000E-16
210
2.790794378331924E-17
220
6.581988903490858E-17
230
1.0
 40
0.8164970000000001
 41
0.0000000000000059
 42
0.7853981627583181
  0
ELLIPSE
  5
566C
330
A
100
AcDbEntity
  8
0
  6
Continuous
 62
     9
100
AcDbEllipse
 10
270.909037
 20
-128.1214900000002
 30
0.0
 11
3.794733195840116
 21
-4.647580012478612
 31
2.000000000000000E-16
210
2.790794378331924E-17
220
6.581988903490858E-17
230
1.0
 40
0.8164970000000001
 41
0.0000000000000059
 42
0.7853981627583181
  0
ELLIPSE
  5
566D
330
A
100
AcDbEntity
  8
0
  6
Continuous
 62
     7
100
AcDbEllipse
 10
270.1934959999999
 20
-129.4360240000001
 30
0.0
 11
3.035786556671915
 21
-3.71806400998281
 31
3.000000000000000E-16
210
9.461324081318591E-18
220
8.841229187334594E-17
230
1.0
 40
0.8164970000000001
 41
6.283185307179584
 42
7.068583469937914
  0
ELLIPSE
  5
566E
330
A
100
AcDbEntity
  8
0
  6
Continuous
 62
     9
100
AcDbEllipse
 10
264.8269320000001
 20
-71.01228499999986
 30
0.0
 11
-3.794733195839672
 21
4.647580012478448
 31
-2.000000000000000E-16
210
8.790794370662669E-17
220
1.148096839062253E-16
230
0.9999999999999999
 40
0.816497
 41
3.926990816348278
 42
5.497787143142943
  0
ELLIPSE
  5
566F
330
A
100
AcDbEntity
  8
0
  6
Continuous
 62
     9
100
AcDbEllipse
 10
267.3313290000002
 20
-71.52349199999998
 30
0.0
 11
3.199999999999647
 21
0.0
 31
-2.000000000000000E-16
210
6.250000000000690E-17
220
0.0
230
1.0
 40
0.4082480000000002
 41
4.248741372023073
 42
5.819537698817847
  0
ELLIPSE
  5
5670
330
A
100
AcDbEntity
  8
0
  6
Continuous
 62
     9
100
AcDbEllipse
 10
263.3958490000001
 20
-72.180759
 30
0.0
 11
1.770875491391873
 21
-2.168870672490163
 31
-1.000000000000000E-16
210
2.258769759428311E-17
220
-2.766416674094476E-17
230
1.0
 40
0.8164969999999993
 41
0.7853981627583587
 42
2.356194489553053
  0
ELLIPSE
  5
5671
330
A
100
AcDbEntity
  8
0
  6
Continuous
 62
     9
100
AcDbEllipse
 10
264.8269320000001
 20
-68.456246
 30
0.0
 11
0.6399999990183149
 21
3.135346870962951
 31
0.0
210
0.0
220
0.0
230
0.9999999999999998
 40
0.4082480000000002
 41
0.4636476088730868
 42
2.034443935667963
  0
LINE
  5
5672
330
A
100
AcDbEntity
  8
0
  6
Continuous
 62
     9
100
AcDbLine
 10
225.472136
 20
-57.50179500000001
 30
0.0
 11
264.8269320000001
 21
-65.53505899999999
 31
0.0
  0
LINE
  5
5673
330
A
100
AcDbEntity
  8
0
  6
Continuous
 62
     9
100
AcDbLine
 10
263.3958490000001
 20
-69.62472100000008
 30
0.0
 11
224.0410520000001
 21
-61.59145699999998
 31
0.0
  0
ELLIPSE
  5
5674
330
A
100
AcDbEntity
  8
0
  6
Continuous
 62
     9
100
AcDbEllipse
 10
225.472136
 20
-60.42298200000014
 30
0.0
 11
0.6399999990183149
 21
3.135346870962841
 31
0.0
210
0.0
220
0.0
230
1.0
 40
0.4082480000000003
 41
0.4636476088729684
 42
2.034443935667828
  0
LINE
  5
5675
330
A
100
AcDbEntity
  8
0
  6
Continuous
 62
     9
100
AcDbLine
 10
270.1934959999999
 20
-72.1077300000002
 30
0.0
 11
270.1934959999999
 21
-134.1829530000002
 31
0.0
  0
ELLIPSE
  5
5676
330
A
100
AcDbEntity
  8
0
  6
Continuous
 62
     9
100
AcDbEllipse
 10
267.3313290000002
 20
-133.5987160000002
 30
0.0
 11
-3.200000000000091
 21
0.0
 31
2.000000000000000E-16
210
6.249999999999822E-17
220
0.0
230
1.0
 40
0.4082480000000002
 41
1.107148718433248
 42
2.677945045228038
  0
LINE
  5
5677
330
A
100
AcDbEntity
  8
0
  6
Continuous
 62
     9
100
AcDbLine
 10
265.9002449999999
 20
-134.7671900000001
 30
0.0
 11
265.9002449999999
 21
-72.69196699999998
 31
0.0
  0
ELLIPSE
  5
5678
330
A
100
AcDbEntity
  8
0
  6
Continuous
 62
     9
100
AcDbEllipse
 10
215.8123219999998
 20
-72.72848200000007
 30
0.0
 11
-4.047715408896032
 21
4.957418679977121
 31
-2.000000000000000E-16
210
2.922555947631889E-17
220
6.420614597502029E-17
230
1.0
 40
0.8164969999999998
 41
3.05069275517993
 42
3.926990816348183
  0
LINE
  5
5679
330
A
100
AcDbEntity
  8
0
  6
Continuous
 62
     9
100
AcDbLine
 10
221.5366559999998
 20
-63.63628800000014
 30
0.0
 11
221.5366559999998
 21
-73.89695700000007
 31
0.0
  0
ELLIPSE
  5
567A
330
A
100
AcDbEntity
  8
0
  6
Continuous
 62
     9
100
AcDbEllipse
 10
224.0410520000001
 20
-64.14749499999999
 30
0.0
 11
1.770875491391876
 21
-2.168870672489942
 31
1.000000000000000E-16
210
8.640209720034027E-17
220
1.166539616889557E-16
230
1.0
 40
0.8164969999999996
 41
2.35619448955322
 42
3.926990816348308
  0
ELLIPSE
  5
567B
330
A
100
AcDbEntity
  8
0
  6
Continuous
 62
     9
100
AcDbEllipse
 10
263.3958490000001
 20
-134.2559830000001
 30
0.0
 11
1.77087549139232
 21
-2.168870672490163
 31
1.000000000000000E-16
210
8.640209720033622E-17
220
1.166539616889582E-16
230
1.0
 40
0.816497
 41
5.497787143142875
 42
7.068583469937907
  0
LINE
  5
567C
330
A
100
AcDbEntity
  8
0
  6
Continuous
 62
     9
100
AcDbLine
 10
224.0410520000001
 20
-128.7787570000001
 30
0.0
 11
263.3958490000001
 21
-136.8120210000002
 31
0.0
  0
ELLIPSE
  5
567D
330
A
100
AcDbEntity
  8
0
  6
Continuous
 62
     9
100
AcDbEllipse
 10
224.0410520000001
 20
-126.222718
 30
0.0
 11
1.770875491391876
 21
-2.168870672489886
 31
0.0
210
5.999999992330665E-17
220
4.898979487131853E-17
230
1.0
 40
0.8164970000000003
 41
3.926990816348272
 42
5.497787143142967
  0
LINE
  5
567E
330
A
100
AcDbEntity
  8
0
  6
Continuous
 62
     9
100
AcDbLine
 10
221.5366559999998
 20
-115.4508419999999
 30
0.0
 11
221.5366559999998
 21
-125.7115110000002
 31
0.0
  0
ELLIPSE
  5
567F
330
A
100
AcDbEntity
  8
0
  6
Continuous
 62
     9
100
AcDbEllipse
 10
215.8123219999998
 20
-114.2823669999999
 30
0.0
 11
-4.047715408896031
 21
4.957418679977174
 31
2.000000000000000E-16
210
1.287540301896241E-16
220
6.478364904968752E-17
230
1.0
 40
0.816497
 41
3.926990816348305
 42
4.803288877516386
  0
LINE
  5
5680
330
A
100
AcDbEntity
  8
0
  6
Continuous
 62
     9
100
AcDbLine
 10
219.4758960000001
 20
-110.5410570000001
 30
0.0
 11
219.4758960000001
 21
-77.96543899999986
 31
0.0
  0
ELLIPSE
  5
5681
330
A
100
AcDbEntity
  8
0
  6
Continuous
 62
     7
100
AcDbEllipse
 10
265.9002449999999
 20
-70.13592899999998
 30
0.0
 11
-3.794733195840116
 21
4.647580012478668
 31
-2.000000000000000E-16
210
8.790794370662476E-17
220
1.148096839062267E-16
230
0.9999999999999999
 40
0.816497
 41
3.926990816348196
 42
5.497787143142883
  0
LINE
  5
5682
330
A
100
AcDbEntity
  8
0
  6
Continuous
 62
     9
100
AcDbLine
 10
271.266808
 20
-71.23137400000007
 30
0.0
 11
270.1934959999999
 21
-72.1077300000002
 31
0.0
  0
LINE
  5
5683
330
A
100
AcDbEntity
  8
0
  6
Continuous
 62
     9
100
AcDbLine
 10
264.8269320000001
 20
-65.53505899999999
 30
0.0
 11
265.9002449999999
 21
-64.65870300000029
 31
0.0
  0
LINE
  5
5684
330
A
100
AcDbEntity
  8
0
  6
Continuous
 62
     9
100
AcDbLine
 10
226.5454489999998
 20
-56.62543899999991
 30
0.0
 11
225.472136
 21
-57.50179500000001
 31
0.0
  0
LINE
  5
5685
330
A
100
AcDbEntity
  8
0
  6
Continuous
 62
     7
100
AcDbLine
 10
265.9002449999999
 20
-64.65870300000029
 30
0.0
 11
226.5454489999998
 21
-56.62543899999991
 31
0.0
  0
LINE
  5
5686
330
A
100
AcDbEntity
  8
0
  6
Continuous
 62
     9
100
AcDbLine
 10
270.1934959999999
 20
-134.1829530000002
 30
0.0
 11
271.266808
 21
-133.306597
 31
0.0
  0
LINE
  5
5687
330
A
100
AcDbEntity
  8
0
  6
Continuous
 62
     7
100
AcDbLine
 10
271.266808
 20
-133.306597
 30
0.0
 11
271.266808
 21
-71.23137400000007
 31
0.0
  0
ELLIPSE
  5
5688
330
A
100
AcDbEntity
  8
0
  6
Continuous
 62
     9
100
AcDbEllipse
 10
225.472136
 20
-62.97901999999998
 30
0.0
 11
-3.794733195840116
 21
4.647580012478668
 31
2.000000000000000E-16
210
1.300716458826235E-16
220
6.316990598980020E-17
230
0.9999999999999999
 40
0.816497
 41
5.497787143143097
 42
6.283196576867087
  0
ELLIPSE
  5
5689
330
A
100
AcDbEntity
  8
0
  6
Continuous
 62
     9
100
AcDbEllipse
 10
222.9677400000002
 20
-62.46781299999998
 30
0.0
 11
-3.199999999999647
 21
0.0
 31
2.000000000000000E-16
210
6.250000000000690E-17
220
0.0
230
1.0
 40
0.4082480000000002
 41
0.0000005596853536
 42
1.107148718433279
  0
ELLIPSE
  5
568A
330
A
100
AcDbEntity
  8
0
  6
Continuous
 62
     7
100
AcDbEllipse
 10
226.5454489999998
 20
-62.10266400000001
 30
0.0
 11
-3.794733195839672
 21
4.647580012478336
 31
-2.000000000000000E-16
210
2.790794378331765E-17
220
6.581988903490853E-17
230
1.0
 40
0.8164970000000001
 41
5.497787143143068
 42
6.283185307179503
  0
ELLIPSE
  5
568B
330
A
100
AcDbEntity
  8
0
  6
Continuous
 62
     9
100
AcDbEllipse
 10
222.9677400000002
 20
-72.72848200000007
 30
0.0
 11
-3.199999999999647
 21
0.0
 31
2.000000000000000E-16
210
6.250000000000690E-17
220
0.0
230
1.0
 40
0.4082480000000002
 41
0.0000000000000001
 42
1.107148718433311
  0
ELLIPSE
  5
568C
330
A
100
AcDbEntity
  8
0
  6
Continuous
 62
     9
100
AcDbEllipse
 10
217.2434060000002
 20
-71.56000700000006
 30
0.0
 11
-2.023857704447796
 21
2.478709339988394
 31
2.000000000000000E-16
210
-9.461324081316230E-18
220
-8.841229187334867E-17
230
1.0
 40
0.8164969999999998
 41
3.085922145780243
 42
3.141665443019276
  0
ARC
  5
568D
330
A
100
AcDbEntity
  8
0
  6
Continuous
 62
     7
100
AcDbCircle
 10
221.6632449999998
 20
-74.48264599999999
 30
0.0
 40
4.112705
100
AcDbArc
 50
199.186106000001
 51
237.8693530000076
  0
LINE
  5
568E
330
A
100
AcDbEntity
  8
0
  6
Continuous
 62
     7
100
AcDbLine
 10
219.1515170000004
 20
-74.12682300000009
 30
0.0
 11
219.024716
 21
-74.2271550000001
 31
0.0
  0
ELLIPSE
  5
568F
330
A
100
AcDbEntity
  8
0
  6
Continuous
 62
     9
100
AcDbEllipse
 10
264.8269320000001
 20
-133.0875080000001
 30
0.0
 11
-3.794733195839671
 21
4.647580012478391
 31
-2.000000000000000E-16
210
8.790794370662592E-17
220
1.148096839062261E-16
230
0.9999999999999998
 40
0.816497
 41
3.14160392327744
 42
3.926990816348272
  0
ELLIPSE
  5
5690
330
A
100
AcDbEntity
  8
0
  6
Continuous
 62
     9
100
AcDbEllipse
 10
264.8269320000001
 20
-135.6435460000001
 30
0.0
 11
0.6399999990183149
 21
3.135346870962841
 31
-2.000000000000000E-16
210
-7.095917932633502E-18
220
6.523724356122242E-17
230
1.0
 40
0.4082480000000003
 41
2.034443935667987
 42
3.141592423114008
  0
LINE
  5
5691
330
A
100
AcDbEntity
  8
0
  6
Continuous
 62
     7
100
AcDbLine
 10
219.4758960000001
 20
-110.5410570000001
 30
0.0
 11
217.7920089999998
 21
-110.8879450000002
 31
0.0
  0
LINE
  5
5692
330
A
100
AcDbEntity
  8
0
  6
Continuous
 62
     7
100
AcDbLine
 10
217.7920089999998
 20
-110.8879450000002
 30
0.0
 11
217.7789760000001
 21
-110.8864249999999
 31
0.0
  0
LINE
  5
5693
330
A
100
AcDbEntity
  8
0
  6
Continuous
 62
     7
100
AcDbLine
 10
217.7789469999999
 20
-110.8712319999999
 30
0.0
 11
217.7789760000001
 21
-110.8864249999999
 31
0.0
  0
LINE
  5
5694
330
A
100
AcDbEntity
  8
0
  6
Continuous
 62
     7
100
AcDbLine
 10
217.7789469999999
 20
-110.8712319999999
 30
0.0
 11
217.7789469999999
 21
-75.84932000000009
 31
0.0
  0
LINE
  5
5695
330
A
100
AcDbEntity
  8
0
  6
Continuous
 62
     7
100
AcDbLine
 10
217.7789760000001
 20
-75.83423600000009
 30
0.0
 11
217.7789469999999
 21
-75.84932000000009
 31
0.0
  0
ARC
  5
5696
330
A
100
AcDbEntity
  8
0
  6
Continuous
 62
     7
100
AcDbCircle
 10
221.5844210000001
 20
-77.497693
 30
0.0
 40
4.153132
100
AcDbArc
 50
128.0487049999963
 51
156.3886350000035
  0
LINE
  5
5697
330
A
100
AcDbEntity
  8
0
  6
Continuous
 62
     9
100
AcDbLine
 10
219.1515170000004
 20
-74.12682300000009
 30
0.0
 11
219.3377850000003
 21
-73.9747360000002
 31
0.0
  0
ELLIPSE
  5
5698
330
A
100
AcDbEntity
  8
0
  6
Continuous
 62
     7
100
AcDbEllipse
 10
265.9002449999999
 20
-132.2111519999999
 30
0.0
 11
-3.794733195840116
 21
4.647580012478612
 31
-2.000000000000000E-16
210
8.790794370662401E-17
220
1.148096839062275E-16
230
1.0
 40
0.8164970000000001
 41
3.141592653589877
 42
3.926990816348192
  0
ELLIPSE
  5
5699
330
A
100
AcDbEntity
  8
0
  6
Continuous
 62
     9
100
AcDbEllipse
 10
225.472136
 20
-127.6102820000001
 30
0.0
 11
0.6399999990183149
 21
3.135346870962841
 31
-2.000000000000000E-16
210
-7.095917932633502E-18
220
6.523724356122242E-17
230
1.0
 40
0.4082480000000003
 41
2.034443935667828
 42
3.141592653589794
  0
ELLIPSE
  5
569A
330
A
100
AcDbEntity
  8
0
  6
Continuous
 62
     9
100
AcDbEllipse
 10
222.9677400000002
 20
-114.2823669999999
 30
0.0
 11
3.200000000000091
 21
0.0
 31
-2.000000000000000E-16
210
6.249999999999822E-17
220
0.0
230
1.0
 40
0.4082480000000002
 41
3.141593764514893
 42
4.248741372023165
  0
LINE
  5
569B
330
A
100
AcDbEntity
  8
0
  6
Continuous
 62
     7
100
AcDbLine
 10
217.7789760000001
 20
-110.8864249999999
 30
0.0
 11
217.7852480000002
 21
-110.8924599999999
 31
0.0
  0
LINE
  5
569C
330
A
100
AcDbEntity
  8
0
  6
Continuous
 62
     7
100
AcDbLine
 10
217.7852480000002
 20
-110.8924599999999
 30
0.0
 11
217.8926149999999
 21
-110.979059
 31
0.0
  0
ELLIPSE
  5
569D
330
A
100
AcDbEntity
  8
0
  6
Continuous
 62
     9
100
AcDbEllipse
 10
222.9677400000002
 20
-124.5430360000001
 30
0.0
 11
3.200000000000091
 21
0.0
 31
-2.000000000000000E-16
210
6.249999999999822E-17
220
0.0
230
1.0
 40
0.4082480000000002
 41
3.141592653589877
 42
4.248741372023165
  0
ELLIPSE
  5
569E
330
A
100
AcDbEntity
  8
0
  6
Continuous
 62
     7
100
AcDbEllipse
 10
206.9719660000001
 20
-86.85202999999987
 30
0.0
 11
-5.199999999999872
 21
1.125877200000000E-9
 31
3.999999999999999E-16
210
7.692307694473029E-17
220
1.000000000049965E-16
230
1.0
 40
0.4082480000000002
 41
1.196691485190817
 42
2.657599311043107
  0
ELLIPSE
  5
569F
330
A
100
AcDbEntity
  8
0
  6
Continuous
 62
     7
100
AcDbEllipse
 10
205.6563840000001
 20
-88.22007199999987
 30
0.0
 11
-1.600000000000265
 21
3.464451000000000E-10
 31
1.000000000000000E-16
210
6.249999999998965E-17
220
8.119807031250895E-27
230
1.0
 40
0.4082480000000002
 41
0.7918811481944406
 42
1.1966914851906
  0
ELLIPSE
  5
56A0
330
A
100
AcDbEntity
  8
0
  6
Continuous
 62
     7
100
AcDbEllipse
 10
201.3008350000001
 20
-90.021424
 30
0.0
 11
4.599999999999936
 21
-9.959811000000000E-10
 31
0.0
210
2.165176304347857E-26
220
1.000000000000000E-16
230
1.0
 40
0.4082480000000002
 41
0.7918811481945741
 42
1.381563469533092
  0
ELLIPSE
  5
56A1
330
A
100
AcDbEntity
  8
0
  6
Continuous
 62
     7
100
AcDbEllipse
 10
202.4670899999998
 20
-87.53546799999998
 30
0.0
 11
-1.599999999999823
 21
3.464451000000000E-10
 31
1.000000000000000E-16
210
6.250000002165973E-17
220
1.000000000081198E-16
230
1.0
 40
0.4082480000000002
 41
0.7600247131831296
 42
1.381563469533199
  0
ELLIPSE
  5
56A2
330
A
100
AcDbEntity
  8
0
  6
Continuous
 62
     7
100
AcDbEllipse
 10
211.1649170000001
 20
-84.16036799999986
 30
0.0
 11
-13.60000000000028
 21
2.944589000000000E-9
 31
9.000000000000000E-16
210
6.617647058823393E-17
220
7.323264165225058E-27
230
1.0
 40
0.4082480000000002
 41
6.241655280139545
 42
6.283185307179584
  0
ELLIPSE
  5
56A3
330
A
100
AcDbEntity
  8
0
  6
Continuous
 62
     7
100
AcDbEllipse
 10
199.346393
 20
-83.32747499999999
 30
0.0
 11
-1.599999999999823
 21
3.464451000000000E-10
 31
-1.000000000000000E-16
210
-6.249999997835411E-17
220
9.999999999188019E-17
230
1.0
 40
0.4082480000000002
 41
4.967805895629681
 42
5.22063023349836
  0
LINE
  5
56A4
330
A
100
AcDbEntity
  8
0
  6
Continuous
 62
     7
100
AcDbLine
 10
210.6425329999999
 20
-87.50238499999985
 30
0.0
 11
211.574714
 21
-87.83984799999998
 31
0.0
  0
ELLIPSE
  5
56A5
330
A
100
AcDbEntity
  8
0
  6
Continuous
 62
     7
100
AcDbEllipse
 10
206.9719660000001
 20
-95.615591
 30
0.0
 11
-5.200000000000316
 21
1.125877200000000E-9
 31
3.999999999999999E-16
210
7.692307694472372E-17
220
1.000000000049965E-16
230
1.0
 40
0.4082479999999999
 41
1.196691485190817
 42
2.657599311043107
  0
LINE
  5
56A6
330
A
100
AcDbEntity
  8
0
  6
Continuous
 62
     9
100
AcDbLine
 10
205.0716810000001
 20
-88.82809100000001
 30
0.0
 11
205.0716810000001
 21
-97.59165199999987
 31
0.0
  0
LINE
  5
56A7
330
A
100
AcDbEntity
  8
0
  6
Continuous
 62
     7
100
AcDbLine
 10
211.574714
 20
-87.83984799999998
 30
0.0
 11
211.574714
 21
-96.60340900000008
 31
0.0
  0
LINE
  5
56A8
330
A
100
AcDbEntity
  8
0
  6
Continuous
 62
     9
100
AcDbLine
 10
204.5323710000003
 20
-97.448498
 30
0.0
 11
204.5323710000003
 21
-88.684937
 31
0.0
  0
ELLIPSE
  5
56A9
330
A
100
AcDbEntity
  8
0
  6
Continuous
 62
     7
100
AcDbEllipse
 10
205.6563840000001
 20
-96.983633
 30
0.0
 11
1.599999999999823
 21
-3.464451000000000E-10
 31
-1.000000000000000E-16
210
6.250000002165973E-17
220
1.000000000081198E-16
230
1.0
 40
0.4082480000000002
 41
3.933473801784396
 42
4.338284138780616
  0
LINE
  5
56AA
330
A
100
AcDbEntity
  8
0
  6
Continuous
 62
     9
100
AcDbLine
 10
202.1661210000003
 20
-88.17700500000026
 30
0.0
 11
202.1661210000003
 21
-96.94056599999999
 31
0.0
  0
ELLIPSE
  5
56AB
330
A
100
AcDbEntity
  8
0
  6
Continuous
 62
     7
100
AcDbEllipse
 10
201.3008350000001
 20
-98.7849849999999
 30
0.0
 11
4.599999999999936
 21
-9.959811000000000E-10
 31
-3.000000000000000E-16
210
6.521739130434874E-17
220
7.531048015122782E-27
230
1.0
 40
0.4082480000000002
 41
0.7918811481945749
 42
1.381563469533187
  0
LINE
  5
56AC
330
A
100
AcDbEntity
  8
0
  6
Continuous
 62
     9
100
AcDbLine
 10
201.3073789999999
 20
-96.74904200000009
 30
0.0
 11
201.3073789999999
 21
-87.98548099999988
 31
0.0
  0
ELLIPSE
  5
56AD
330
A
100
AcDbEntity
  8
0
  6
Continuous
 62
     7
100
AcDbEllipse
 10
202.4670899999998
 20
-96.29902899999999
 30
0.0
 11
1.600000000000265
 21
-3.464451000000000E-10
 31
-1.000000000000000E-16
210
6.249999999998965E-17
220
8.119807031250895E-27
230
1.0
 40
0.4082480000000002
 41
3.901617366772937
 42
4.523156123122959
  0
ELLIPSE
  5
56AE
330
A
100
AcDbEntity
  8
0
  6
Continuous
 62
     7
100
AcDbEllipse
 10
211.1649170000001
 20
-84.16036799999986
 30
0.0
 11
-13.60000000000028
 21
2.944589000000000E-9
 31
0.0
210
2.165138970588191E-26
220
1.000000000000000E-16
230
1.0
 40
0.4082480000000002
 41
6.283185307179584
 42
7.043210020362732
  0
ELLIPSE
  5
56AF
330
A
100
AcDbEntity
  8
0
  6
Continuous
 62
     7
100
AcDbEllipse
 10
211.1649170000001
 20
-92.92392900000009
 30
0.0
 11
-13.59999999999983
 21
2.944589000000000E-9
 31
9.000000000000000E-16
210
6.617647060988751E-17
220
1.000000000073232E-16
230
1.0
 40
0.4082480000000003
 41
0.0000000000000001
 42
0.7600247131831483
  0
ELLIPSE
  5
56B0
330
A
100
AcDbEntity
  8
0
  6
Continuous
 62
     7
100
AcDbEllipse
 10
197.7799700000001
 20
-80.87845099999998
 30
0.0
 11
4.599999999999936
 21
-9.959811000000000E-10
 31
0.0
210
0.0
220
0.0
230
1.0
 40
0.4082480000000002
 41
4.967805895629936
 42
5.642189782549595
  0
LINE
  5
56B1
330
A
100
AcDbEntity
  8
0
  6
Continuous
 62
     7
100
AcDbLine
 10
217.7800620000003
 20
-75.83224299999986
 30
0.0
 11
206.3313940000003
 21
-73.4952940000002
 31
0.0
  0
ELLIPSE
  5
56B2
330
A
100
AcDbEntity
  8
0
  6
Continuous
 62
     7
100
AcDbEllipse
 10
210.2668740000001
 20
-70.28198800000007
 30
0.0
 11
8.799999999999917
 21
0.0
 31
0.0
210
0.0
220
0.0
230
1.0
 40
0.4082480000000002
 41
3.797714560053436
 42
4.248741372023008
  0
ELLIPSE
  5
56B3
330
A
100
AcDbEntity
  8
0
  6
Continuous
 62
     7
100
AcDbEllipse
 10
210.4815359999999
 20
-87.56080900000028
 30
0.0
 11
0.1011928852223676
 21
-0.1239354669994031
 31
0.0
210
-5.999999992331130E-17
220
-4.898979487131757E-17
230
1.0
 40
0.8164969999999998
 41
0.7853981627581474
 42
2.356194489551181
  0
LINE
  5
56B4
330
A
100
AcDbEntity
  8
0
  6
Continuous
 62
     7
100
AcDbLine
 10
210.4815359999999
 20
-87.41475000000008
 30
0.0
 11
206.3313940000003
 21
-86.56760499999989
 31
0.0
  0
LINE
  5
56B5
330
A
100
AcDbEntity
  8
0
  6
Continuous
 62
     9
100
AcDbLine
 10
206.3313940000003
 20
-86.56760499999989
 30
0.0
 11
206.3313940000003
 21
-73.4952940000002
 31
0.0
  0
LINE
  5
56B6
330
A
100
AcDbEntity
  8
0
  6
Continuous
 62
     7
100
AcDbLine
 10
217.7800620000003
 20
-110.886487
 30
0.0
 11
217.7789750000012
 21
-110.8862650000001
 31
0.0
  0
LINE
  5
56B7
330
A
100
AcDbEntity
  8
0
  6
Continuous
 62
     7
100
AcDbLine
 10
217.7789750000012
 20
-110.8862650000001
 30
0.0
 11
206.3313940000003
 21
-108.549537
 31
0.0
  0
LINE
  5
56B8
330
A
100
AcDbEntity
  8
0
  6
Continuous
 62
     9
100
AcDbLine
 10
206.3313940000003
 20
-108.549537
 30
0.0
 11
206.3313940000003
 21
-97.72231299999999
 31
0.0
  0
ELLIPSE
  5
56B9
330
A
100
AcDbEntity
  8
0
  6
Continuous
 62
     7
100
AcDbEllipse
 10
210.2668740000001
 20
-83.3543
 30
0.0
 11
8.799999999999917
 21
0.0
 31
6.000000000000000E-16
210
-6.818181818181883E-17
220
1.000000000000000E-16
230
1.0
 40
0.4082480000000002
 41
3.141592653589792
 42
4.248741372023014
  0
ELLIPSE
  5
56BA
330
A
100
AcDbEntity
  8
0
  6
Continuous
 62
     7
100
AcDbEllipse
 10
210.2668740000001
 20
-105.3362320000001
 30
0.0
 11
8.799999999999917
 21
0.0
 31
0.0
210
0.0
220
0.0
230
1.0
 40
0.4082480000000002
 41
3.141592653589792
 42
4.248741372023014
  0
ELLIPSE
  5
56BB
330
A
100
AcDbEntity
  8
0
  6
Continuous
 62
     7
100
AcDbEllipse
 10
197.5338079999998
 20
-81.19335199999985
 30
0.0
 11
-4.56000000000012
 21
1.984524000000000E-10
 31
3.000000000000000E-16
210
6.578947368420879E-17
220
1.488851108033277E-27
230
1.0
 40
0.4082480000000002
 41
3.672171375329326
 42
3.745284749221956
  0
ELLIPSE
  5
56BC
330
A
100
AcDbEntity
  8
0
  6
Continuous
 62
     7
100
AcDbEllipse
 10
197.5338079999998
 20
-81.19335199999985
 30
0.0
 11
4.239999999999798
 21
-1.845191000000000E-10
 31
3.000000000000000E-16
210
-7.075471697678358E-17
220
9.999999999872729E-17
230
1.0
 40
0.4082480000000002
 41
0.3828338193940125
 42
0.5616225911885515
  0
ELLIPSE
  5
56BD
330
A
100
AcDbEntity
  8
0
  6
Continuous
 62
     7
100
AcDbEllipse
 10
197.5338079999998
 20
-81.19335199999985
 30
0.0
 11
4.239999999999798
 21
-1.845191000000000E-10
 31
0.0
210
0.0
220
0.0
230
1.0
 40
0.4082480000000002
 41
5.819537698285367
 42
5.900351487821096
  0
ELLIPSE
  5
56BE
330
A
100
AcDbEntity
  8
0
  6
Continuous
 62
     7
100
AcDbEllipse
 10
197.5338079999998
 20
-81.19335199999985
 30
0.0
 11
4.239999999999798
 21
-1.845191000000000E-10
 31
0.0
210
0.0
220
0.0
230
1.0
 40
0.4082480000000002
 41
5.597391961567024
 42
5.819537698285367
  0
ELLIPSE
  5
56BF
330
A
100
AcDbEntity
  8
0
  6
Continuous
 62
     7
100
AcDbEllipse
 10
197.5338079999998
 20
-81.41244100000021
 30
0.0
 11
-4.000000000000004
 21
1.740830000000000E-10
 31
0.0
210
0.0
220
0.0
230
1.0
 40
0.4082480000000002
 41
2.73710483495517
 42
2.958396012328686
  0
ELLIPSE
  5
56C0
330
A
100
AcDbEntity
  8
0
  6
Continuous
 62
     7
100
AcDbEllipse
 10
197.5338079999998
 20
-81.41244100000021
 30
0.0
 11
-4.000000000000004
 21
1.740830000000000E-10
 31
0.0
210
4.352074999999995E-27
220
1.000000000000000E-16
230
1.0
 40
0.4082480000000002
 41
3.324789294886419
 42
3.736651619034147
  0
ELLIPSE
  5
56C1
330
A
100
AcDbEntity
  8
0
  6
Continuous
 62
     7
100
AcDbEllipse
 10
197.5338079999998
 20
-89.00752699999998
 30
0.0
 11
-4.799999999999914
 21
2.088885000000000E-10
 31
0.0
210
-4.351843750000078E-27
220
-1.000000000000000E-16
230
1.0
 40
0.4082480000000002
 41
1.5484337839952
 42
1.577277457100636
  0
ELLIPSE
  5
56C2
330
A
100
AcDbEntity
  8
0
  6
Continuous
 62
     7
100
AcDbEllipse
 10
197.5338079999998
 20
-89.2266160000001
 30
0.0
 11
4.55999999999967
 21
-1.984524000000000E-10
 31
0.0
210
-4.352026315789789E-27
220
-1.000000000000000E-16
230
1.0
 40
0.4082480000000003
 41
4.688849249645436
 42
4.71921122796698
  0
ELLIPSE
  5
56C3
330
A
100
AcDbEntity
  8
0
  6
Continuous
 62
     9
100
AcDbEllipse
 10
197.5338079999998
 20
-74.985829
 30
0.0
 11
2.40000000000018
 21
-3.475000000000000E-11
 31
-2.000000000000000E-16
210
8.333333333332708E-17
220
2.413194444445168E-28
230
1.0
 40
0.4082480000000002
 41
5.819537698626687
 42
6.283182048747681
  0
ELLIPSE
  5
56C4
330
A
100
AcDbEntity
  8
0
  6
Continuous
 62
     9
100
AcDbEllipse
 10
197.5338079999998
 20
-74.985829
 30
0.0
 11
2.40000000000018
 21
-3.475000000000000E-11
 31
-2.000000000000000E-16
210
8.333333333332708E-17
220
2.413194444445168E-28
230
1.0
 40
0.4082480000000002
 41
5.157785517983369
 42
5.819537698626687
  0
ELLIPSE
  5
56C5
330
A
100
AcDbEntity
  8
0
  6
Continuous
 62
     9
100
AcDbEllipse
 10
197.5338079999998
 20
-95.43413799999999
 30
0.0
 11
-2.399999999999736
 21
3.469450000000000E-11
 31
0.0
210
1.445604166666826E-27
220
1.000000000000000E-16
230
1.0
 40
0.4082480000000002
 41
2.016192864530158
 42
2.661724969436539
  0
ELLIPSE
  5
56C6
330
A
100
AcDbEntity
  8
0
  6
Continuous
 62
     7
100
AcDbEllipse
 10
197.5338079999998
 20
-81.92364800000007
 30
0.0
 11
-4.000000000000004
 21
1.159628000000000E-10
 31
3.000000000000000E-16
210
7.499999999999991E-17
220
7.247675000000016E-28
230
1.0
 40
0.4082480000000002
 41
3.324789294864503
 42
4.068887871597326
  0
ELLIPSE
  5
56C7
330
A
100
AcDbEntity
  8
0
  6
Continuous
 62
     7
100
AcDbEllipse
 10
197.5338079999998
 20
-81.92364800000007
 30
0.0
 11
2.40000000000018
 21
-6.955550000000000E-11
 31
-2.000000000000000E-16
210
8.333333333332708E-17
220
4.830243055557007E-28
230
1.0
 40
0.4082480000000002
 41
5.395601382894381
 42
6.283185307179607
  0
LINE
  5
56C8
330
A
100
AcDbEntity
  8
0
  6
Continuous
 62
     9
100
AcDbLine
 10
215.2756660000001
 20
-51.22124299999994
 30
0.0
 11
214.9178950000002
 21
-51.51336200000013
 31
0.0
  0
LINE
  5
56C9
330
A
100
AcDbEntity
  8
0
  6
Continuous
 62
     9
100
AcDbLine
 10
214.9178950000002
 20
-51.51336200000013
 30
0.0
 11
214.5601239999997
 21
-51.80548000000009
 31
0.0
  0
ELLIPSE
  5
56CA
330
A
100
AcDbEntity
  8
0
  6
Continuous
 62
     7
100
AcDbEllipse
 10
215.2756660000001
 20
-55.23787500000012
 30
0.0
 11
2.782804343610667
 21
-3.408225342488301
 31
0.0
210
0.0
220
0.0
230
1.0
 40
0.816497
 41
0.7853981627592816
 42
2.356194489554146
  0
LINE
  5
56CB
330
A
100
AcDbEntity
  8
0
  6
Continuous
 62
     9
100
AcDbLine
 10
219.2111460000002
 20
-56.04120099999999
 30
0.0
 11
218.8533750000003
 21
-56.33332000000017
 31
0.0
  0
LINE
  5
56CC
330
A
100
AcDbEntity
  8
0
  6
Continuous
 62
     9
100
AcDbLine
 10
218.8533750000003
 20
-56.33332000000017
 30
0.0
 11
218.4956039999998
 21
-56.62543899999991
 31
0.0
  0
ELLIPSE
  5
56CD
330
A
100
AcDbEntity
  8
0
  6
Continuous
 62
     7
100
AcDbEllipse
 10
214.5601239999997
 20
-55.82211200000015
 30
0.0
 11
2.782804343610668
 21
-3.408225342488413
 31
0.0
210
0.0
220
0.0
230
1.0
 40
0.816497
 41
0.7853981627592769
 42
2.356194489554259
  0
ELLIPSE
  5
56CE
330
A
100
AcDbEntity
  8
0
  6
Continuous
 62
     7
100
AcDbEllipse
 10
214.5601239999997
 20
-118.6276320000002
 30
0.0
 11
2.782804343610668
 21
-3.408225342488413
 31
2.000000000000000E-16
210
-2.874797875631054E-17
220
3.520893948851910E-17
230
1.0
 40
0.816497
 41
0.7853981627592564
 42
1.441874622490206
  0
ELLIPSE
  5
56CF
330
A
100
AcDbEntity
  8
0
  6
Continuous
 62
     7
100
AcDbEllipse
 10
214.5601239999997
 20
-118.6276320000002
 30
0.0
 11
2.782804343610668
 21
-3.408225342488357
 31
0.0
210
5.999999992345513E-17
220
4.898979487128823E-17
230
1.0
 40
0.8164970000000005
 41
6.129436843711432
 42
6.283185307179584
  0
ELLIPSE
  5
56D0
330
A
100
AcDbEntity
  8
0
  6
Continuous
 62
     7
100
AcDbEllipse
 10
175.5630990000001
 20
-48.22702600000013
 30
0.0
 11
3.035786556666143
 21
-3.71806400998731
 31
0.0
210
5.999999992345590E-17
220
4.898979487128806E-17
230
1.0
 40
0.816497
 41
2.356194489554218
 42
3.141592653589865
  0
LINE
  5
56D1
330
A
100
AcDbEntity
  8
0
  6
Continuous
 62
     7
100
AcDbLine
 10
214.5601239999997
 20
-51.80548000000009
 30
0.0
 11
175.5630990000001
 21
-43.84524599999997
 31
0.0
  0
ELLIPSE
  5
56D2
330
A
100
AcDbEntity
  8
0
  6
Continuous
 62
     7
100
AcDbEllipse
 10
214.5601239999997
 20
-55.82211200000015
 30
0.0
 11
2.782804343610668
 21
-3.408225342488413
 31
0.0
210
0.0
220
0.0
230
1.0
 40
0.816497
 41
6.120761850819826
 42
6.283185307179584
  0
LINE
  5
56D3
330
A
100
AcDbEntity
  8
0
  6
Continuous
 62
     9
100
AcDbLine
 10
176.27864
 20
-43.26100800000016
 30
0.0
 11
175.9208700000001
 21
-43.5531269999999
 31
0.0
  0
LINE
  5
56D4
330
A
100
AcDbEntity
  8
0
  6
Continuous
 62
     9
100
AcDbLine
 10
175.9208700000001
 20
-43.5531269999999
 30
0.0
 11
175.5630990000001
 21
-43.84524599999997
 31
0.0
  0
LINE
  5
56D5
330
A
100
AcDbEntity
  8
0
  6
Continuous
 62
     7
100
AcDbLine
 10
215.2756660000001
 20
-51.22124299999994
 30
0.0
 11
176.27864
 21
-43.26100800000016
 31
0.0
  0
ELLIPSE
  5
56D6
330
A
100
AcDbEntity
  8
0
  6
Continuous
 62
     7
100
AcDbEllipse
 10
215.2756660000001
 20
-55.23787500000012
 30
0.0
 11
2.782804343610668
 21
-3.408225342488413
 31
2.000000000000000E-16
210
-2.874797875631054E-17
220
3.520893948851910E-17
230
1.0
 40
0.816497
 41
0.000000000000016
 42
0.7853981627592975
  0
ELLIPSE
  5
56D7
330
A
100
AcDbEntity
  8
0
  6
Continuous
 62
     7
100
AcDbEllipse
 10
214.5601239999997
 20
-55.82211200000015
 30
0.0
 11
2.782804343610668
 21
-3.408225342488413
 31
2.000000000000000E-16
210
-2.874797875631054E-17
220
3.520893948851910E-17
230
1.0
 40
0.816497
 41
0.0
 42
0.7853981627592769
  0
ELLIPSE
  5
56D8
330
A
100
AcDbEntity
  8
0
  6
Continuous
 62
     7
100
AcDbEllipse
 10
175.5630990000001
 20
-48.22702600000013
 30
0.0
 11
3.035786556666143
 21
-3.71806400998731
 31
2.000000000000000E-16
210
8.263748093479228E-17
220
1.212646561456418E-16
230
1.0
 40
0.816497
 41
3.141592653589863
 42
3.455296548833923
  0
ELLIPSE
  5
56D9
330
A
100
AcDbEntity
  8
0
  6
Continuous
 62
     7
100
AcDbEllipse
 10
176.27864
 20
-47.64278899999998
 30
0.0
 11
3.035786556666143
 21
-3.71806400998731
 31
0.0
210
5.999999992345590E-17
220
4.898979487128806E-17
230
1.0
 40
0.816497
 41
2.356194489554218
 42
3.141592653589865
  0
LINE
  5
56DA
330
A
100
AcDbEntity
  8
0
  6
Continuous
 62
     9
100
AcDbLine
 10
219.2111460000002
 20
-118.8467209999999
 30
0.0
 11
218.8533750000003
 21
-119.1388400000001
 31
0.0
  0
LINE
  5
56DB
330
A
100
AcDbEntity
  8
0
  6
Continuous
 62
     9
100
AcDbLine
 10
218.8533750000003
 20
-119.1388400000001
 30
0.0
 11
218.4956039999998
 21
-119.430959
 31
0.0
  0
ELLIPSE
  5
56DC
330
A
100
AcDbEntity
  8
0
  6
Continuous
 62
     7
100
AcDbEllipse
 10
215.2756660000001
 20
-118.0433950000001
 30
0.0
 11
2.782804343610668
 21
-3.408225342488413
 31
2.000000000000000E-16
210
-2.874797875631054E-17
220
3.520893948851910E-17
230
1.0
 40
0.816497
 41
0.785398162759315
 42
1.4418746224906
  0
ELLIPSE
  5
56DD
330
A
100
AcDbEntity
  8
0
  6
Continuous
 62
     7
100
AcDbEllipse
 10
215.2756660000001
 20
-118.0433950000001
 30
0.0
 11
2.782804343610668
 21
-3.408225342488357
 31
3.000000000000000E-16
210
5.867826736821534E-18
220
9.281340930932372E-17
230
1.0
 40
0.8164970000000005
 41
6.283185307179584
 42
7.0685834699389
  0
ELLIPSE
  5
56DE
330
A
100
AcDbEntity
  8
0
  6
Continuous
 62
     7
100
AcDbEllipse
 10
214.5601239999997
 20
-118.6276320000002
 30
0.0
 11
2.782804343610668
 21
-3.408225342488357
 31
3.000000000000000E-16
210
5.867826736821534E-18
220
9.281340930932372E-17
230
1.0
 40
0.8164970000000005
 41
6.283185307179584
 42
7.068583469938857
  0
LINE
  5
56DF
330
A
100
AcDbEntity
  8
0
  6
Continuous
 62
     7
100
AcDbLine
 10
197.4264770000001
 20
-91.68771600000008
 30
0.0
 11
197.5649170000002
 21
-91.57468000000009
 31
0.0
  0
LINE
  5
56E0
330
A
100
AcDbEntity
  8
0
  6
Continuous
 62
     7
100
AcDbLine
 10
198.607121
 20
-95.05550700000009
 30
0.0
 11
198.607121
 21
-97.4789690000002
 31
0.0
  0
LINE
  5
56E1
330
A
100
AcDbEntity
  8
0
  6
Continuous
 62
     7
100
AcDbLine
 10
198.607121
 20
-97.4789690000002
 30
0.0
 11
200.17809
 21
-96.196278
 31
0.0
  0
LINE
  5
56E2
330
A
100
AcDbEntity
  8
0
  6
Continuous
 62
     7
100
AcDbLine
 10
200.753746
 20
-80.57259900000008
 30
0.0
 11
201.4668739999998
 21
-79.99033300000006
 31
0.0
  0
LINE
  5
56E3
330
A
100
AcDbEntity
  8
0
  6
Continuous
 62
     7
100
AcDbLine
 10
200.753746
 20
-80.57259900000008
 30
0.0
 11
200.753746
 21
-73.81735400000008
 31
0.0
  0
LINE
  5
56E4
330
A
100
AcDbEntity
  8
0
  6
Continuous
 62
     7
100
AcDbLine
 10
198.607121
 20
-75.570067
 30
0.0
 11
200.753746
 21
-73.81735400000008
 31
0.0
  0
LINE
  5
56E5
330
A
100
AcDbEntity
  8
0
  6
Continuous
 62
     7
100
AcDbLine
 10
198.607121
 20
-75.570067
 30
0.0
 11
198.607121
 21
-82.325312
 31
0.0
  0
LINE
  5
56E6
330
A
100
AcDbEntity
  8
0
  6
Continuous
 62
     7
100
AcDbLine
 10
198.5677660000002
 20
-82.35744499999998
 30
0.0
 11
198.607121
 21
-82.325312
 31
0.0
  0
LINE
  5
56E7
330
A
100
AcDbEntity
  8
0
  6
Continuous
 62
     7
100
AcDbLine
 10
197.4264770000001
 20
-84.05246300000019
 30
0.0
 11
197.4264770000001
 21
-91.68771600000008
 31
0.0
  0
LINE
  5
56E8
330
A
100
AcDbEntity
  8
0
  6
Continuous
 62
     7
100
AcDbLine
 10
199.6804330000001
 20
-101.3495420000001
 30
0.0
 11
201.4668739999998
 21
-99.8909190000002
 31
0.0
  0
LINE
  5
56E9
330
A
100
AcDbEntity
  8
0
  6
Continuous
 62
     7
100
AcDbLine
 10
199.6804330000001
 20
-104.0151250000001
 30
0.0
 11
199.6804330000001
 21
-101.3495420000001
 31
0.0
  0
LINE
  5
56EA
330
A
100
AcDbEntity
  8
0
  6
Continuous
 62
     7
100
AcDbLine
 10
199.1759769999999
 20
-104.427012
 30
0.0
 11
199.6804330000001
 21
-104.0151250000001
 31
0.0
  0
LINE
  5
56EB
330
A
100
AcDbEntity
  8
0
  6
Continuous
 62
     7
100
AcDbLine
 10
198.9648990000001
 20
-102.664077
 30
0.0
 11
198.9648990000001
 21
-103.5039190000002
 31
0.0
  0
ELLIPSE
  5
56EC
330
A
100
AcDbEntity
  8
0
  6
Continuous
 62
     7
100
AcDbEllipse
 10
198.6071280000003
 20
-102.956196
 30
0.0
 11
-0.1599999997545787
 21
-0.7838367177406825
 31
1.000000000000000E-16
210
1.014040820604649E-16
220
1.068785692212595E-16
230
1.0
 40
0.4082480000000002
 41
3.141592653589805
 42
3.715483427204496
  0
LINE
  5
56ED
330
A
100
AcDbEntity
  8
0
  6
Continuous
 62
     7
100
AcDbLine
 10
196.9971520000001
 20
-84.40300599999986
 30
0.0
 11
196.9971520000001
 21
-93.02415899999998
 31
0.0
  0
LINE
  5
56EE
330
A
100
AcDbEntity
  8
0
  6
Continuous
 62
     7
100
AcDbLine
 10
200.753746
 20
-80.57259900000008
 30
0.0
 11
199.9338079999998
 21
-80.40522999999988
 31
0.0
  0
ELLIPSE
  5
56EF
330
A
100
AcDbEntity
  8
0
  6
Continuous
 62
     7
100
AcDbEllipse
 10
198.6071280000003
 20
-102.956196
 30
0.0
 11
-0.1599999997545787
 21
-0.7838367177406825
 31
1.000000000000000E-16
210
1.014040820604649E-16
220
1.068785692212595E-16
230
1.0
 40
0.4082480000000002
 41
2.034443935668186
 42
3.141592653589805
  0
LINE
  5
56F0
330
A
100
AcDbEntity
  8
0
  6
Continuous
 62
     9
100
AcDbLine
 10
198.9648990000001
 20
-102.664077
 30
0.0
 11
198.5677660000002
 21
-102.583013
 31
0.0
  0
ELLIPSE
  5
56F1
330
A
100
AcDbEntity
  8
0
  6
Continuous
 62
     7
100
AcDbEllipse
 10
215.4545510000003
 20
-117.8973360000002
 30
0.0
 11
-3.794733195840116
 21
4.647580012478612
 31
-2.000000000000000E-16
210
-2.108185108799968E-17
220
2.581988895821334E-17
230
1.0
 40
0.8164970000000001
 41
3.141592653589705
 42
3.289707534584231
  0
ELLIPSE
  5
56F2
330
A
100
AcDbEntity
  8
0
  6
Continuous
 62
     7
100
AcDbEllipse
 10
176.0997550000003
 20
-47.78884800000013
 30
0.0
 11
-3.794733195840116
 21
4.647580012478668
 31
2.000000000000000E-16
210
8.108185101130471E-17
220
2.316990591310552E-17
230
0.9999999999999999
 40
0.816497
 41
6.283185307179365
 42
6.828333691620107
  0
LINE
  5
56F3
330
A
100
AcDbEntity
  8
0
  6
Continuous
 62
     7
100
AcDbLine
 10
176.0997550000003
 20
-42.31162300000016
 30
0.0
 11
215.4545510000003
 21
-50.34488699999997
 31
0.0
  0
ELLIPSE
  5
56F4
330
A
100
AcDbEntity
  8
0
  6
Continuous
 62
     7
100
AcDbEllipse
 10
215.4545510000003
 20
-55.82211200000015
 30
0.0
 11
-3.794733195840116
 21
4.647580012478668
 31
0.0
210
0.0
220
0.0
230
0.9999999999999999
 40
0.816497
 41
3.926990816347941
 42
5.497787143143156
  0
LINE
  5
56F5
330
A
100
AcDbEntity
  8
0
  6
Continuous
 62
     7
100
AcDbLine
 10
220.8211149999999
 20
-56.91755799999996
 30
0.0
 11
220.8211149999999
 21
-59.22639600000003
 31
0.0
  0
ELLIPSE
  5
56F6
330
A
100
AcDbEntity
  8
0
  6
Continuous
 62
     7
100
AcDbEllipse
 10
215.0967809999999
 20
-55.38393399999995
 30
0.0
 11
3.035786556671916
 21
-3.718064009982868
 31
0.0
210
0.0
220
0.0
230
1.0
 40
0.816497
 41
5.924038012031544
 42
6.283185307179702
  0
ELLIPSE
  5
56F7
330
A
100
AcDbEntity
  8
0
  6
Continuous
 62
     7
100
AcDbEllipse
 10
215.0967809999999
 20
-55.38393399999995
 30
0.0
 11
3.035786556671916
 21
-3.718064009982868
 31
0.0
210
0.0
220
0.0
230
1.0
 40
0.816497
 41
0.7853981627581681
 42
2.356194489553448
  0
LINE
  5
56F8
330
A
100
AcDbEntity
  8
0
  6
Continuous
 62
     7
100
AcDbLine
 10
215.0967809999999
 20
-51.00215400000001
 30
0.0
 11
175.7419839999999
 21
-42.96888999999996
 31
0.0
  0
ELLIPSE
  5
56F9
330
A
100
AcDbEntity
  8
0
  6
Continuous
 62
     7
100
AcDbEllipse
 10
175.7419839999999
 20
-47.35067000000003
 30
0.0
 11
3.035786556671912
 21
-3.718064009982756
 31
2.000000000000000E-16
210
8.263748093462414E-17
220
1.212646561457812E-16
230
1.0
 40
0.8164970000000003
 41
2.356194489553414
 42
3.141592653589921
  0
ELLIPSE
  5
56FA
330
A
100
AcDbEntity
  8
0
  6
Continuous
 62
     7
100
AcDbEllipse
 10
215.0967809999999
 20
-118.1894540000001
 30
0.0
 11
3.035786556671915
 21
-3.71806400998281
 31
0.0
210
5.999999992330655E-17
220
4.898979487131855E-17
230
1.0
 40
0.8164970000000001
 41
5.924966020805392
 42
6.283185307179677
  0
ELLIPSE
  5
56FB
330
A
100
AcDbEntity
  8
0
  6
Continuous
 62
     7
100
AcDbEllipse
 10
215.0967809999999
 20
-118.1894540000001
 30
0.0
 11
3.035786556671916
 21
-3.718064009982868
 31
0.0
210
0.0
220
0.0
230
1.0
 40
0.816497
 41
0.7853981627581565
 42
1.45267067266496
  0
LINE
  5
56FC
330
A
100
AcDbEntity
  8
0
  6
Continuous
 62
     9
100
AcDbLine
 10
216.5278640000003
 20
-49.46853099999996
 30
0.0
 11
215.4545510000003
 21
-50.34488699999997
 31
0.0
  0
ELLIPSE
  5
56FD
330
A
100
AcDbEntity
  8
0
  6
Continuous
 62
     9
100
AcDbEllipse
 10
216.5278640000003
 20
-54.94575599999997
 30
0.0
 11
3.794733195840116
 21
-4.647580012478668
 31
0.0
210
0.0
220
0.0
230
0.9999999999999999
 40
0.816497
 41
0.7853981627581375
 42
2.356194489553395
  0
LINE
  5
56FE
330
A
100
AcDbEntity
  8
0
  6
Continuous
 62
     9
100
AcDbLine
 10
221.8944270000002
 20
-56.04120099999999
 30
0.0
 11
220.8211149999999
 21
-56.91755799999996
 31
0.0
  0
ELLIPSE
  5
56FF
330
A
100
AcDbEntity
  8
0
  6
Continuous
 62
     7
100
AcDbEllipse
 10
215.2756660000001
 20
-118.0433950000001
 30
0.0
 11
3.035786556671915
 21
-3.71806400998281
 31
2.000000000000000E-16
210
-2.635231385999997E-17
220
3.227486119776832E-17
230
1.0
 40
0.8164970000000001
 41
5.880995763985777
 42
6.253718261369955
  0
ELLIPSE
  5
5700
330
A
100
AcDbEntity
  8
0
  6
Continuous
 62
     7
100
AcDbEllipse
 10
215.2756660000001
 20
-55.23787500000012
 30
0.0
 11
3.035786556671916
 21
-3.718064009982868
 31
0.0
210
0.0
220
0.0
230
1.0
 40
0.816497
 41
5.876707863220977
 42
6.253718261880571
  0
ELLIPSE
  5
5701
330
A
100
AcDbEntity
  8
0
  6
Continuous
 62
     9
100
AcDbEllipse
 10
216.5278640000003
 20
-52.38971799999999
 30
0.0
 11
-0.6399999990183149
 21
-3.135346870962841
 31
2.000000000000000E-16
210
-7.095917932633502E-18
220
6.523724356122242E-17
230
1.0
 40
0.4082480000000003
 41
3.141590962334043
 42
3.605240262462767
  0
ELLIPSE
  5
5702
330
A
100
AcDbEntity
  8
0
  6
Continuous
 62
     9
100
AcDbEllipse
 10
219.0322600000001
 20
-55.45696399999995
 30
0.0
 11
-3.200000000000091
 21
0.0
 31
2.000000000000000E-16
210
6.249999999999822E-17
220
0.0
230
1.0
 40
0.4082480000000002
 41
2.677945045228053
 42
3.141594875320231
  0
LINE
  5
5703
330
A
100
AcDbEntity
  8
0
  6
Continuous
 62
     9
100
AcDbLine
 10
177.1730680000001
 20
-41.43526699999994
 30
0.0
 11
176.0997550000003
 21
-42.31162300000016
 31
0.0
  0
LINE
  5
5704
330
A
100
AcDbEntity
  8
0
  6
Continuous
 62
     9
100
AcDbLine
 10
216.5278640000003
 20
-49.46853099999996
 30
0.0
 11
177.1730680000001
 21
-41.43526699999994
 31
0.0
  0
LINE
  5
5705
330
A
100
AcDbEntity
  8
0
  6
Continuous
 62
     9
100
AcDbLine
 10
221.8944270000002
 20
-58.15424100000019
 30
0.0
 11
221.8944270000002
 21
-56.04120099999999
 31
0.0
  0
ELLIPSE
  5
5706
330
A
100
AcDbEntity
  8
0
  6
Continuous
 62
     7
100
AcDbEllipse
 10
215.0967809999999
 20
-55.38393399999995
 30
0.0
 11
3.035786556671916
 21
-3.718064009982868
 31
0.0
210
0.0
220
0.0
230
1.0
 40
0.816497
 41
6.283185307179571
 42
7.068583469937932
  0
ELLIPSE
  5
5707
330
A
100
AcDbEntity
  8
0
  6
Continuous
 62
     9
100
AcDbEllipse
 10
177.1730680000001
 20
-44.35645399999999
 30
0.0
 11
0.6399999990183149
 21
3.135346870962841
 31
-1.000000000000000E-16
210
6.249999990413279E-18
220
3.061862178674673E-17
230
1.0
 40
0.4082480000000003
 41
6.283185307179584
 42
6.746832916052562
  0
ELLIPSE
  5
5708
330
A
100
AcDbEntity
  8
0
  6
Continuous
 62
     7
100
AcDbEllipse
 10
176.0997550000003
 20
-47.78884800000013
 30
0.0
 11
-3.794733195840116
 21
4.647580012478668
 31
-2.000000000000000E-16
210
2.790794378331941E-17
220
6.581988903490794E-17
230
0.9999999999999999
 40
0.816497
 41
5.497787143143026
 42
6.283185307179584
  0
ELLIPSE
  5
5709
330
A
100
AcDbEntity
  8
0
  6
Continuous
 62
     9
100
AcDbEllipse
 10
177.1730680000001
 20
-46.91249200000016
 30
0.0
 11
3.794733195840116
 21
-4.647580012478668
 31
0.0
210
0.0
220
0.0
230
0.9999999999999999
 40
0.816497
 41
2.356194489553435
 42
3.141592653589951
  0
ELLIPSE
  5
570A
330
A
100
AcDbEntity
  8
0
  6
Continuous
 62
     7
100
AcDbEllipse
 10
175.9208700000001
 20
-47.20461100000009
 30
0.0
 11
3.035786556671912
 21
-3.718064009982756
 31
-2.000000000000000E-16
210
-2.263748101131825E-17
220
-7.227486127446255E-17
230
1.0
 40
0.8164970000000003
 41
3.171059796816223
 42
3.721546775051648
  0
ELLIPSE
  5
570B
330
A
100
AcDbEntity
  8
0
  6
Continuous
 62
     7
100
AcDbEllipse
 10
175.7419839999999
 20
-47.35067000000003
 30
0.0
 11
3.035786556671916
 21
-3.718064009982868
 31
3.000000000000000E-16
210
9.461324081319170E-18
220
8.841229187334504E-17
230
1.0
 40
0.816497
 41
3.141592653589792
 42
3.682059723304693
  0
ELLIPSE
  5
570C
330
A
100
AcDbEntity
  8
0
  6
Continuous
 62
     7
100
AcDbEllipse
 10
215.4545510000003
 20
-117.8973360000002
 30
0.0
 11
-3.794733195840116
 21
4.647580012478612
 31
-2.000000000000000E-16
210
2.790794378331924E-17
220
6.581988903490858E-17
230
1.0
 40
0.8164970000000001
 41
2.596444269155759
 42
3.141592653589678
  0
ELLIPSE
  5
570D
330
A
100
AcDbEntity
  8
0
  6
Continuous
 62
     7
100
AcDbEllipse
 10
215.0967809999999
 20
-118.1894540000001
 30
0.0
 11
3.035786556671912
 21
-3.718064009982756
 31
0.0
210
5.999999992330588E-17
220
4.898979487131869E-17
230
1.0
 40
0.8164970000000003
 41
6.283185307179577
 42
7.068583469937914
  0
ELLIPSE
  5
570E
330
A
100
AcDbEntity
  8
0
  6
Continuous
 62
     7
100
AcDbEllipse
 10
214.9178950000002
 20
-118.335514
 30
0.0
 11
2.782804343615996
 21
-3.40822534248425
 31
-2.000000000000000E-16
210
8.874797867966904E-17
220
1.378085538284501E-17
230
1.0
 40
0.816497
 41
0.7853981627583349
 42
1.441874622490801
  0
ELLIPSE
  5
570F
330
A
100
AcDbEntity
  8
0
  6
Continuous
 62
     7
100
AcDbEllipse
 10
175.9208700000001
 20
-47.93490800000017
 30
0.0
 11
3.035786556671912
 21
-3.718064009982756
 31
-2.000000000000000E-16
210
8.635231378330631E-17
220
1.671493367355025E-17
230
1.0
 40
0.8164970000000003
 41
2.356194489553232
 42
3.141592653589778
  0
LINE
  5
5710
330
A
100
AcDbEntity
  8
0
  6
Continuous
 62
     7
100
AcDbLine
 10
214.9178950000002
 20
-51.51336200000013
 30
0.0
 11
175.9208700000001
 21
-43.5531269999999
 31
0.0
  0
ELLIPSE
  5
5711
330
A
100
AcDbEntity
  8
0
  6
Continuous
 62
     7
100
AcDbEllipse
 10
214.9178950000002
 20
-55.52999399999997
 30
0.0
 11
2.782804343615996
 21
-3.408225342484194
 31
-2.000000000000000E-16
210
8.874797867966884E-17
220
1.378085538284506E-17
230
1.0
 40
0.8164970000000003
 41
0.7853981627583143
 42
2.356194489553208
  0
LINE
  5
5712
330
A
100
AcDbEntity
  8
0
  6
Continuous
 62
     9
100
AcDbLine
 10
215.2756660000001
 20
-51.22124299999994
 30
0.0
 11
214.9178950000002
 21
-51.51336200000013
 31
0.0
  0
ELLIPSE
  5
5713
330
A
100
AcDbEntity
  8
0
  6
Continuous
 62
     7
100
AcDbEllipse
 10
215.2756660000001
 20
-55.23787500000012
 30
0.0
 11
2.782804343615996
 21
-3.408225342484194
 31
-2.000000000000000E-16
210
8.874797867966884E-17
220
1.378085538284506E-17
230
1.0
 40
0.8164970000000003
 41
0.7853981627583143
 42
2.356194489553208
  0
LINE
  5
5714
330
A
100
AcDbEntity
  8
0
  6
Continuous
 62
     9
100
AcDbLine
 10
219.2111460000002
 20
-56.04120099999999
 30
0.0
 11
218.8533750000003
 21
-56.33332000000017
 31
0.0
  0
LINE
  5
5715
330
A
100
AcDbEntity
  8
0
  6
Continuous
 62
     9
100
AcDbLine
 10
176.27864
 20
-43.26100800000016
 30
0.0
 11
175.9208700000001
 21
-43.5531269999999
 31
0.0
  0
LINE
  5
5716
330
A
100
AcDbEntity
  8
0
  6
Continuous
 62
     7
100
AcDbLine
 10
215.2756660000001
 20
-51.22124299999994
 30
0.0
 11
176.27864
 21
-43.26100800000016
 31
0.0
  0
ELLIPSE
  5
5717
330
A
100
AcDbEntity
  8
0
  6
Continuous
 62
     7
100
AcDbEllipse
 10
215.2756660000001
 20
-55.23787500000012
 30
0.0
 11
2.782804343615996
 21
-3.408225342484194
 31
-2.000000000000000E-16
210
8.874797867966884E-17
220
1.378085538284506E-17
230
1.0
 40
0.8164970000000003
 41
0.0
 42
0.7853981627583143
  0
ELLIPSE
  5
5718
330
A
100
AcDbEntity
  8
0
  6
Continuous
 62
     7
100
AcDbEllipse
 10
214.9178950000002
 20
-55.52999399999997
 30
0.0
 11
2.782804343615995
 21
-3.408225342484302
 31
0.0
210
0.0
220
0.0
230
1.0
 40
0.816497
 41
6.283185307179584
 42
7.068583469937914
  0
ELLIPSE
  5
5719
330
A
100
AcDbEntity
  8
0
  6
Continuous
 62
     7
100
AcDbEllipse
 10
176.27864
 20
-47.64278899999998
 30
0.0
 11
3.035786556671912
 21
-3.718064009982756
 31
-2.000000000000000E-16
210
8.635231378330631E-17
220
1.671493367355025E-17
230
1.0
 40
0.8164970000000003
 41
2.356194489553244
 42
3.141592653589808
  0
LINE
  5
571A
330
A
100
AcDbEntity
  8
0
  6
Continuous
 62
     9
100
AcDbLine
 10
219.2111460000002
 20
-118.8467209999999
 30
0.0
 11
218.8533750000003
 21
-119.1388400000001
 31
0.0
  0
ELLIPSE
  5
571B
330
A
100
AcDbEntity
  8
0
  6
Continuous
 62
     7
100
AcDbEllipse
 10
215.2756660000001
 20
-118.0433950000001
 30
0.0
 11
2.782804343615996
 21
-3.40822534248425
 31
-2.000000000000000E-16
210
8.874797867966904E-17
220
1.378085538284501E-17
230
1.0
 40
0.816497
 41
0.7853981627583224
 42
1.441874622490725
  0
ELLIPSE
  5
571C
330
A
100
AcDbEntity
  8
0
  6
Continuous
 62
     7
100
AcDbEllipse
 10
215.2756660000001
 20
-118.0433950000001
 30
0.0
 11
2.782804343615996
 21
-3.40822534248425
 31
0.0
210
0.0
220
0.0
230
1.0
 40
0.816497
 41
6.283185307179584
 42
7.068583469937907
  0
ELLIPSE
  5
571D
330
A
100
AcDbEntity
  8
0
  6
Continuous
 62
     7
100
AcDbEllipse
 10
214.9178950000002
 20
-118.335514
 30
0.0
 11
2.782804343615996
 21
-3.40822534248425
 31
0.0
210
0.0
220
0.0
230
1.0
 40
0.816497
 41
6.283185307179584
 42
7.068583469937919
  0
ELLIPSE
  5
571E
330
A
100
AcDbEntity
  8
0
  6
Continuous
 62
     9
100
AcDbEllipse
 10
209.0146760000004
 20
-61.08024899999999
 30
0.0
 11
1.770875491391876
 21
-2.168870672489942
 31
0.0
210
1.089897947946262E-16
220
8.898979494801041E-17
230
1.0
 40
0.8164969999999996
 41
0.7853981627583801
 42
2.356194489553208
  0
ELLIPSE
  5
571F
330
A
100
AcDbEntity
  8
0
  6
Continuous
 62
     9
100
AcDbEllipse
 10
210.4457590000002
 20
-57.35573599999997
 30
0.0
 11
-0.6399999990183149
 21
-3.135346870962841
 31
2.000000000000000E-16
210
-7.095917932633502E-18
220
6.523724356122242E-17
230
1.0
 40
0.4082480000000003
 41
3.605240262462761
 42
5.176036589257653
  0
ELLIPSE
  5
5720
330
A
100
AcDbEntity
  8
0
  6
Continuous
 62
     9
100
AcDbEllipse
 10
210.4457590000002
 20
-59.91177400000003
 30
0.0
 11
-3.794733195840116
 21
4.647580012478668
 31
0.0
210
5.999999992330533E-17
220
4.898979487131879E-17
230
0.9999999999999999
 40
0.816497
 41
3.926990816348108
 42
5.497787143143026
  0
ELLIPSE
  5
5721
330
A
100
AcDbEntity
  8
0
  6
Continuous
 62
     9
100
AcDbEllipse
 10
212.9501550000002
 20
-60.42298200000014
 30
0.0
 11
-3.200000000000091
 21
0.0
 31
2.000000000000000E-16
210
6.249999999999822E-17
220
0.0
230
1.0
 40
0.4082480000000002
 41
1.107148718433156
 42
2.677945045228145
  0
LINE
  5
5722
330
A
100
AcDbEntity
  8
0
  6
Continuous
 62
     9
100
AcDbLine
 10
209.0146760000004
 20
-58.52420999999979
 30
0.0
 11
169.6598789999999
 21
-50.490946
 31
0.0
  0
ELLIPSE
  5
5723
330
A
100
AcDbEntity
  8
0
  6
Continuous
 62
     9
100
AcDbEllipse
 10
171.0909630000003
 20
-49.32247099999994
 30
0.0
 11
0.6399999990183149
 21
3.135346870962841
 31
2.000000000000000E-16
210
7.095917932633502E-18
220
-6.523724356122242E-17
230
1.0
 40
0.4082480000000003
 41
0.4636476088729684
 42
2.034443935667828
  0
LINE
  5
5724
330
A
100
AcDbEntity
  8
0
  6
Continuous
 62
     9
100
AcDbLine
 10
171.0909630000003
 20
-46.401284
 30
0.0
 11
210.4457590000002
 21
-54.43454900000018
 31
0.0
  0
LINE
  5
5725
330
A
100
AcDbEntity
  8
0
  6
Continuous
 62
     9
100
AcDbLine
 10
211.5190720000001
 20
-74.15256100000008
 30
0.0
 11
211.5190720000001
 21
-61.59145699999998
 31
0.0
  0
LINE
  5
5726
330
A
100
AcDbEntity
  8
0
  6
Continuous
 62
     9
100
AcDbLine
 10
215.8123219999998
 20
-61.0072190000002
 30
0.0
 11
215.8123219999998
 21
-73.56832300000006
 31
0.0
  0
ELLIPSE
  5
5727
330
A
100
AcDbEntity
  8
0
  6
Continuous
 62
     7
100
AcDbEllipse
 10
212.9501550000002
 20
-72.98408600000008
 30
0.0
 11
3.200000000000091
 21
0.0
 31
-2.000000000000000E-16
210
6.249999999999822E-17
220
0.0
230
1.0
 40
0.4082480000000002
 41
4.248741372022982
 42
5.819537698817847
  0
LINE
  5
5728
330
A
100
AcDbEntity
  8
0
  6
Continuous
 62
     7
100
AcDbLine
 10
196.8504659999999
 20
-84.52277400000008
 30
0.0
 11
196.8504659999999
 21
-71.1583440000002
 31
0.0
  0
LINE
  5
5729
330
A
100
AcDbEntity
  8
0
  6
Continuous
 62
     7
100
AcDbLine
 10
192.1994440000008
 20
-83.573389
 30
0.0
 11
196.8504659999999
 21
-84.52277400000008
 31
0.0
  0
LINE
  5
572A
330
A
100
AcDbEntity
  8
0
  6
Continuous
 62
     7
100
AcDbLine
 10
192.1994440000008
 20
-93.797543
 30
0.0
 11
192.1994440000008
 21
-83.573389
 31
0.0
  0
LINE
  5
572B
330
A
100
AcDbEntity
  8
0
  6
Continuous
 62
     7
100
AcDbLine
 10
196.8504659999999
 20
-94.74692900000007
 30
0.0
 11
192.1994440000008
 21
-93.797543
 31
0.0
  0
LINE
  5
572C
330
A
100
AcDbEntity
  8
0
  6
Continuous
 62
     7
100
AcDbLine
 10
196.8504659999999
 20
-108.111359
 30
0.0
 11
196.8504659999999
 21
-94.74692900000007
 31
0.0
  0
LINE
  5
572D
330
A
100
AcDbEntity
  8
0
  6
Continuous
 62
     7
100
AcDbLine
 10
211.5190720000001
 20
-111.1055759999999
 30
0.0
 11
196.8504659999999
 21
-108.111359
 31
0.0
  0
LINE
  5
572E
330
A
100
AcDbEntity
  8
0
  6
Continuous
 62
     9
100
AcDbLine
 10
211.5190720000001
 20
-123.66668
 30
0.0
 11
211.5190720000001
 21
-111.1055759999999
 31
0.0
  0
ELLIPSE
  5
572F
330
A
100
AcDbEntity
  8
0
  6
Continuous
 62
     9
100
AcDbEllipse
 10
209.0146760000004
 20
-123.1554719999999
 30
0.0
 11
1.770875491391876
 21
-2.168870672489942
 31
1.000000000000000E-16
210
2.640209727703238E-17
220
6.766416681763741E-17
230
1.0
 40
0.8164969999999996
 41
5.497787143142992
 42
7.068583469937932
  0
LINE
  5
5730
330
A
100
AcDbEntity
  8
0
  6
Continuous
 62
     9
100
AcDbLine
 10
169.6598789999999
 20
-117.6782470000003
 30
0.0
 11
209.0146760000004
 21
-125.7115110000002
 31
0.0
  0
ELLIPSE
  5
5731
330
A
100
AcDbEntity
  8
0
  6
Continuous
 62
     9
100
AcDbEllipse
 10
169.6598789999999
 20
-115.1222079999999
 30
0.0
 11
1.77087549139232
 21
-2.168870672490109
 31
1.000000000000000E-16
210
2.640209727703504E-17
220
6.766416681763977E-17
230
1.0
 40
0.816497
 41
3.926990816348002
 42
5.497787143142855
  0
LINE
  5
5732
330
A
100
AcDbEntity
  8
0
  6
Continuous
 62
     9
100
AcDbLine
 10
167.1554830000001
 20
-52.53577699999992
 30
0.0
 11
167.1554830000001
 21
-114.6109999999999
 31
0.0
  0
ELLIPSE
  5
5733
330
A
100
AcDbEntity
  8
0
  6
Continuous
 62
     9
100
AcDbEllipse
 10
169.6598789999999
 20
-53.04698499999994
 30
0.0
 11
1.77087549139232
 21
-2.168870672490163
 31
1.000000000000000E-16
210
2.640209727703547E-17
220
6.766416681763844E-17
230
1.0
 40
0.816497
 41
2.356194489553065
 42
3.926990816348022
  0
LINE
  5
5734
330
A
100
AcDbEntity
  8
0
  6
Continuous
 62
     7
100
AcDbLine
 10
196.8504659999999
 20
-71.1583440000002
 30
0.0
 11
211.5190720000001
 21
-74.15256100000008
 31
0.0
  0
ELLIPSE
  5
5735
330
A
100
AcDbEntity
  8
0
  6
Continuous
 62
     7
100
AcDbEllipse
 10
211.5190720000001
 20
-59.03541799999993
 30
0.0
 11
-3.794733195840116
 21
4.647580012478668
 31
0.0
210
5.999999992330533E-17
220
4.898979487131879E-17
230
0.9999999999999999
 40
0.816497
 41
3.926990816348108
 42
5.497787143143026
  0
LINE
  5
5736
330
A
100
AcDbEntity
  8
0
  6
Continuous
 62
     9
100
AcDbLine
 10
216.8856350000002
 20
-60.13086299999997
 30
0.0
 11
215.8123219999998
 21
-61.0072190000002
 31
0.0
  0
LINE
  5
5737
330
A
100
AcDbEntity
  8
0
  6
Continuous
 62
     9
100
AcDbLine
 10
210.4457590000002
 20
-54.43454900000018
 30
0.0
 11
211.5190720000001
 21
-53.55819299999995
 31
0.0
  0
LINE
  5
5738
330
A
100
AcDbEntity
  8
0
  6
Continuous
 62
     9
100
AcDbLine
 10
172.1642750000001
 20
-45.52492800000016
 30
0.0
 11
171.0909630000003
 21
-46.401284
 31
0.0
  0
LINE
  5
5739
330
A
100
AcDbEntity
  8
0
  6
Continuous
 62
     7
100
AcDbLine
 10
172.1642750000001
 20
-45.52492800000016
 30
0.0
 11
211.5190720000001
 21
-53.55819299999995
 31
0.0
  0
LINE
  5
573A
330
A
100
AcDbEntity
  8
0
  6
Continuous
 62
     7
100
AcDbLine
 10
219.7677399999999
 20
-62.52456299999994
 30
0.0
 11
216.8856350000002
 21
-64.877792
 31
0.0
  0
LINE
  5
573B
330
A
100
AcDbEntity
  8
0
  6
Continuous
 62
     7
100
AcDbLine
 10
215.8123219999998
 20
-73.56832300000006
 30
0.0
 11
219.7677399999999
 21
-70.33873799999998
 31
0.0
  0
LINE
  5
573C
330
A
100
AcDbEntity
  8
0
  6
Continuous
 62
     7
100
AcDbLine
 10
216.8856350000002
 20
-64.877792
 30
0.0
 11
216.8856350000002
 21
-60.13086299999997
 31
0.0
  0
LINE
  5
573D
330
A
100
AcDbEntity
  8
0
  6
Continuous
 62
     7
100
AcDbLine
 10
216.8856350000002
 20
-61.04373400000019
 30
0.0
 11
219.8284329999997
 21
-61.64442999999994
 31
0.0
  0
LINE
  5
573E
330
A
100
AcDbEntity
  8
0
  6
Continuous
 62
     7
100
AcDbLine
 10
198.5677660000002
 20
-72.42175699999999
 30
0.0
 11
199.1759769999999
 21
-71.92515599999999
 31
0.0
  0
LINE
  5
573F
330
A
100
AcDbEntity
  8
0
  6
Continuous
 62
     7
100
AcDbLine
 10
198.5677660000002
 20
-83.12060499999986
 30
0.0
 11
198.5677660000002
 21
-72.42175699999999
 31
0.0
  0
LINE
  5
5740
330
A
100
AcDbEntity
  8
0
  6
Continuous
 62
     7
100
AcDbLine
 10
198.5677660000002
 20
-83.12060499999986
 30
0.0
 11
196.8504659999999
 21
-84.52277400000008
 31
0.0
  0
LINE
  5
5741
330
A
100
AcDbEntity
  8
0
  6
Continuous
 62
     7
100
AcDbLine
 10
199.1759769999999
 20
-71.633037
 30
0.0
 11
199.1759769999999
 21
-71.92515599999999
 31
0.0
  0
ELLIPSE
  5
5742
330
A
100
AcDbEntity
  8
0
  6
Continuous
 62
     9
100
AcDbEllipse
 10
171.0909630000003
 20
-51.87851
 30
0.0
 11
-3.794733195840116
 21
4.647580012478668
 31
2.000000000000000E-16
210
2.108185108799938E-17
220
-2.581988895821327E-17
230
0.9999999999999999
 40
0.816497
 41
5.497787143143023
 42
6.283196576867087
  0
ELLIPSE
  5
5743
330
A
100
AcDbEntity
  8
0
  6
Continuous
 62
     9
100
AcDbEllipse
 10
168.5865670000003
 20
-51.36730199999998
 30
0.0
 11
-3.200000000000091
 21
0.0
 31
2.000000000000000E-16
210
6.249999999999822E-17
220
0.0
230
1.0
 40
0.4082480000000002
 41
0.0000005596853536
 42
1.107148718433188
  0
ELLIPSE
  5
5744
330
A
100
AcDbEntity
  8
0
  6
Continuous
 62
     7
100
AcDbEllipse
 10
172.1642750000001
 20
-51.00215400000001
 30
0.0
 11
-3.794733195840116
 21
4.647580012478668
 31
-2.000000000000000E-16
210
2.790794378331941E-17
220
6.581988903490794E-17
230
0.9999999999999999
 40
0.816497
 41
5.497787143143023
 42
6.283185307179584
  0
ELLIPSE
  5
5745
330
A
100
AcDbEntity
  8
0
  6
Continuous
 62
     9
100
AcDbEllipse
 10
168.5865670000003
 20
-113.4425249999998
 30
0.0
 11
-3.200000000000091
 21
0.0
 31
0.0
210
0.0
220
0.0
230
1.0
 40
0.4082480000000002
 41
0.0
 42
1.107148718433172
  0
LINE
  5
5746
330
A
100
AcDbEntity
  8
0
  6
Continuous
 62
     7
100
AcDbLine
 10
193.916745
 20
-92.39537300000026
 30
0.0
 11
192.1994440000008
 21
-93.797543
 31
0.0
  0
LINE
  5
5747
330
A
100
AcDbEntity
  8
0
  6
Continuous
 62
     7
100
AcDbLine
 10
193.916745
 20
-92.39537300000026
 30
0.0
 11
193.916745
 21
-83.92393099999997
 31
0.0
  0
LINE
  5
5748
330
A
100
AcDbEntity
  8
0
  6
Continuous
 62
     7
100
AcDbLine
 10
199.1759769999999
 20
-106.2125879999999
 30
0.0
 11
196.8504659999999
 21
-108.111359
 31
0.0
  0
LINE
  5
5749
330
A
100
AcDbEntity
  8
0
  6
Continuous
 62
     7
100
AcDbLine
 10
199.5731019999999
 20
-104.10276
 30
0.0
 11
201.3226019999998
 21
-104.4598759999998
 31
0.0
  0
LINE
  5
574A
330
A
100
AcDbEntity
  8
0
  6
Continuous
 62
     7
100
AcDbLine
 10
201.4668739999998
 20
-104.3420780000001
 30
0.0
 11
201.3226019999998
 21
-104.4598759999998
 31
0.0
  0
LINE
  5
574B
330
A
100
AcDbEntity
  8
0
  6
Continuous
 62
     7
100
AcDbLine
 10
215.8480989999999
 20
-110.492127
 30
0.0
 11
215.8123219999998
 21
-110.521338
 31
0.0
  0
ELLIPSE
  5
574C
330
A
100
AcDbEntity
  8
0
  6
Continuous
 62
     7
100
AcDbEllipse
 10
212.9501550000002
 20
-109.937101
 30
0.0
 11
-3.200000000000091
 21
5.549999999999999E-14
 31
0.0
210
1.734374999999950E-30
220
1.000000000000000E-16
230
1.0
 40
0.4082480000000002
 41
1.107148718433182
 42
2.677945045228101
  0
LINE
  5
574D
330
A
100
AcDbEntity
  8
0
  6
Continuous
 62
     9
100
AcDbLine
 10
215.8123219999998
 20
-110.521338
 30
0.0
 11
215.8123219999998
 21
-123.0824420000001
 31
0.0
  0
ELLIPSE
  5
574E
330
A
100
AcDbEntity
  8
0
  6
Continuous
 62
     9
100
AcDbEllipse
 10
212.9501550000002
 20
-122.498205
 30
0.0
 11
3.200000000000091
 21
0.0
 31
-2.000000000000000E-16
210
6.249999999999822E-17
220
0.0
230
1.0
 40
0.4082480000000002
 41
4.248741372022963
 42
5.819537698817891
  0
LINE
  5
574F
330
A
100
AcDbEntity
  8
0
  6
Continuous
 62
     7
100
AcDbLine
 10
197.8066870000008
 20
-93.96617699999987
 30
0.0
 11
196.8504659999999
 21
-94.74692900000007
 31
0.0
  0
LINE
  5
5750
330
A
100
AcDbEntity
  8
0
  6
Continuous
 62
     7
100
AcDbLine
 10
197.5754309999998
 20
-93.14219899999998
 30
0.0
 11
193.916745
 21
-92.39537300000026
 31
0.0
  0
LINE
  5
5751
330
A
100
AcDbEntity
  8
0
  6
Continuous
 62
     7
100
AcDbLine
 10
199.1759769999999
 20
-103.5470049999998
 30
0.0
 11
198.5677660000002
 21
-104.0436059999998
 31
0.0
  0
LINE
  5
5752
330
A
100
AcDbEntity
  8
0
  6
Continuous
 62
     7
100
AcDbLine
 10
198.5677660000002
 20
-104.0436059999998
 30
0.0
 11
198.5677660000002
 21
-95.01644700000008
 31
0.0
  0
LINE
  5
5753
330
A
100
AcDbEntity
  8
0
  6
Continuous
 62
     7
100
AcDbLine
 10
199.1759769999999
 20
-103.5470049999998
 30
0.0
 11
199.1759769999999
 21
-106.2125879999999
 31
0.0
  0
LINE
  5
5754
330
A
100
AcDbEntity
  8
0
  6
Continuous
 62
     7
100
AcDbLine
 10
216.8856350000002
 20
-117.4591579999999
 30
0.0
 11
219.7677399999999
 21
-115.1059290000003
 31
0.0
  0
LINE
  5
5755
330
A
100
AcDbEntity
  8
0
  6
Continuous
 62
     9
100
AcDbLine
 10
215.8123219999998
 20
-123.0824420000001
 30
0.0
 11
216.8856350000002
 21
-122.2060860000001
 31
0.0
  0
LINE
  5
5756
330
A
100
AcDbEntity
  8
0
  6
Continuous
 62
     7
100
AcDbLine
 10
216.8856350000002
 20
-122.2060860000001
 30
0.0
 11
216.8856350000002
 21
-117.4591579999999
 31
0.0
  0
ELLIPSE
  5
5757
330
A
100
AcDbEntity
  8
0
  6
Continuous
 62
     9
100
AcDbEllipse
 10
210.4457590000002
 20
-124.5430360000001
 30
0.0
 11
-0.6399999990183149
 21
-3.135346870962841
 31
0.0
210
9.600000001227103E-17
220
-1.959591791346006E-17
230
1.0
 40
0.4082480000000003
 41
5.176036589257622
 42
6.283185076703521
  0
ELLIPSE
  5
5758
330
A
100
AcDbEntity
  8
0
  6
Continuous
 62
     9
100
AcDbEllipse
 10
210.4457590000002
 20
-121.9869969999999
 30
0.0
 11
-3.794733195840116
 21
4.647580012478558
 31
-2.000000000000000E-16
210
8.790794370662326E-17
220
1.148096839062282E-16
230
1.0
 40
0.8164969999999997
 41
3.141603923277294
 42
3.926990816348096
  0
ELLIPSE
  5
5759
330
A
100
AcDbEntity
  8
0
  6
Continuous
 62
     7
100
AcDbEllipse
 10
211.5190720000001
 20
-121.110641
 30
0.0
 11
-3.794733195840116
 21
4.647580012478558
 31
-2.000000000000000E-16
210
8.790794370662326E-17
220
1.148096839062282E-16
230
1.0
 40
0.8164969999999997
 41
3.141592653589786
 42
3.926990816348096
  0
ELLIPSE
  5
575A
330
A
100
AcDbEntity
  8
0
  6
Continuous
 62
     9
100
AcDbEllipse
 10
171.0909630000003
 20
-116.5097719999999
 30
0.0
 11
-0.6399999990183149
 21
-3.135346870962896
 31
0.0
210
9.600000001227115E-17
220
-1.959591791345974E-17
230
0.9999999999999999
 40
0.4082480000000001
 41
5.176036589257619
 42
6.283185307179584
  0
LINE
  5
575B
330
A
100
AcDbEntity
  8
0
  6
Continuous
 62
     7
100
AcDbLine
 10
198.5677660000002
 20
-103.4228540000001
 30
0.0
 11
199.1759769999999
 21
-103.5470049999998
 31
0.0
  0
LINE
  5
575C
330
A
100
AcDbEntity
  8
0
  6
Continuous
 62
     7
100
AcDbLine
 10
201.3226019999998
 20
-101.794292
 30
0.0
 11
201.4668739999998
 21
-101.676495
 31
0.0
  0
LINE
  5
575D
330
A
100
AcDbEntity
  8
0
  6
Continuous
 62
     7
100
AcDbLine
 10
199.6804330000001
 20
-101.4590860000001
 30
0.0
 11
201.3226019999998
 21
-101.794292
 31
0.0
  0
LINE
  5
575E
330
A
100
AcDbEntity
  8
0
  6
Continuous
 62
     7
100
AcDbLine
 10
201.3619570000001
 20
-99.976584
 30
0.0
 11
201.4668739999998
 21
-99.9980000000001
 31
0.0
  0
LINE
  5
575F
330
A
100
AcDbEntity
  8
0
  6
Continuous
 62
     7
100
AcDbLine
 10
201.3226019999998
 20
-104.4598759999998
 30
0.0
 11
201.3226019999998
 21
-101.794292
 31
0.0
  0
LINE
  5
5760
330
A
100
AcDbEntity
  8
0
  6
Continuous
 62
     7
100
AcDbLine
 10
228.2347800000003
 20
-55.04295500000001
 30
0.0
 11
227.8770089999999
 21
-55.33507400000019
 31
0.0
  0
LINE
  5
5761
330
A
100
AcDbEntity
  8
0
  6
Continuous
 62
     7
100
AcDbLine
 10
272.6926260000002
 20
-132.8619690000002
 30
0.0
 11
273.0503970000001
 21
-132.569851
 31
0.0
  0
LINE
  5
5762
330
A
100
AcDbEntity
  8
0
  6
Continuous
 62
     7
100
AcDbLine
 10
228.2347800000003
 20
-55.04295500000001
 30
0.0
 11
227.8770089999999
 21
-55.33507400000019
 31
0.0
  0
LINE
  5
5763
330
A
100
AcDbEntity
  8
0
  6
Continuous
 62
     7
100
AcDbLine
 10
227.8770089999999
 20
-55.33507400000019
 30
0.0
 11
227.519238
 21
-55.62719299999979
 31
0.0
  0
LINE
  5
5764
330
A
100
AcDbEntity
  8
0
  6
Continuous
 62
     7
100
AcDbLine
 10
272.3348550000002
 20
-133.1540879999999
 30
0.0
 11
272.6926260000002
 21
-132.8619690000002
 31
0.0
  0
LINE
  5
5765
330
A
100
AcDbEntity
  8
0
  6
Continuous
 62
     7
100
AcDbLine
 10
272.6926260000002
 20
-132.8619690000002
 30
0.0
 11
273.0503970000001
 21
-132.569851
 31
0.0
  0
ARC
  5
5766
330
A
100
AcDbEntity
  8
0
  6
Continuous
 62
     7
100
AcDbCircle
 10
270.1564100000002
 20
-66.66078399999998
 30
0.0
 40
6.457849999999997
100
AcDbArc
 50
0.9166299999993827
 51
77.54641100000505
  0
LINE
  5
5767
330
A
100
AcDbEntity
  8
0
  6
Continuous
 62
     7
100
AcDbLine
 10
271.5490370000003
 20
-60.35488099999998
 30
0.0
 11
232.1942410000003
 21
-52.32161699999994
 31
0.0
  0
LINE
  5
5768
330
A
100
AcDbEntity
  8
0
  6
Continuous
 62
     7
100
AcDbLine
 10
276.6134330000001
 20
-128.6326980000001
 30
0.0
 11
276.6134330000001
 21
-66.5574750000001
 31
0.0
  0
LINE
  5
5769
330
A
100
AcDbEntity
  8
0
  6
Continuous
 62
     7
100
AcDbLine
 10
227.7595079999997
 20
-53.36542300000017
 30
0.0
 11
226.6861949999998
 21
-54.24177899999994
 31
0.0
  0
ARC
  5
576A
330
A
100
AcDbEntity
  8
0
  6
Continuous
 62
     7
100
AcDbCircle
 10
231.0684980000001
 20
-57.482039
 30
0.0
 40
5.281785
100
AcDbArc
 50
77.69375700000087
 51
128.6161769999949
  0
LINE
  5
576B
330
A
100
AcDbEntity
  8
0
  6
Continuous
 62
     7
100
AcDbLine
 10
227.7721339999999
 20
-53.35514700000009
 30
0.0
 11
227.7594629999999
 21
-53.36545899999997
 31
0.0
  0
LINE
  5
576C
330
A
100
AcDbEntity
  8
0
  6
Continuous
 62
     7
100
AcDbLine
 10
273.6304579999998
 20
-133.645426
 30
0.0
 11
274.7037700000002
 21
-132.76907
 31
0.0
  0
LINE
  5
576D
330
A
100
AcDbEntity
  8
0
  6
Continuous
 62
     7
100
AcDbLine
 10
274.7038170000002
 20
-132.7690320000001
 30
0.0
 11
274.7499410000002
 21
-132.7309150000001
 31
0.0
  0
ARC
  5
576E
330
A
100
AcDbEntity
  8
0
  6
Continuous
 62
     7
100
AcDbCircle
 10
271.3221320000008
 20
-128.6994809999999
 30
0.0
 40
5.291723
100
AcDbArc
 50
310.3735319999947
 51
0.7231160000028511
  0
ARC
  5
576F
330
A
100
AcDbEntity
  8
0
  6
Continuous
 62
     7
100
AcDbCircle
 10
225.056427
 20
-62.40046200000016
 30
0.0
 40
5.289115999999999
100
AcDbArc
 50
129.7077950000069
 51
180.7296099999973
  0
LINE
  5
5770
330
A
100
AcDbEntity
  8
0
  6
Continuous
 62
     7
100
AcDbLine
 10
222.7507149999998
 20
-57.45508399999984
 30
0.0
 11
221.6774030000002
 21
-58.33144000000014
 31
0.0
  0
LINE
  5
5771
330
A
100
AcDbEntity
  8
0
  6
Continuous
 62
     7
100
AcDbLine
 10
219.7677399999999
 20
-62.46781299999998
 30
0.0
 11
219.7677399999999
 21
-72.72848200000007
 31
0.0
  0
ARC
  5
5778
330
A
100
AcDbEntity
  8
0
  6
Continuous
 62
     7
100
AcDbCircle
 10
265.3126950000002
 20
-133.6191799999999
 30
0.0
 40
5.281096999999999
100
AcDbArc
 50
257.6919140000077
 51
308.7980800000024
  0
LINE
  5
5779
330
A
100
AcDbEntity
  8
0
  6
Continuous
 62
     7
100
AcDbLine
 10
219.356042000001
 20
-73.95662900000008
 30
0.0
 11
219.0247140000002
 21
-74.22715799999997
 31
0.0
  0
LINE
  5
577A
330
A
100
AcDbEntity
  8
0
  6
Continuous
 62
     7
100
AcDbLine
 10
268.6216660000001
 20
-137.7350879999998
 30
0.0
 11
269.6949780000001
 21
-136.858732
 31
0.0
  0
LINE
  5
577B
330
A
100
AcDbEntity
  8
0
  6
Continuous
 62
     7
100
AcDbLine
 10
224.8321360000001
 20
-130.7456290000002
 30
0.0
 11
264.1869320000002
 21
-138.7788929999999
 31
0.0
  0
ARC
  5
577C
330
A
100
AcDbEntity
  8
0
  6
Continuous
 62
     7
100
AcDbCircle
 10
215.4970329999998
 20
-114.5227750000001
 30
0.0
 40
4.277467999999998
100
AcDbArc
 50
3.221917000000762
 51
55.94114500000865
  0
LINE
  5
577D
330
A
100
AcDbEntity
  8
0
  6
Continuous
 62
     7
100
AcDbLine
 10
219.7677399999999
 20
-114.2823669999999
 30
0.0
 11
219.7677399999999
 21
-124.5430360000001
 31
0.0
  0
ARC
  5
577E
330
A
100
AcDbEntity
  8
0
  6
Continuous
 62
     7
100
AcDbCircle
 10
226.2247629999998
 20
-124.4397259999999
 30
0.0
 40
6.457849999999997
100
AcDbArc
 50
180.9166299999994
 51
257.5464110000051
  0
LINE
  5
577F
330
A
100
AcDbEntity
  8
0
  6
Continuous
 62
     7
100
AcDbLine
 10
197.5649170000002
 20
-84.16036799999986
 30
0.0
 11
197.5649170000002
 21
-92.92392900000009
 31
0.0
  0
LINE
  5
5780
330
A
100
AcDbEntity
  8
0
  6
Continuous
 62
     7
100
AcDbLine
 10
201.4668739999998
 20
-72.100664
 30
0.0
 11
201.4668739999998
 21
-83.3543
 31
0.0
  0
LINE
  5
5781
330
A
100
AcDbEntity
  8
0
  6
Continuous
 62
     7
100
AcDbLine
 10
201.4668739999998
 20
-96.80886
 30
0.0
 11
201.4668739999998
 21
-105.3362320000001
 31
0.0
  0
LINE
  5
5782
330
A
100
AcDbEntity
  8
0
  6
Continuous
 62
     7
100
AcDbLine
 10
199.9338079999998
 20
-74.98583299999999
 30
0.0
 11
199.8455150000011
 21
-74.55889400000021
 31
0.0
  0
LINE
  5
5783
330
A
100
AcDbEntity
  8
0
  6
Continuous
 62
     7
100
AcDbLine
 10
199.9338079999998
 20
-81.92364800000007
 30
0.0
 11
199.9338079999998
 21
-74.985829
 31
0.0
  0
LINE
  5
578D
330
A
100
AcDbEntity
  8
0
  6
Continuous
 62
     7
100
AcDbLine
 10
217.3429290000001
 20
-59.23033799999992
 30
0.0
 11
217.7006990000001
 21
-58.93821899999998
 31
0.0
  0
LINE
  5
578E
330
A
100
AcDbEntity
  8
0
  6
Continuous
 62
     7
100
AcDbLine
 10
217.7006990000001
 20
-58.93821899999998
 30
0.0
 11
218.0584700000001
 21
-58.64610000000014
 31
0.0
  0
LINE
  5
578F
330
A
100
AcDbEntity
  8
0
  6
Continuous
 62
     7
100
AcDbLine
 10
173.2428540000001
 20
-43.92472499999997
 30
0.0
 11
172.8850829999998
 21
-44.21684400000002
 31
0.0
  0
LINE
  5
5790
330
A
100
AcDbEntity
  8
0
  6
Continuous
 62
     7
100
AcDbLine
 10
172.8850829999998
 20
-44.21684400000002
 30
0.0
 11
172.5273120000003
 21
-44.50896200000008
 31
0.0
  0
LINE
  5
5791
330
A
100
AcDbEntity
  8
0
  6
Continuous
 62
     7
100
AcDbLine
 10
217.3429290000001
 20
-122.0358580000002
 30
0.0
 11
217.7006990000001
 21
-121.7437389999999
 31
0.0
  0
LINE
  5
5792
330
A
100
AcDbEntity
  8
0
  6
Continuous
 62
     7
100
AcDbLine
 10
217.7006990000001
 20
-121.7437389999999
 30
0.0
 11
218.0584700000001
 21
-121.4516199999999
 31
0.0
  0
ARC
  5
5793
330
A
100
AcDbEntity
  8
0
  6
Continuous
 62
     7
100
AcDbCircle
 10
215.7752370000008
 20
-55.56027400000015
 30
0.0
 40
6.457849999999997
100
AcDbArc
 50
0.9166299999993827
 51
77.54641100000505
  0
LINE
  5
5794
330
A
100
AcDbEntity
  8
0
  6
Continuous
 62
     7
100
AcDbLine
 10
217.1678640000001
 20
-49.25437099999999
 30
0.0
 11
177.813068
 21
-41.22110700000018
 31
0.0
  0
LINE
  5
5795
330
A
100
AcDbEntity
  8
0
  6
Continuous
 62
     7
100
AcDbLine
 10
222.2322600000004
 20
-57.87840099999993
 30
0.0
 11
222.2322600000004
 21
-55.45696399999995
 31
0.0
  0
LINE
  5
5796
330
A
100
AcDbEntity
  8
0
  6
Continuous
 62
     7
100
AcDbLine
 10
173.378334
 20
-42.26491199999997
 30
0.0
 11
172.3050220000001
 21
-43.14126799999997
 31
0.0
  0
ARC
  5
5797
330
A
100
AcDbEntity
  8
0
  6
Continuous
 62
     7
100
AcDbCircle
 10
176.6873249999999
 20
-46.38152899999999
 30
0.0
 40
5.281785
100
AcDbArc
 50
77.69375700000087
 51
128.6161769999949
  0
LINE
  5
5798
330
A
100
AcDbEntity
  8
0
  6
Continuous
 62
     7
100
AcDbLine
 10
173.3909610000001
 20
-42.2546360000001
 30
0.0
 11
173.3782879999999
 21
-42.26494999999999
 31
0.0
  0
LINE
  5
5799
330
A
100
AcDbEntity
  8
0
  6
Continuous
 62
     7
100
AcDbLine
 10
219.2492850000008
 20
-122.5449159999999
 30
0.0
 11
219.7677399999999
 21
-122.1215990000002
 31
0.0
  0
LINE
  5
579A
330
A
100
AcDbEntity
  8
0
  6
Continuous
 62
     7
100
AcDbLine
 10
217.7006990000001
 20
-58.93821899999998
 30
0.0
 11
218.0584700000001
 21
-58.64610000000014
 31
0.0
  0
LINE
  5
579B
330
A
100
AcDbEntity
  8
0
  6
Continuous
 62
     7
100
AcDbLine
 10
173.2428540000001
 20
-43.92472499999997
 30
0.0
 11
172.8850829999998
 21
-44.21684400000002
 31
0.0
  0
LINE
  5
579C
330
A
100
AcDbEntity
  8
0
  6
Continuous
 62
     7
100
AcDbLine
 10
217.7006990000001
 20
-121.7437389999999
 30
0.0
 11
218.0584700000001
 21
-121.4516199999999
 31
0.0
  0
ARC
  5
579D
330
A
100
AcDbEntity
  8
0
  6
Continuous
 62
     7
100
AcDbCircle
 10
170.6752539999999
 20
-51.29995199999994
 30
0.0
 40
5.289115999999999
100
AcDbArc
 50
129.7077950000069
 51
180.7296099999973
  0
LINE
  5
579E
330
A
100
AcDbEntity
  8
0
  6
Continuous
 62
     7
100
AcDbLine
 10
168.3695420000004
 20
-46.35457400000019
 30
0.0
 11
167.29623
 21
-47.23092999999994
 31
0.0
  0
LINE
  5
579F
330
A
100
AcDbEntity
  8
0
  6
Continuous
 62
     7
100
AcDbLine
 10
165.3865670000001
 20
-51.36730199999998
 30
0.0
 11
165.3865670000001
 21
-113.4425249999998
 31
0.0
  0
ARC
  5
57A0
330
A
100
AcDbEntity
  8
0
  6
Continuous
 62
     7
100
AcDbCircle
 10
210.9315210000001
 20
-122.5186700000001
 30
0.0
 40
5.281096999999999
100
AcDbArc
 50
257.6919140000077
 51
308.7980800000024
  0
LINE
  5
57A1
330
A
100
AcDbEntity
  8
0
  6
Continuous
 62
     7
100
AcDbLine
 10
214.2404920000009
 20
-126.634577
 30
0.0
 11
215.3138050000003
 21
-125.7582210000002
 31
0.0
  0
LINE
  5
57A2
330
A
100
AcDbEntity
  8
0
  6
Continuous
 62
     7
100
AcDbLine
 10
170.4509629999999
 20
-119.6451190000001
 30
0.0
 11
209.805759
 21
-127.6783829999999
 31
0.0
  0
ARC
  5
57A3
330
A
100
AcDbEntity
  8
0
  6
Continuous
 62
     7
100
AcDbCircle
 10
171.84359
 20
-113.3392160000001
 30
0.0
 40
6.457849999999997
100
AcDbArc
 50
180.9166299999994
 51
257.5464110000051
  0
LINE
  5
57A4
330
A
100
AcDbEntity
  8
0
  6
Continuous
 62
     9
100
AcDbLine
 10
121.5
 20
-62.5000000000001
 30
0.0
 11
121.5
 21
-61.99999999999999
 31
0.0
  0
LINE
  5
57A5
330
A
100
AcDbEntity
  8
0
  6
Continuous
 62
     9
100
AcDbLine
 10
67.00000000000006
 20
-62.5000000000001
 30
0.0
 11
67.00000000000006
 21
-61.99999999999999
 31
0.0
  0
LINE
  5
57A6
330
A
100
AcDbEntity
  8
0
  6
Continuous
 62
     7
100
AcDbLine
 10
67.00000000000006
 20
-62.5000000000001
 30
0.0
 11
121.5
 21
-62.5000000000001
 31
0.0
  0
LINE
  5
57A7
330
A
100
AcDbEntity
  8
0
  6
Continuous
 62
     7
100
AcDbLine
 10
61.50000000000005
 20
-62.5000000000001
 30
0.0
 11
61.50000000000005
 21
-61.99999999999999
 31
0.0
  0
LINE
  5
57A8
330
A
100
AcDbEntity
  8
0
  6
Continuous
 62
     7
100
AcDbLine
 10
61.50000000000005
 20
-62.5000000000001
 30
0.0
 11
67.00000000000006
 21
-62.5000000000001
 31
0.0
  0
LINE
  5
57A9
330
A
100
AcDbEntity
  8
0
  6
Continuous
 62
     7
100
AcDbLine
 10
127.5
 20
-62.5000000000001
 30
0.0
 11
127.5
 21
-61.99999999999999
 31
0.0
  0
LINE
  5
57AA
330
A
100
AcDbEntity
  8
0
  6
Continuous
 62
     7
100
AcDbLine
 10
121.5
 20
-62.5000000000001
 30
0.0
 11
127.5
 21
-62.5000000000001
 31
0.0
  0
LINE
  5
57AB
330
A
100
AcDbEntity
  8
0
  6
Continuous
 62
     9
100
AcDbLine
 10
67.00000000000006
 20
-72.5
 30
0.0
 11
67.00000000000006
 21
-73.0
 31
0.0
  0
LINE
  5
57AC
330
A
100
AcDbEntity
  8
0
  6
Continuous
 62
     7
100
AcDbLine
 10
121.5
 20
-72.5
 30
0.0
 11
67.00000000000006
 21
-72.5
 31
0.0
  0
LINE
  5
57AD
330
A
100
AcDbEntity
  8
0
  6
Continuous
 62
     9
100
AcDbLine
 10
121.5
 20
-72.5
 30
0.0
 11
121.5
 21
-73.0
 31
0.0
  0
LINE
  5
57AE
330
A
100
AcDbEntity
  8
0
  6
Continuous
 62
     7
100
AcDbLine
 10
127.5
 20
-72.5
 30
0.0
 11
127.5
 21
-73.0
 31
0.0
  0
LINE
  5
57AF
330
A
100
AcDbEntity
  8
0
  6
Continuous
 62
     7
100
AcDbLine
 10
127.5
 20
-72.5
 30
0.0
 11
121.5
 21
-72.5
 31
0.0
  0
LINE
  5
57B0
330
A
100
AcDbEntity
  8
0
  6
Continuous
 62
     7
100
AcDbLine
 10
61.50000000000005
 20
-72.5
 30
0.0
 11
61.50000000000005
 21
-73.0
 31
0.0
  0
LINE
  5
57B1
330
A
100
AcDbEntity
  8
0
  6
Continuous
 62
     7
100
AcDbLine
 10
67.00000000000006
 20
-72.5
 30
0.0
 11
61.50000000000005
 21
-72.5
 31
0.0
  0
LINE
  5
57B2
330
A
100
AcDbEntity
  8
0
  6
Continuous
 62
     9
100
AcDbLine
 10
67.00000000000006
 20
-63.50000000000001
 30
0.0
 11
67.00000000000006
 21
-62.5000000000001
 31
0.0
  0
LINE
  5
57B3
330
A
100
AcDbEntity
  8
0
  6
Continuous
 62
     9
100
AcDbLine
 10
67.00000000000006
 20
-62.5000000000001
 30
0.0
 11
67.00000000000006
 21
-61.99999999999999
 31
0.0
  0
LINE
  5
57B4
330
A
100
AcDbEntity
  8
0
  6
Continuous
 62
     7
100
AcDbLine
 10
61.50000000000005
 20
-63.50000000000001
 30
0.0
 11
67.00000000000006
 21
-63.50000000000001
 31
0.0
  0
LINE
  5
57B5
330
A
100
AcDbEntity
  8
0
  6
Continuous
 62
     7
100
AcDbLine
 10
61.50000000000005
 20
-63.50000000000001
 30
0.0
 11
61.50000000000005
 21
-62.5000000000001
 31
0.0
  0
LINE
  5
57B6
330
A
100
AcDbEntity
  8
0
  6
Continuous
 62
     7
100
AcDbLine
 10
61.50000000000005
 20
-62.5000000000001
 30
0.0
 11
61.50000000000005
 21
-61.99999999999999
 31
0.0
  0
LINE
  5
57B7
330
A
100
AcDbEntity
  8
0
  6
Continuous
 62
     9
100
AcDbLine
 10
121.5
 20
-63.50000000000001
 30
0.0
 11
121.5
 21
-62.5000000000001
 31
0.0
  0
LINE
  5
57B8
330
A
100
AcDbEntity
  8
0
  6
Continuous
 62
     9
100
AcDbLine
 10
121.5
 20
-62.5000000000001
 30
0.0
 11
121.5
 21
-61.99999999999999
 31
0.0
  0
LINE
  5
57B9
330
A
100
AcDbEntity
  8
0
  6
Continuous
 62
     7
100
AcDbLine
 10
67.00000000000006
 20
-63.50000000000001
 30
0.0
 11
121.5
 21
-63.50000000000001
 31
0.0
  0
LINE
  5
57BA
330
A
100
AcDbEntity
  8
0
  6
Continuous
 62
     7
100
AcDbLine
 10
127.5
 20
-63.50000000000001
 30
0.0
 11
127.5
 21
-62.5000000000001
 31
0.0
  0
LINE
  5
57BB
330
A
100
AcDbEntity
  8
0
  6
Continuous
 62
     7
100
AcDbLine
 10
127.5
 20
-62.5000000000001
 30
0.0
 11
127.5
 21
-61.99999999999999
 31
0.0
  0
LINE
  5
57BC
330
A
100
AcDbEntity
  8
0
  6
Continuous
 62
     7
100
AcDbLine
 10
121.5
 20
-63.50000000000001
 30
0.0
 11
127.5
 21
-63.50000000000001
 31
0.0
  0
LINE
  5
57BD
330
A
100
AcDbEntity
  8
0
  6
Continuous
 62
     9
100
AcDbLine
 10
67.00000000000006
 20
-71.50000000000018
 30
0.0
 11
67.00000000000006
 21
-72.5
 31
0.0
  0
LINE
  5
57BE
330
A
100
AcDbEntity
  8
0
  6
Continuous
 62
     9
100
AcDbLine
 10
67.00000000000006
 20
-72.5
 30
0.0
 11
67.00000000000006
 21
-73.0
 31
0.0
  0
LINE
  5
57BF
330
A
100
AcDbEntity
  8
0
  6
Continuous
 62
     7
100
AcDbLine
 10
121.5
 20
-71.50000000000018
 30
0.0
 11
67.00000000000006
 21
-71.50000000000018
 31
0.0
  0
LINE
  5
57C0
330
A
100
AcDbEntity
  8
0
  6
Continuous
 62
     9
100
AcDbLine
 10
121.5
 20
-71.50000000000018
 30
0.0
 11
121.5
 21
-72.5
 31
0.0
  0
LINE
  5
57C1
330
A
100
AcDbEntity
  8
0
  6
Continuous
 62
     9
100
AcDbLine
 10
121.5
 20
-72.5
 30
0.0
 11
121.5
 21
-73.0
 31
0.0
  0
LINE
  5
57C2
330
A
100
AcDbEntity
  8
0
  6
Continuous
 62
     7
100
AcDbLine
 10
127.5
 20
-71.50000000000018
 30
0.0
 11
127.5
 21
-72.5
 31
0.0
  0
LINE
  5
57C3
330
A
100
AcDbEntity
  8
0
  6
Continuous
 62
     7
100
AcDbLine
 10
127.5
 20
-72.5
 30
0.0
 11
127.5
 21
-73.0
 31
0.0
  0
LINE
  5
57C4
330
A
100
AcDbEntity
  8
0
  6
Continuous
 62
     7
100
AcDbLine
 10
127.5
 20
-71.50000000000018
 30
0.0
 11
121.5
 21
-71.50000000000018
 31
0.0
  0
LINE
  5
57C5
330
A
100
AcDbEntity
  8
0
  6
Continuous
 62
     7
100
AcDbLine
 10
61.50000000000005
 20
-71.50000000000018
 30
0.0
 11
61.50000000000005
 21
-72.5
 31
0.0
  0
LINE
  5
57C6
330
A
100
AcDbEntity
  8
0
  6
Continuous
 62
     7
100
AcDbLine
 10
61.50000000000005
 20
-72.5
 30
0.0
 11
61.50000000000005
 21
-73.0
 31
0.0
  0
LINE
  5
57C7
330
A
100
AcDbEntity
  8
0
  6
Continuous
 62
     7
100
AcDbLine
 10
67.00000000000006
 20
-71.50000000000018
 30
0.0
 11
61.50000000000005
 21
-71.50000000000018
 31
0.0
  0
LINE
  5
57C8
330
A
100
AcDbEntity
  8
0
  6
Continuous
 62
     7
100
AcDbLine
 10
117.1999999999999
 20
-71.50000000000018
 30
0.0
 11
117.1999999999999
 21
-63.50000000000001
 31
0.0
  0
LINE
  5
57C9
330
A
100
AcDbEntity
  8
0
  6
Continuous
 62
     9
100
AcDbLine
 10
110.1999999999999
 20
-71.50000000000018
 30
0.0
 11
110.1999999999999
 21
-63.50000000000001
 31
0.0
  0
LINE
  5
57CA
330
A
100
AcDbEntity
  8
0
  6
Continuous
 62
     7
100
AcDbLine
 10
103.1999999999999
 20
-71.50000000000018
 30
0.0
 11
103.1999999999999
 21
-63.50000000000001
 31
0.0
  0
LINE
  5
57CB
330
A
100
AcDbEntity
  8
0
  6
Continuous
 62
     7
100
AcDbLine
 10
94.02017100000026
 20
-54.95000000000016
 30
0.0
 11
103.9798289999999
 21
-54.95000000000016
 31
0.0
  0
LINE
  5
57CC
330
A
100
AcDbEntity
  8
0
  6
Continuous
 62
     7
100
AcDbLine
 10
66.50000000000006
 20
-55.0
 30
0.0
 11
121.5
 21
-55.0
 31
0.0
  0
LINE
  5
57CD
330
A
100
AcDbEntity
  8
0
  6
Continuous
 62
     9
100
AcDbLine
 10
121.5
 20
-55.0
 30
0.0
 11
121.5
 21
-58.99999999999999
 31
0.0
  0
LINE
  5
57CE
330
A
100
AcDbEntity
  8
0
  6
Continuous
 62
     9
100
AcDbLine
 10
121.5
 20
-58.99999999999999
 30
0.0
 11
66.50000000000006
 21
-58.99999999999999
 31
0.0
  0
LINE
  5
57CF
330
A
100
AcDbEntity
  8
0
  6
Continuous
 62
     9
100
AcDbLine
 10
66.50000000000006
 20
-55.0
 30
0.0
 11
66.50000000000006
 21
-58.99999999999999
 31
0.0
  0
LINE
  5
57D0
330
A
100
AcDbEntity
  8
0
  6
Continuous
 62
     7
100
AcDbLine
 10
66.50000000000006
 20
-61.99999999999999
 30
0.0
 11
59.00000000000005
 21
-61.99999999999999
 31
0.0
  0
LINE
  5
57D1
330
A
100
AcDbEntity
  8
0
  6
Continuous
 62
     7
100
AcDbLine
 10
59.00000000000005
 20
-61.99999999999999
 30
0.0
 11
59.00000000000005
 21
-58.99999999999999
 31
0.0
  0
LINE
  5
57D2
330
A
100
AcDbEntity
  8
0
  6
Continuous
 62
     9
100
AcDbLine
 10
66.50000000000006
 20
-58.99999999999999
 30
0.0
 11
59.00000000000005
 21
-58.99999999999999
 31
0.0
  0
LINE
  5
57D3
330
A
100
AcDbEntity
  8
0
  6
Continuous
 62
     9
100
AcDbLine
 10
66.50000000000006
 20
-58.99999999999999
 30
0.0
 11
66.50000000000006
 21
-61.99999999999999
 31
0.0
  0
LINE
  5
57D4
330
A
100
AcDbEntity
  8
0
  6
Continuous
 62
     9
100
AcDbLine
 10
121.5
 20
-61.99999999999999
 30
0.0
 11
121.5
 21
-58.99999999999999
 31
0.0
  0
LINE
  5
57D5
330
A
100
AcDbEntity
  8
0
  6
Continuous
 62
     7
100
AcDbLine
 10
66.50000000000006
 20
-61.99999999999999
 30
0.0
 11
121.5
 21
-61.99999999999999
 31
0.0
  0
LINE
  5
57D6
330
A
100
AcDbEntity
  8
0
  6
Continuous
 62
     7
100
AcDbLine
 10
63.00000000000006
 20
-55.0
 30
0.0
 11
66.50000000000006
 21
-55.0
 31
0.0
  0
ARC
  5
57D7
330
A
100
AcDbEntity
  8
0
  6
Continuous
 62
     7
100
AcDbCircle
 10
63.00000000000006
 20
-58.99999999999999
 30
0.0
 40
4.0
100
AcDbArc
 50
90.0
 51
180.0
  0
LINE
  5
57D8
330
A
100
AcDbEntity
  8
0
  6
Continuous
 62
     9
100
AcDbLine
 10
129.0000000000001
 20
-58.99999999999999
 30
0.0
 11
121.5
 21
-58.99999999999999
 31
0.0
  0
LINE
  5
57D9
330
A
100
AcDbEntity
  8
0
  6
Continuous
 62
     7
100
AcDbLine
 10
129.0000000000001
 20
-58.99999999999999
 30
0.0
 11
129.0000000000001
 21
-61.99999999999999
 31
0.0
  0
LINE
  5
57DA
330
A
100
AcDbEntity
  8
0
  6
Continuous
 62
     7
100
AcDbLine
 10
129.0000000000001
 20
-61.99999999999999
 30
0.0
 11
121.5
 21
-61.99999999999999
 31
0.0
  0
LINE
  5
57DB
330
A
100
AcDbEntity
  8
0
  6
Continuous
 62
     7
100
AcDbLine
 10
121.5
 20
-55.0
 30
0.0
 11
125.0
 21
-55.0
 31
0.0
  0
ARC
  5
57DC
330
A
100
AcDbEntity
  8
0
  6
Continuous
 62
     7
100
AcDbCircle
 10
125.0
 20
-58.99999999999999
 30
0.0
 40
4.0
100
AcDbArc
 50
0.0
 51
90.0
  0
LINE
  5
57DD
330
A
100
AcDbEntity
  8
0
  6
Continuous
 62
     9
100
AcDbLine
 10
59.00000000000005
 20
-58.99999999999999
 30
0.0
 11
57.66666700000005
 21
-58.99999999999999
 31
0.0
  0
LINE
  5
57DE
330
A
100
AcDbEntity
  8
0
  6
Continuous
 62
     7
100
AcDbLine
 10
57.00010699999996
 20
-56.49674800000012
 30
0.0
 11
57.00161499999978
 21
-56.56517800000015
 31
0.0
  0
ARC
  5
57DF
330
A
100
AcDbEntity
  8
0
  6
Continuous
 62
     7
100
AcDbCircle
 10
64.44139499999994
 20
-55.84129900000015
 30
0.0
 40
7.474914
100
AcDbArc
 50
185.5572980000029
 51
204.9971730000005
  0
ARC
  5
57E0
330
A
100
AcDbEntity
  8
0
  6
Continuous
 62
     7
100
AcDbCircle
 10
60.11999999999995
 20
-58.99999999999999
 30
0.0
 40
4.0
100
AcDbArc
 50
90.0
 51
141.258116000003
  0
LINE
  5
57E1
330
A
100
AcDbEntity
  8
0
  6
Continuous
 62
     7
100
AcDbLine
 10
60.11999999999995
 20
-55.0
 30
0.0
 11
63.00000000000006
 21
-55.0
 31
0.0
  0
LINE
  5
57E2
330
A
100
AcDbEntity
  8
0
  6
Continuous
 62
     9
100
AcDbLine
 10
57.66666700000005
 20
-61.99999999999999
 30
0.0
 11
57.66666700000005
 21
-58.99999999999999
 31
0.0
  0
LINE
  5
57E3
330
A
100
AcDbEntity
  8
0
  6
Continuous
 62
     7
100
AcDbLine
 10
57.66666700000005
 20
-61.99999999999999
 30
0.0
 11
59.00000000000005
 21
-61.99999999999999
 31
0.0
  0
LINE
  5
57E4
330
A
100
AcDbEntity
  8
0
  6
Continuous
 62
     7
100
AcDbLine
 10
57.00000000000006
 20
-56.49688200000012
 30
0.0
 11
57.00010699999996
 21
-56.49674800000012
 31
0.0
  0
LINE
  5
57E5
330
A
100
AcDbEntity
  8
0
  6
Continuous
 62
     7
100
AcDbLine
 10
57.00000000000006
 20
-56.49999999999999
 30
0.0
 11
57.00000000000006
 21
-56.49688200000012
 31
0.0
  0
LINE
  5
57E6
330
A
100
AcDbEntity
  8
0
  6
Continuous
 62
     7
100
AcDbLine
 10
57.00000000000006
 20
-61.99999999999999
 30
0.0
 11
57.66666700000005
 21
-61.99999999999999
 31
0.0
  0
LINE
  5
57E7
330
A
100
AcDbEntity
  8
0
  6
Continuous
 62
     9
100
AcDbLine
 10
66.50000000000006
 20
-76.0
 30
0.0
 11
121.5
 21
-76.0
 31
0.0
  0
LINE
  5
57E8
330
A
100
AcDbEntity
  8
0
  6
Continuous
 62
     9
100
AcDbLine
 10
121.5
 20
-76.0
 30
0.0
 11
121.5
 21
-80.0
 31
0.0
  0
LINE
  5
57E9
330
A
100
AcDbEntity
  8
0
  6
Continuous
 62
     7
100
AcDbLine
 10
121.5
 20
-80.0
 30
0.0
 11
66.50000000000006
 21
-80.0
 31
0.0
  0
LINE
  5
57EA
330
A
100
AcDbEntity
  8
0
  6
Continuous
 62
     9
100
AcDbLine
 10
66.50000000000006
 20
-76.0
 30
0.0
 11
66.50000000000006
 21
-80.0
 31
0.0
  0
LINE
  5
57EB
330
A
100
AcDbEntity
  8
0
  6
Continuous
 62
     7
100
AcDbLine
 10
121.5
 20
-73.0
 30
0.0
 11
66.50000000000006
 21
-73.0
 31
0.0
  0
LINE
  5
57EC
330
A
100
AcDbEntity
  8
0
  6
Continuous
 62
     9
100
AcDbLine
 10
121.5
 20
-76.0
 30
0.0
 11
121.5
 21
-73.0
 31
0.0
  0
LINE
  5
57ED
330
A
100
AcDbEntity
  8
0
  6
Continuous
 62
     9
100
AcDbLine
 10
66.50000000000006
 20
-73.0
 30
0.0
 11
66.50000000000006
 21
-76.0
 31
0.0
  0
LINE
  5
57EE
330
A
100
AcDbEntity
  8
0
  6
Continuous
 62
     7
100
AcDbLine
 10
59.00000000000005
 20
-73.0
 30
0.0
 11
66.50000000000006
 21
-73.0
 31
0.0
  0
LINE
  5
57EF
330
A
100
AcDbEntity
  8
0
  6
Continuous
 62
     9
100
AcDbLine
 10
59.00000000000005
 20
-76.0
 30
0.0
 11
66.50000000000006
 21
-76.0
 31
0.0
  0
LINE
  5
57F0
330
A
100
AcDbEntity
  8
0
  6
Continuous
 62
     7
100
AcDbLine
 10
59.00000000000005
 20
-76.0
 30
0.0
 11
59.00000000000005
 21
-73.0
 31
0.0
  0
LINE
  5
57F1
330
A
100
AcDbEntity
  8
0
  6
Continuous
 62
     7
100
AcDbLine
 10
66.50000000000006
 20
-80.0
 30
0.0
 11
63.00000000000006
 21
-80.0
 31
0.0
  0
ARC
  5
57F2
330
A
100
AcDbEntity
  8
0
  6
Continuous
 62
     7
100
AcDbCircle
 10
63.00000000000006
 20
-76.0
 30
0.0
 40
4.0
100
AcDbArc
 50
180.0
 51
270.0
  0
LINE
  5
57F3
330
A
100
AcDbEntity
  8
0
  6
Continuous
 62
     9
100
AcDbLine
 10
121.5
 20
-76.0
 30
0.0
 11
129.0000000000001
 21
-76.0
 31
0.0
  0
ARC
  5
57F4
330
A
100
AcDbEntity
  8
0
  6
Continuous
 62
     7
100
AcDbCircle
 10
125.0
 20
-76.0
 30
0.0
 40
4.0
100
AcDbArc
 50
270.0
 51
0.0
  0
LINE
  5
57F5
330
A
100
AcDbEntity
  8
0
  6
Continuous
 62
     7
100
AcDbLine
 10
125.0
 20
-80.0
 30
0.0
 11
121.5
 21
-80.0
 31
0.0
  0
LINE
  5
57F6
330
A
100
AcDbEntity
  8
0
  6
Continuous
 62
     7
100
AcDbLine
 10
129.0000000000001
 20
-73.0
 30
0.0
 11
129.0000000000001
 21
-76.0
 31
0.0
  0
LINE
  5
57F7
330
A
100
AcDbEntity
  8
0
  6
Continuous
 62
     7
100
AcDbLine
 10
121.5
 20
-73.0
 30
0.0
 11
129.0000000000001
 21
-73.0
 31
0.0
  0
LINE
  5
57F8
330
A
100
AcDbEntity
  8
0
  6
Continuous
 62
     7
100
AcDbLine
 10
61.50000000000005
 20
-62.5000000000001
 30
0.0
 11
59.00000000000005
 21
-62.5000000000001
 31
0.0
  0
LINE
  5
57F9
330
A
100
AcDbEntity
  8
0
  6
Continuous
 62
     7
100
AcDbLine
 10
103.1
 20
-71.50000000000018
 30
0.0
 11
103.1
 21
-63.50000000000001
 31
0.0
  0
LINE
  5
57FA
330
A
100
AcDbEntity
  8
0
  6
Continuous
 62
     7
100
AcDbLine
 10
59.00000000000005
 20
-62.5000000000001
 30
0.0
 11
59.00000000000005
 21
-73.0
 31
0.0
  0
LINE
  5
57FB
330
A
100
AcDbEntity
  8
0
  6
Continuous
 62
     9
100
AcDbLine
 10
57.66666700000005
 20
-76.0
 30
0.0
 11
59.00000000000005
 21
-76.0
 31
0.0
  0
LINE
  5
57FC
330
A
100
AcDbEntity
  8
0
  6
Continuous
 62
     9
100
AcDbLine
 10
57.66666700000005
 20
-76.0
 30
0.0
 11
57.66666700000005
 21
-74.0
 31
0.0
  0
LINE
  5
57FD
330
A
100
AcDbEntity
  8
0
  6
Continuous
 62
     7
100
AcDbLine
 10
59.00000000000005
 20
-74.0
 30
0.0
 11
57.66666700000005
 21
-74.0
 31
0.0
  0
ARC
  5
57FE
330
A
100
AcDbEntity
  8
0
  6
Continuous
 62
     7
100
AcDbCircle
 10
60.11999999999995
 20
-76.0
 30
0.0
 40
4.0
100
AcDbArc
 50
218.7418839999969
 51
270.0
  0
ARC
  5
57FF
330
A
100
AcDbEntity
  8
0
  6
Continuous
 62
     7
100
AcDbCircle
 10
64.40826000000027
 20
-79.14532199999988
 30
0.0
 40
7.439228999999999
100
AcDbArc
 50
154.9883769999958
 51
174.6917879999985
  0
LINE
  5
5800
330
A
100
AcDbEntity
  8
0
  6
Continuous
 62
     7
100
AcDbLine
 10
57.00093400000028
 20
-78.45709400000007
 30
0.0
 11
57.00010699999996
 21
-78.50325199999997
 31
0.0
  0
LINE
  5
5801
330
A
100
AcDbEntity
  8
0
  6
Continuous
 62
     7
100
AcDbLine
 10
60.11999999999995
 20
-80.0
 30
0.0
 11
63.00000000000006
 21
-80.0
 31
0.0
  0
LINE
  5
5802
330
A
100
AcDbEntity
  8
0
  6
Continuous
 62
     7
100
AcDbLine
 10
57.00010699999996
 20
-78.50325199999997
 30
0.0
 11
57.00000000000006
 21
-78.50311800000009
 31
0.0
  0
LINE
  5
5803
330
A
100
AcDbEntity
  8
0
  6
Continuous
 62
     7
100
AcDbLine
 10
57.00000000000006
 20
-78.50311800000009
 30
0.0
 11
57.00000000000006
 21
-78.5
 31
0.0
  0
LINE
  5
5804
330
A
100
AcDbEntity
  8
0
  6
Continuous
 62
     7
100
AcDbLine
 10
57.00000000000006
 20
-74.0
 30
0.0
 11
57.66666700000005
 21
-74.0
 31
0.0
  0
ARC
  5
5805
330
A
100
AcDbEntity
  8
0
  6
Continuous
 62
     7
100
AcDbCircle
 10
42.00564499999987
 20
-78.72083800000007
 30
0.0
 40
6.5
100
AcDbArc
 50
275.1304229999879
 51
348.6504459999932
  0
ARC
  5
5806
330
A
100
AcDbEntity
  8
0
  6
Continuous
 62
     7
100
AcDbCircle
 10
42.40804899999978
 20
-83.20280999999979
 30
0.0
 40
2.0
100
AcDbArc
 50
251.9364989999867
 51
275.1304229999879
  0
ARC
  5
5807
330
A
100
AcDbEntity
  8
0
  6
Continuous
 62
     7
100
AcDbCircle
 10
40.00500000000013
 20
-90.57083899999998
 30
0.0
 40
5.75
100
AcDbArc
 50
71.9364989999867
 51
105.7228070000068
  0
ARC
  5
5808
330
A
100
AcDbEntity
  8
0
  6
Continuous
 62
     7
100
AcDbCircle
 10
37.90487700000006
 20
-83.11081299999996
 30
0.0
 40
2.0
100
AcDbArc
 50
250.111259999999
 51
285.7228070000068
  0
ARC
  5
5809
330
A
100
AcDbEntity
  8
0
  6
Continuous
 62
     7
100
AcDbCircle
 10
43.00779800000015
 20
-69.00548800000007
 30
0.0
 40
17.0
100
AcDbArc
 50
220.2959599999954
 51
250.111259999999
  0
ARC
  5
580A
330
A
100
AcDbEntity
  8
0
  6
Continuous
 62
     7
100
AcDbCircle
 10
43.00779800000015
 20
-65.99451199999999
 30
0.0
 40
17.0
100
AcDbArc
 50
109.8887400000009
 51
139.7040400000046
  0
ARC
  5
580B
330
A
100
AcDbEntity
  8
0
  6
Continuous
 62
     7
100
AcDbCircle
 10
37.90487700000006
 20
-51.8891870000001
 30
0.0
 40
2.0
100
AcDbArc
 50
74.27719299999319
 51
109.8887400000009
  0
ARC
  5
580C
330
A
100
AcDbEntity
  8
0
  6
Continuous
 62
     7
100
AcDbCircle
 10
40.00500000000013
 20
-44.42916100000001
 30
0.0
 40
5.75
100
AcDbArc
 50
254.2771929999932
 51
288.0635010000133
  0
ARC
  5
580D
330
A
100
AcDbEntity
  8
0
  6
Continuous
 62
     7
100
AcDbCircle
 10
42.40804899999978
 20
-51.79719000000011
 30
0.0
 40
2.0
100
AcDbArc
 50
84.86957700001211
 51
108.0635010000133
  0
ARC
  5
580E
330
A
100
AcDbEntity
  8
0
  6
Continuous
 62
     7
100
AcDbCircle
 10
42.00564499999987
 20
-56.27916200000013
 30
0.0
 40
6.5
100
AcDbArc
 50
11.34955400000682
 51
84.86957700001211
  0
LINE
  5
580F
330
A
100
AcDbEntity
  8
0
  6
Continuous
 62
     7
100
AcDbLine
 10
57.00000000000006
 20
-74.0
 30
0.0
 11
57.00000000000006
 21
-77.5
 31
0.0
  0
LINE
  5
5810
330
A
100
AcDbEntity
  8
0
  6
Continuous
 62
     7
100
AcDbLine
 10
57.00000000000006
 20
-77.5
 30
0.0
 11
57.00000000000006
 21
-78.5
 31
0.0
  0
LINE
  5
5811
330
A
100
AcDbEntity
  8
0
  6
Continuous
 62
     7
100
AcDbLine
 10
52.12249900000014
 20
-56.49999999999999
 30
0.0
 11
57.00000000000006
 21
-56.49999999999999
 31
0.0
  0
LINE
  5
5812
330
A
100
AcDbEntity
  8
0
  6
Continuous
 62
     7
100
AcDbLine
 10
57.00000000000006
 20
-57.5
 30
0.0
 11
57.00000000000006
 21
-67.0
 31
0.0
  0
LINE
  5
5813
330
A
100
AcDbEntity
  8
0
  6
Continuous
 62
     7
100
AcDbLine
 10
57.00000000000006
 20
-78.5
 30
0.0
 11
52.12249900000014
 21
-78.5
 31
0.0
  0
LINE
  5
5814
330
A
100
AcDbEntity
  8
0
  6
Continuous
 62
     7
100
AcDbLine
 10
57.00000000000006
 20
-67.0
 30
0.0
 11
59.00000000000005
 21
-67.0
 31
0.0
  0
LINE
  5
5815
330
A
100
AcDbEntity
  8
0
  6
Continuous
 62
     7
100
AcDbLine
 10
57.66666700000005
 20
-74.0
 30
0.0
 11
57.00012300000077
 21
-74.0
 31
0.0
  0
LINE
  5
5816
330
A
100
AcDbEntity
  8
0
  6
Continuous
 62
     7
100
AcDbLine
 10
57.00012300000077
 20
-74.0
 30
0.0
 11
57.00000000000006
 21
-74.0
 31
0.0
  0
LINE
  5
5817
330
A
100
AcDbEntity
  8
0
  6
Continuous
 62
     7
100
AcDbLine
 10
8.020171000000161
 20
-54.95000000000016
 30
0.0
 11
17.97982899999995
 21
-54.95000000000016
 31
0.0
  0
LINE
  5
5818
330
A
100
AcDbEntity
  8
0
  6
Continuous
 62
     7
100
AcDbLine
 10
-15.49999999999987
 20
-73.0
 30
0.0
 11
-15.49999999999987
 21
-72.5
 31
0.0
  0
LINE
  5
5819
330
A
100
AcDbEntity
  8
0
  6
Continuous
 62
     7
100
AcDbLine
 10
-15.49999999999987
 20
-72.5
 30
0.0
 11
-15.49999999999987
 21
-71.50000000000018
 31
0.0
  0
LINE
  5
581A
330
A
100
AcDbEntity
  8
0
  6
Continuous
 62
     7
100
AcDbLine
 10
-15.49999999999987
 20
-71.50000000000018
 30
0.0
 11
-9.499999999999872
 21
-71.50000000000018
 31
0.0
  0
LINE
  5
581B
330
A
100
AcDbEntity
  8
0
  6
Continuous
 62
     9
100
AcDbLine
 10
45.00000000000006
 20
-73.0
 30
0.0
 11
45.00000000000006
 21
-72.5
 31
0.0
  0
LINE
  5
581C
330
A
100
AcDbEntity
  8
0
  6
Continuous
 62
     9
100
AcDbLine
 10
45.00000000000006
 20
-72.5
 30
0.0
 11
45.00000000000006
 21
-71.50000000000018
 31
0.0
  0
LINE
  5
581D
330
A
100
AcDbEntity
  8
0
  6
Continuous
 62
     9
100
AcDbLine
 10
-9.499999999999872
 20
-73.0
 30
0.0
 11
-9.499999999999872
 21
-72.5
 31
0.0
  0
LINE
  5
581E
330
A
100
AcDbEntity
  8
0
  6
Continuous
 62
     9
100
AcDbLine
 10
-9.499999999999872
 20
-72.5
 30
0.0
 11
-9.499999999999872
 21
-71.50000000000018
 31
0.0
  0
LINE
  5
581F
330
A
100
AcDbEntity
  8
0
  6
Continuous
 62
     7
100
AcDbLine
 10
-9.499999999999872
 20
-71.50000000000018
 30
0.0
 11
45.00000000000006
 21
-71.50000000000018
 31
0.0
  0
LINE
  5
5820
330
A
100
AcDbEntity
  8
0
  6
Continuous
 62
     7
100
AcDbLine
 10
50.50000000000006
 20
-73.0
 30
0.0
 11
50.50000000000006
 21
-72.5
 31
0.0
  0
LINE
  5
5821
330
A
100
AcDbEntity
  8
0
  6
Continuous
 62
     7
100
AcDbLine
 10
50.50000000000006
 20
-72.5
 30
0.0
 11
50.50000000000006
 21
-71.50000000000018
 31
0.0
  0
LINE
  5
5822
330
A
100
AcDbEntity
  8
0
  6
Continuous
 62
     7
100
AcDbLine
 10
45.00000000000006
 20
-71.50000000000018
 30
0.0
 11
50.50000000000006
 21
-71.50000000000018
 31
0.0
  0
LINE
  5
5823
330
A
100
AcDbEntity
  8
0
  6
Continuous
 62
     7
100
AcDbLine
 10
-15.49999999999987
 20
-61.99999999999999
 30
0.0
 11
-15.49999999999987
 21
-62.5000000000001
 31
0.0
  0
LINE
  5
5824
330
A
100
AcDbEntity
  8
0
  6
Continuous
 62
     7
100
AcDbLine
 10
-15.49999999999987
 20
-62.5000000000001
 30
0.0
 11
-15.49999999999987
 21
-63.50000000000001
 31
0.0
  0
LINE
  5
5825
330
A
100
AcDbEntity
  8
0
  6
Continuous
 62
     7
100
AcDbLine
 10
-9.499999999999872
 20
-63.50000000000001
 30
0.0
 11
-15.49999999999987
 21
-63.50000000000001
 31
0.0
  0
LINE
  5
5826
330
A
100
AcDbEntity
  8
0
  6
Continuous
 62
     9
100
AcDbLine
 10
-9.499999999999872
 20
-61.99999999999999
 30
0.0
 11
-9.499999999999872
 21
-62.5000000000001
 31
0.0
  0
LINE
  5
5827
330
A
100
AcDbEntity
  8
0
  6
Continuous
 62
     9
100
AcDbLine
 10
-9.499999999999872
 20
-62.5000000000001
 30
0.0
 11
-9.499999999999872
 21
-63.50000000000001
 31
0.0
  0
LINE
  5
5828
330
A
100
AcDbEntity
  8
0
  6
Continuous
 62
     7
100
AcDbLine
 10
45.00000000000006
 20
-63.50000000000001
 30
0.0
 11
-9.499999999999872
 21
-63.50000000000001
 31
0.0
  0
LINE
  5
5829
330
A
100
AcDbEntity
  8
0
  6
Continuous
 62
     9
100
AcDbLine
 10
45.00000000000006
 20
-61.99999999999999
 30
0.0
 11
45.00000000000006
 21
-62.5000000000001
 31
0.0
  0
LINE
  5
582A
330
A
100
AcDbEntity
  8
0
  6
Continuous
 62
     9
100
AcDbLine
 10
45.00000000000006
 20
-62.5000000000001
 30
0.0
 11
45.00000000000006
 21
-63.50000000000001
 31
0.0
  0
LINE
  5
582B
330
A
100
AcDbEntity
  8
0
  6
Continuous
 62
     7
100
AcDbLine
 10
50.50000000000006
 20
-61.99999999999999
 30
0.0
 11
50.50000000000006
 21
-62.5000000000001
 31
0.0
  0
LINE
  5
582C
330
A
100
AcDbEntity
  8
0
  6
Continuous
 62
     7
100
AcDbLine
 10
50.50000000000006
 20
-62.5000000000001
 30
0.0
 11
50.50000000000006
 21
-63.50000000000001
 31
0.0
  0
LINE
  5
582D
330
A
100
AcDbEntity
  8
0
  6
Continuous
 62
     7
100
AcDbLine
 10
50.50000000000006
 20
-63.50000000000001
 30
0.0
 11
45.00000000000006
 21
-63.50000000000001
 31
0.0
  0
LINE
  5
582E
330
A
100
AcDbEntity
  8
0
  6
Continuous
 62
     7
100
AcDbLine
 10
-9.499999999999872
 20
-61.99999999999999
 30
0.0
 11
45.50000000000006
 21
-61.99999999999999
 31
0.0
  0
LINE
  5
582F
330
A
100
AcDbEntity
  8
0
  6
Continuous
 62
     9
100
AcDbLine
 10
-9.499999999999872
 20
-58.99999999999999
 30
0.0
 11
-9.499999999999872
 21
-61.99999999999999
 31
0.0
  0
LINE
  5
5830
330
A
100
AcDbEntity
  8
0
  6
Continuous
 62
     9
100
AcDbLine
 10
45.50000000000006
 20
-58.99999999999999
 30
0.0
 11
-9.499999999999872
 21
-58.99999999999999
 31
0.0
  0
LINE
  5
5831
330
A
100
AcDbEntity
  8
0
  6
Continuous
 62
     9
100
AcDbLine
 10
45.50000000000006
 20
-58.99999999999999
 30
0.0
 11
45.50000000000006
 21
-61.99999999999999
 31
0.0
  0
LINE
  5
5832
330
A
100
AcDbEntity
  8
0
  6
Continuous
 62
     7
100
AcDbLine
 10
-9.499999999999872
 20
-55.0
 30
0.0
 11
45.50000000000006
 21
-55.0
 31
0.0
  0
LINE
  5
5833
330
A
100
AcDbEntity
  8
0
  6
Continuous
 62
     9
100
AcDbLine
 10
45.50000000000006
 20
-58.99999999999999
 30
0.0
 11
45.50000000000006
 21
-55.0
 31
0.0
  0
LINE
  5
5834
330
A
100
AcDbEntity
  8
0
  6
Continuous
 62
     9
100
AcDbLine
 10
-9.499999999999872
 20
-55.0
 30
0.0
 11
-9.499999999999872
 21
-58.99999999999999
 31
0.0
  0
LINE
  5
5835
330
A
100
AcDbEntity
  8
0
  6
Continuous
 62
     9
100
AcDbLine
 10
53.00000000000006
 20
-58.99999999999999
 30
0.0
 11
45.50000000000006
 21
-58.99999999999999
 31
0.0
  0
LINE
  5
5836
330
A
100
AcDbEntity
  8
0
  6
Continuous
 62
     7
100
AcDbLine
 10
53.00000000000006
 20
-58.99999999999999
 30
0.0
 11
53.00000000000006
 21
-61.99999999999999
 31
0.0
  0
LINE
  5
5837
330
A
100
AcDbEntity
  8
0
  6
Continuous
 62
     7
100
AcDbLine
 10
45.50000000000006
 20
-61.99999999999999
 30
0.0
 11
53.00000000000006
 21
-61.99999999999999
 31
0.0
  0
LINE
  5
5838
330
A
100
AcDbEntity
  8
0
  6
Continuous
 62
     7
100
AcDbLine
 10
45.50000000000006
 20
-55.0
 30
0.0
 11
49.00000000000005
 21
-55.0
 31
0.0
  0
ARC
  5
5839
330
A
100
AcDbEntity
  8
0
  6
Continuous
 62
     7
100
AcDbCircle
 10
49.00000000000005
 20
-58.99999999999999
 30
0.0
 40
4.0
100
AcDbArc
 50
0.0
 51
90.0
  0
LINE
  5
583A
330
A
100
AcDbEntity
  8
0
  6
Continuous
 62
     7
100
AcDbLine
 10
-16.99999999999987
 20
-58.99999999999999
 30
0.0
 11
-16.99999999999987
 21
-61.99999999999999
 31
0.0
  0
LINE
  5
583B
330
A
100
AcDbEntity
  8
0
  6
Continuous
 62
     9
100
AcDbLine
 10
-9.499999999999872
 20
-58.99999999999999
 30
0.0
 11
-16.99999999999987
 21
-58.99999999999999
 31
0.0
  0
LINE
  5
583C
330
A
100
AcDbEntity
  8
0
  6
Continuous
 62
     7
100
AcDbLine
 10
-16.99999999999987
 20
-61.99999999999999
 30
0.0
 11
-9.499999999999872
 21
-61.99999999999999
 31
0.0
  0
LINE
  5
583D
330
A
100
AcDbEntity
  8
0
  6
Continuous
 62
     7
100
AcDbLine
 10
-12.99999999999987
 20
-55.0
 30
0.0
 11
-9.499999999999872
 21
-55.0
 31
0.0
  0
ARC
  5
583E
330
A
100
AcDbEntity
  8
0
  6
Continuous
 62
     7
100
AcDbCircle
 10
-12.99999999999987
 20
-58.99999999999999
 30
0.0
 40
4.0
100
AcDbArc
 50
90.0
 51
180.0
  0
LINE
  5
583F
330
A
100
AcDbEntity
  8
0
  6
Continuous
 62
     9
100
AcDbLine
 10
-9.499999999999872
 20
-61.99999999999999
 30
0.0
 11
-9.499999999999872
 21
-62.5000000000001
 31
0.0
  0
LINE
  5
5840
330
A
100
AcDbEntity
  8
0
  6
Continuous
 62
     9
100
AcDbLine
 10
45.00000000000006
 20
-61.99999999999999
 30
0.0
 11
45.00000000000006
 21
-62.5000000000001
 31
0.0
  0
LINE
  5
5841
330
A
100
AcDbEntity
  8
0
  6
Continuous
 62
     7
100
AcDbLine
 10
45.00000000000006
 20
-62.5000000000001
 30
0.0
 11
-9.499999999999872
 21
-62.5000000000001
 31
0.0
  0
LINE
  5
5842
330
A
100
AcDbEntity
  8
0
  6
Continuous
 62
     7
100
AcDbLine
 10
-15.49999999999987
 20
-61.99999999999999
 30
0.0
 11
-15.49999999999987
 21
-62.5000000000001
 31
0.0
  0
LINE
  5
5843
330
A
100
AcDbEntity
  8
0
  6
Continuous
 62
     7
100
AcDbLine
 10
-9.499999999999872
 20
-62.5000000000001
 30
0.0
 11
-15.49999999999987
 21
-62.5000000000001
 31
0.0
  0
LINE
  5
5844
330
A
100
AcDbEntity
  8
0
  6
Continuous
 62
     7
100
AcDbLine
 10
50.50000000000006
 20
-61.99999999999999
 30
0.0
 11
50.50000000000006
 21
-62.5000000000001
 31
0.0
  0
LINE
  5
5845
330
A
100
AcDbEntity
  8
0
  6
Continuous
 62
     7
100
AcDbLine
 10
50.50000000000006
 20
-62.5000000000001
 30
0.0
 11
45.00000000000006
 21
-62.5000000000001
 31
0.0
  0
LINE
  5
5846
330
A
100
AcDbEntity
  8
0
  6
Continuous
 62
     9
100
AcDbLine
 10
45.00000000000006
 20
-73.0
 30
0.0
 11
45.00000000000006
 21
-72.5
 31
0.0
  0
LINE
  5
5847
330
A
100
AcDbEntity
  8
0
  6
Continuous
 62
     9
100
AcDbLine
 10
-9.499999999999872
 20
-73.0
 30
0.0
 11
-9.499999999999872
 21
-72.5
 31
0.0
  0
LINE
  5
5848
330
A
100
AcDbEntity
  8
0
  6
Continuous
 62
     7
100
AcDbLine
 10
-9.499999999999872
 20
-72.5
 30
0.0
 11
45.00000000000006
 21
-72.5
 31
0.0
  0
LINE
  5
5849
330
A
100
AcDbEntity
  8
0
  6
Continuous
 62
     7
100
AcDbLine
 10
-15.49999999999987
 20
-73.0
 30
0.0
 11
-15.49999999999987
 21
-72.5
 31
0.0
  0
LINE
  5
584A
330
A
100
AcDbEntity
  8
0
  6
Continuous
 62
     7
100
AcDbLine
 10
-15.49999999999987
 20
-72.5
 30
0.0
 11
-9.499999999999872
 21
-72.5
 31
0.0
  0
LINE
  5
584B
330
A
100
AcDbEntity
  8
0
  6
Continuous
 62
     7
100
AcDbLine
 10
50.50000000000006
 20
-73.0
 30
0.0
 11
50.50000000000006
 21
-72.5
 31
0.0
  0
LINE
  5
584C
330
A
100
AcDbEntity
  8
0
  6
Continuous
 62
     7
100
AcDbLine
 10
45.00000000000006
 20
-72.5
 30
0.0
 11
50.50000000000006
 21
-72.5
 31
0.0
  0
ARC
  5
584D
330
A
100
AcDbEntity
  8
0
  6
Continuous
 62
     7
100
AcDbCircle
 10
40.00000000000006
 20
-67.50000000000017
 30
0.0
 40
4.0
100
AcDbArc
 50
90.0
 51
218.2399819999964
  0
ARC
  5
584E
330
A
100
AcDbEntity
  8
0
  6
Continuous
 62
     7
100
AcDbCircle
 10
40.00000000000006
 20
-67.50000000000017
 30
0.0
 40
4.0
100
AcDbArc
 50
270.0
 51
90.0
  0
ARC
  5
584F
330
A
100
AcDbEntity
  8
0
  6
Continuous
 62
     7
100
AcDbCircle
 10
40.00000000000006
 20
-67.50000000000017
 30
0.0
 40
4.0
100
AcDbArc
 50
218.2399819999964
 51
270.0
  0
CIRCLE
  5
5850
330
A
100
AcDbEntity
  8
0
  6
Continuous
 62
     7
100
AcDbCircle
 10
40.00000000000006
 20
-67.50000000000017
 30
0.0
 40
2.908089
  0
LINE
  5
5851
330
A
100
AcDbEntity
  8
0
  6
Continuous
 62
     7
100
AcDbLine
 10
-5.175000000000054
 20
-63.50000000000001
 30
0.0
 11
-5.175000000000054
 21
-71.50000000000018
 31
0.0
  0
LINE
  5
5852
330
A
100
AcDbEntity
  8
0
  6
Continuous
 62
     9
100
AcDbLine
 10
1.824999999999945
 20
-63.50000000000001
 30
0.0
 11
1.824999999999945
 21
-71.50000000000018
 31
0.0
  0
LINE
  5
5853
330
A
100
AcDbEntity
  8
0
  6
Continuous
 62
     7
100
AcDbLine
 10
8.824999999999873
 20
-63.50000000000001
 30
0.0
 11
8.824999999999873
 21
-71.50000000000018
 31
0.0
  0
LINE
  5
5854
330
A
100
AcDbEntity
  8
0
  6
Continuous
 62
     7
100
AcDbLine
 10
45.50000000000006
 20
-80.0
 30
0.0
 11
-9.499999999999872
 21
-80.0
 31
0.0
  0
LINE
  5
5855
330
A
100
AcDbEntity
  8
0
  6
Continuous
 62
     9
100
AcDbLine
 10
-9.499999999999872
 20
-76.0
 30
0.0
 11
-9.499999999999872
 21
-80.0
 31
0.0
  0
LINE
  5
5856
330
A
100
AcDbEntity
  8
0
  6
Continuous
 62
     9
100
AcDbLine
 10
-9.499999999999872
 20
-76.0
 30
0.0
 11
45.50000000000006
 21
-76.0
 31
0.0
  0
LINE
  5
5857
330
A
100
AcDbEntity
  8
0
  6
Continuous
 62
     9
100
AcDbLine
 10
45.50000000000006
 20
-80.0
 30
0.0
 11
45.50000000000006
 21
-76.0
 31
0.0
  0
LINE
  5
5858
330
A
100
AcDbEntity
  8
0
  6
Continuous
 62
     9
100
AcDbLine
 10
45.50000000000006
 20
-76.0
 30
0.0
 11
45.50000000000006
 21
-73.0
 31
0.0
  0
LINE
  5
5859
330
A
100
AcDbEntity
  8
0
  6
Continuous
 62
     9
100
AcDbLine
 10
-9.499999999999872
 20
-73.0
 30
0.0
 11
-9.499999999999872
 21
-76.0
 31
0.0
  0
LINE
  5
585A
330
A
100
AcDbEntity
  8
0
  6
Continuous
 62
     7
100
AcDbLine
 10
-9.499999999999872
 20
-73.0
 30
0.0
 11
45.50000000000006
 21
-73.0
 31
0.0
  0
LINE
  5
585B
330
A
100
AcDbEntity
  8
0
  6
Continuous
 62
     9
100
AcDbLine
 10
-16.99999999999987
 20
-76.0
 30
0.0
 11
-9.499999999999872
 21
-76.0
 31
0.0
  0
LINE
  5
585C
330
A
100
AcDbEntity
  8
0
  6
Continuous
 62
     7
100
AcDbLine
 10
-16.99999999999987
 20
-76.0
 30
0.0
 11
-16.99999999999987
 21
-73.0
 31
0.0
  0
LINE
  5
585D
330
A
100
AcDbEntity
  8
0
  6
Continuous
 62
     7
100
AcDbLine
 10
-16.99999999999987
 20
-73.0
 30
0.0
 11
-9.499999999999872
 21
-73.0
 31
0.0
  0
LINE
  5
585E
330
A
100
AcDbEntity
  8
0
  6
Continuous
 62
     7
100
AcDbLine
 10
-9.499999999999872
 20
-80.0
 30
0.0
 11
-12.99999999999987
 21
-80.0
 31
0.0
  0
ARC
  5
585F
330
A
100
AcDbEntity
  8
0
  6
Continuous
 62
     7
100
AcDbCircle
 10
-12.99999999999987
 20
-76.0
 30
0.0
 40
4.0
100
AcDbArc
 50
180.0
 51
270.0
  0
LINE
  5
5860
330
A
100
AcDbEntity
  8
0
  6
Continuous
 62
     7
100
AcDbLine
 10
49.00000000000005
 20
-80.0
 30
0.0
 11
45.50000000000006
 21
-80.0
 31
0.0
  0
LINE
  5
5861
330
A
100
AcDbEntity
  8
0
  6
Continuous
 62
     9
100
AcDbLine
 10
45.50000000000006
 20
-76.0
 30
0.0
 11
53.00000000000006
 21
-76.0
 31
0.0
  0
ARC
  5
5862
330
A
100
AcDbEntity
  8
0
  6
Continuous
 62
     7
100
AcDbCircle
 10
49.00000000000005
 20
-76.0
 30
0.0
 40
4.0
100
AcDbArc
 50
270.0
 51
0.0
  0
LINE
  5
5863
330
A
100
AcDbEntity
  8
0
  6
Continuous
 62
     7
100
AcDbLine
 10
53.00000000000006
 20
-73.0
 30
0.0
 11
53.00000000000006
 21
-76.0
 31
0.0
  0
LINE
  5
5864
330
A
100
AcDbEntity
  8
0
  6
Continuous
 62
     7
100
AcDbLine
 10
45.50000000000006
 20
-73.0
 30
0.0
 11
53.00000000000006
 21
-73.0
 31
0.0
  0
ARC
  5
5865
330
A
100
AcDbEntity
  8
0
  6
Continuous
 62
     7
100
AcDbCircle
 10
40.00000000000006
 20
-67.50000000000017
 30
0.0
 40
4.009999999999998
100
AcDbArc
 50
274.0472099999924
 51
0.0
  0
ARC
  5
5866
330
A
100
AcDbEntity
  8
0
  6
Continuous
 62
     7
100
AcDbCircle
 10
40.00000000000006
 20
-67.50000000000017
 30
0.0
 40
4.009999999999998
100
AcDbArc
 50
94.0472099999924
 51
265.9527900000076
  0
ARC
  5
5867
330
A
100
AcDbEntity
  8
0
  6
Continuous
 62
     7
100
AcDbCircle
 10
40.00000000000006
 20
-67.50000000000017
 30
0.0
 40
4.009999999999998
100
AcDbArc
 50
0.0
 51
85.9527900000076
  0
LINE
  5
5868
330
A
100
AcDbEntity
  8
0
  6
Continuous
 62
     7
100
AcDbLine
 10
50.50000000000006
 20
-62.5000000000001
 30
0.0
 11
53.00000000000006
 21
-62.5000000000001
 31
0.0
  0
LINE
  5
5869
330
A
100
AcDbEntity
  8
0
  6
Continuous
 62
     7
100
AcDbLine
 10
8.875000000000043
 20
-63.50000000000001
 30
0.0
 11
8.875000000000043
 21
-71.50000000000018
 31
0.0
  0
LINE
  5
586A
330
A
100
AcDbEntity
  8
0
  6
Continuous
 62
     7
100
AcDbLine
 10
53.00000000000006
 20
-62.5000000000001
 30
0.0
 11
53.00000000000006
 21
-73.0
 31
0.0
  0
ARC
  5
586B
330
A
100
AcDbEntity
  8
0
  6
Continuous
 62
     7
100
AcDbCircle
 10
94.02017100000026
 20
-55.45000000000014
 30
0.0
 40
0.5
100
AcDbArc
 50
90.0
 51
115.8419329999879
  0
ARC
  5
586C
330
A
100
AcDbEntity
  8
0
  6
Continuous
 62
     7
100
AcDbCircle
 10
103.9798289999999
 20
-55.45000000000014
 30
0.0
 40
0.5
100
AcDbArc
 50
64.15806700001211
 51
90.0
  0
ARC
  5
586D
330
A
100
AcDbEntity
  8
0
  6
Continuous
 62
     7
100
AcDbCircle
 10
8.020171000000161
 20
-55.45000000000014
 30
0.0
 40
0.5
100
AcDbArc
 50
90.0
 51
115.8419329999879
  0
ARC
  5
586E
330
A
100
AcDbEntity
  8
0
  6
Continuous
 62
     7
100
AcDbCircle
 10
17.97982899999995
 20
-55.45000000000014
 30
0.0
 40
0.5
100
AcDbArc
 50
64.15806700001211
 51
90.0
  0
LINE
  5
586F
330
A
100
AcDbEntity
  8
0
  6
Continuous
 62
     7
100
AcDbLine
 10
189.0000000000001
 20
83.49999999999979
 30
0.0
 11
189.0000000000001
 21
85.0
 31
0.0
  0
LINE
  5
5870
330
A
100
AcDbEntity
  8
0
  6
Continuous
 62
     7
100
AcDbLine
 10
189.0000000000001
 20
-15.0
 30
0.0
 11
189.0000000000001
 21
-13.5
 31
0.0
  0
LINE
  5
5871
330
A
100
AcDbEntity
  8
0
  6
Continuous
 62
     7
100
AcDbLine
 10
196.0
 20
-7.499999999999992
 30
0.0
 11
196.0
 21
-11.0
 31
0.0
  0
LINE
  5
5872
330
A
100
AcDbEntity
  8
0
  6
Continuous
 62
     7
100
AcDbLine
 10
196.0
 20
81.0
 30
0.0
 11
196.0
 21
77.5
 31
0.0
  0
LINE
  5
5873
330
A
100
AcDbEntity
  8
0
  6
Continuous
 62
     9
100
AcDbLine
 10
166.0084769999999
 20
41.0
 30
0.0
 11
166.0084769999999
 21
29.00000000000001
 31
0.0
  0
LINE
  5
5874
330
A
100
AcDbEntity
  8
0
  6
Continuous
 62
     7
100
AcDbLine
 10
166.0084769999999
 20
41.0
 30
0.0
 11
171.0
 21
41.0
 31
0.0
  0
LINE
  5
5875
330
A
100
AcDbEntity
  8
0
  6
Continuous
 62
     7
100
AcDbLine
 10
166.0084769999999
 20
29.00000000000001
 30
0.0
 11
171.0
 21
29.00000000000001
 31
0.0
  0
LINE
  5
5876
330
A
100
AcDbEntity
  8
0
  6
Continuous
 62
     9
100
AcDbLine
 10
200.9915230000002
 20
29.00000000000001
 30
0.0
 11
200.9915230000002
 21
41.0
 31
0.0
  0
LINE
  5
5877
330
A
100
AcDbEntity
  8
0
  6
Continuous
 62
     7
100
AcDbLine
 10
196.0
 20
41.0
 30
0.0
 11
200.9915230000002
 21
41.0
 31
0.0
  0
LINE
  5
5878
330
A
100
AcDbEntity
  8
0
  6
Continuous
 62
     7
100
AcDbLine
 10
196.0
 20
29.00000000000001
 30
0.0
 11
200.9915230000002
 21
29.00000000000001
 31
0.0
  0
LINE
  5
5879
330
A
100
AcDbEntity
  8
0
  6
Continuous
 62
     7
100
AcDbLine
 10
165.8891870000004
 20
41.0
 30
0.0
 11
166.0084769999999
 21
41.0
 31
0.0
  0
LINE
  5
587A
330
A
100
AcDbEntity
  8
0
  6
Continuous
 62
     7
100
AcDbLine
 10
166.0084769999999
 20
29.00000000000001
 30
0.0
 11
165.8891870000004
 21
29.00000000000001
 31
0.0
  0
LINE
  5
587B
330
A
100
AcDbEntity
  8
0
  6
Continuous
 62
     7
100
AcDbLine
 10
201.1108129999998
 20
29.00000000000001
 30
0.0
 11
200.9915230000002
 21
29.00000000000001
 31
0.0
  0
LINE
  5
587C
330
A
100
AcDbEntity
  8
0
  6
Continuous
 62
     7
100
AcDbLine
 10
200.9915230000002
 20
41.0
 30
0.0
 11
201.1108129999998
 21
41.0
 31
0.0
  0
LINE
  5
587D
330
A
100
AcDbEntity
  8
0
  6
Continuous
 62
     7
100
AcDbLine
 10
165.7971899999999
 20
41.0
 30
0.0
 11
165.8957639999999
 21
41.0
 31
0.0
  0
LINE
  5
587E
330
A
100
AcDbEntity
  8
0
  6
Continuous
 62
     7
100
AcDbLine
 10
165.8957639999999
 20
29.00000000000001
 30
0.0
 11
165.7971899999999
 21
29.00000000000001
 31
0.0
  0
LINE
  5
587F
330
A
100
AcDbEntity
  8
0
  6
Continuous
 62
     7
100
AcDbLine
 10
201.2028100000013
 20
29.00000000000001
 30
0.0
 11
201.1042360000002
 21
29.00000000000001
 31
0.0
  0
LINE
  5
5880
330
A
100
AcDbEntity
  8
0
  6
Continuous
 62
     7
100
AcDbLine
 10
201.1042360000002
 20
41.0
 30
0.0
 11
201.2028100000013
 21
41.0
 31
0.0
  0
LINE
  5
5881
330
A
100
AcDbEntity
  8
0
  6
Continuous
 62
     7
100
AcDbLine
 10
170.9499999999999
 20
0.0201710000000084
 30
0.0
 11
170.9499999999999
 21
0.15661699999999
 31
0.0
  0
LINE
  5
5882
330
A
100
AcDbEntity
  8
0
  6
Continuous
 62
     7
100
AcDbLine
 10
170.9499999999999
 20
0.15661699999999
 30
0.0
 11
170.9499999999999
 21
9.979828999999773
 31
0.0
  0
LINE
  5
5883
330
A
100
AcDbEntity
  8
0
  6
Continuous
 62
     7
100
AcDbLine
 10
170.9499999999999
 20
60.020171
 30
0.0
 11
170.9499999999999
 21
64.91851799999972
 31
0.0
  0
LINE
  5
5884
330
A
100
AcDbEntity
  8
0
  6
Continuous
 62
     7
100
AcDbLine
 10
170.9499999999999
 20
64.91851799999972
 30
0.0
 11
170.9499999999999
 21
69.97982900000001
 31
0.0
  0
LINE
  5
5885
330
A
100
AcDbEntity
  8
0
  6
Continuous
 62
     9
100
AcDbLine
 10
189.0000000000001
 20
-7.499999999999992
 30
0.0
 11
188.5000000000001
 21
-7.499999999999992
 31
0.0
  0
LINE
  5
5886
330
A
100
AcDbEntity
  8
0
  6
Continuous
 62
     9
100
AcDbLine
 10
188.5000000000001
 20
-7.499999999999992
 30
0.0
 11
187.5
 21
-7.499999999999992
 31
0.0
  0
LINE
  5
5887
330
A
100
AcDbEntity
  8
0
  6
Continuous
 62
     7
100
AcDbLine
 10
189.0000000000001
 20
-13.5
 30
0.0
 11
188.5000000000001
 21
-13.5
 31
0.0
  0
LINE
  5
5888
330
A
100
AcDbEntity
  8
0
  6
Continuous
 62
     7
100
AcDbLine
 10
188.5000000000001
 20
-13.5
 30
0.0
 11
187.5
 21
-13.5
 31
0.0
  0
LINE
  5
5889
330
A
100
AcDbEntity
  8
0
  6
Continuous
 62
     7
100
AcDbLine
 10
187.5
 20
-13.5
 30
0.0
 11
187.5
 21
-7.499999999999992
 31
0.0
  0
LINE
  5
588A
330
A
100
AcDbEntity
  8
0
  6
Continuous
 62
     9
100
AcDbLine
 10
189.0000000000001
 20
77.5
 30
0.0
 11
188.5000000000001
 21
77.5
 31
0.0
  0
LINE
  5
588B
330
A
100
AcDbEntity
  8
0
  6
Continuous
 62
     9
100
AcDbLine
 10
188.5000000000001
 20
77.5
 30
0.0
 11
187.5
 21
77.5
 31
0.0
  0
LINE
  5
588C
330
A
100
AcDbEntity
  8
0
  6
Continuous
 62
     7
100
AcDbLine
 10
187.5
 20
-7.499999999999992
 30
0.0
 11
187.5
 21
77.5
 31
0.0
  0
LINE
  5
588D
330
A
100
AcDbEntity
  8
0
  6
Continuous
 62
     7
100
AcDbLine
 10
189.0000000000001
 20
83.49999999999979
 30
0.0
 11
188.5000000000001
 21
83.49999999999979
 31
0.0
  0
LINE
  5
588E
330
A
100
AcDbEntity
  8
0
  6
Continuous
 62
     7
100
AcDbLine
 10
188.5000000000001
 20
83.49999999999979
 30
0.0
 11
187.5
 21
83.49999999999979
 31
0.0
  0
LINE
  5
588F
330
A
100
AcDbEntity
  8
0
  6
Continuous
 62
     7
100
AcDbLine
 10
187.5
 20
77.5
 30
0.0
 11
187.5
 21
83.49999999999979
 31
0.0
  0
LINE
  5
5890
330
A
100
AcDbEntity
  8
0
  6
Continuous
 62
     7
100
AcDbLine
 10
178.0000000000001
 20
-13.5
 30
0.0
 11
178.5000000000001
 21
-13.5
 31
0.0
  0
LINE
  5
5891
330
A
100
AcDbEntity
  8
0
  6
Continuous
 62
     7
100
AcDbLine
 10
178.5000000000001
 20
-13.5
 30
0.0
 11
179.5
 21
-13.5
 31
0.0
  0
LINE
  5
5892
330
A
100
AcDbEntity
  8
0
  6
Continuous
 62
     9
100
AcDbLine
 10
178.0000000000001
 20
-7.499999999999992
 30
0.0
 11
178.5000000000001
 21
-7.499999999999992
 31
0.0
  0
LINE
  5
5893
330
A
100
AcDbEntity
  8
0
  6
Continuous
 62
     9
100
AcDbLine
 10
178.5000000000001
 20
-7.499999999999992
 30
0.0
 11
179.5
 21
-7.499999999999992
 31
0.0
  0
LINE
  5
5894
330
A
100
AcDbEntity
  8
0
  6
Continuous
 62
     7
100
AcDbLine
 10
179.5
 20
-7.499999999999992
 30
0.0
 11
179.5
 21
-13.5
 31
0.0
  0
LINE
  5
5895
330
A
100
AcDbEntity
  8
0
  6
Continuous
 62
     9
100
AcDbLine
 10
178.0000000000001
 20
77.5
 30
0.0
 11
178.5000000000001
 21
77.5
 31
0.0
  0
LINE
  5
5896
330
A
100
AcDbEntity
  8
0
  6
Continuous
 62
     9
100
AcDbLine
 10
178.5000000000001
 20
77.5
 30
0.0
 11
179.5
 21
77.5
 31
0.0
  0
LINE
  5
5897
330
A
100
AcDbEntity
  8
0
  6
Continuous
 62
     7
100
AcDbLine
 10
179.5
 20
77.5
 30
0.0
 11
179.5
 21
-7.499999999999992
 31
0.0
  0
LINE
  5
5898
330
A
100
AcDbEntity
  8
0
  6
Continuous
 62
     7
100
AcDbLine
 10
178.0000000000001
 20
83.49999999999979
 30
0.0
 11
178.5000000000001
 21
83.49999999999979
 31
0.0
  0
LINE
  5
5899
330
A
100
AcDbEntity
  8
0
  6
Continuous
 62
     7
100
AcDbLine
 10
178.5000000000001
 20
83.49999999999979
 30
0.0
 11
179.5
 21
83.49999999999979
 31
0.0
  0
LINE
  5
589A
330
A
100
AcDbEntity
  8
0
  6
Continuous
 62
     7
100
AcDbLine
 10
179.5
 20
83.49999999999979
 30
0.0
 11
179.5
 21
77.5
 31
0.0
  0
LINE
  5
589B
330
A
100
AcDbEntity
  8
0
  6
Continuous
 62
     7
100
AcDbLine
 10
171.0
 20
-11.0
 30
0.0
 11
171.0
 21
-7.499999999999992
 31
0.0
  0
LINE
  5
589C
330
A
100
AcDbEntity
  8
0
  6
Continuous
 62
     9
100
AcDbLine
 10
171.0
 20
-7.499999999999992
 30
0.0
 11
175.0
 21
-7.499999999999992
 31
0.0
  0
LINE
  5
589D
330
A
100
AcDbEntity
  8
0
  6
Continuous
 62
     9
100
AcDbLine
 10
175.0
 20
-7.499999999999992
 30
0.0
 11
175.0
 21
-15.0
 31
0.0
  0
ARC
  5
589E
330
A
100
AcDbEntity
  8
0
  6
Continuous
 62
     7
100
AcDbCircle
 10
175.0
 20
-11.0
 30
0.0
 40
4.0
100
AcDbArc
 50
180.0
 51
270.0
  0
LINE
  5
589F
330
A
100
AcDbEntity
  8
0
  6
Continuous
 62
     7
100
AcDbLine
 10
171.0
 20
-7.499999999999992
 30
0.0
 11
171.0
 21
77.5
 31
0.0
  0
LINE
  5
58A0
330
A
100
AcDbEntity
  8
0
  6
Continuous
 62
     9
100
AcDbLine
 10
171.0
 20
77.5
 30
0.0
 11
175.0
 21
77.5
 31
0.0
  0
LINE
  5
58A1
330
A
100
AcDbEntity
  8
0
  6
Continuous
 62
     9
100
AcDbLine
 10
175.0
 20
77.5
 30
0.0
 11
175.0
 21
-7.499999999999992
 31
0.0
  0
LINE
  5
58A2
330
A
100
AcDbEntity
  8
0
  6
Continuous
 62
     7
100
AcDbLine
 10
171.0
 20
77.5
 30
0.0
 11
171.0
 21
81.0
 31
0.0
  0
ARC
  5
58A3
330
A
100
AcDbEntity
  8
0
  6
Continuous
 62
     7
100
AcDbCircle
 10
175.0
 20
81.0
 30
0.0
 40
4.0
100
AcDbArc
 50
90.0
 51
180.0
  0
LINE
  5
58A4
330
A
100
AcDbEntity
  8
0
  6
Continuous
 62
     9
100
AcDbLine
 10
175.0
 20
85.0
 30
0.0
 11
175.0
 21
77.5
 31
0.0
  0
LINE
  5
58A5
330
A
100
AcDbEntity
  8
0
  6
Continuous
 62
     7
100
AcDbLine
 10
178.0000000000001
 20
-15.0
 30
0.0
 11
178.0000000000001
 21
-7.499999999999992
 31
0.0
  0
LINE
  5
58A6
330
A
100
AcDbEntity
  8
0
  6
Continuous
 62
     7
100
AcDbLine
 10
175.0
 20
-15.0
 30
0.0
 11
178.0000000000001
 21
-15.0
 31
0.0
  0
LINE
  5
58A7
330
A
100
AcDbEntity
  8
0
  6
Continuous
 62
     9
100
AcDbLine
 10
175.0
 20
-7.499999999999992
 30
0.0
 11
178.0000000000001
 21
-7.499999999999992
 31
0.0
  0
LINE
  5
58A8
330
A
100
AcDbEntity
  8
0
  6
Continuous
 62
     7
100
AcDbLine
 10
178.0000000000001
 20
77.5
 30
0.0
 11
178.0000000000001
 21
85.0
 31
0.0
  0
LINE
  5
58A9
330
A
100
AcDbEntity
  8
0
  6
Continuous
 62
     9
100
AcDbLine
 10
175.0
 20
77.5
 30
0.0
 11
178.0000000000001
 21
77.5
 31
0.0
  0
LINE
  5
58AA
330
A
100
AcDbEntity
  8
0
  6
Continuous
 62
     7
100
AcDbLine
 10
175.0
 20
85.0
 30
0.0
 11
178.0000000000001
 21
85.0
 31
0.0
  0
LINE
  5
58AB
330
A
100
AcDbEntity
  8
0
  6
Continuous
 62
     7
100
AcDbLine
 10
178.0000000000001
 20
-7.499999999999992
 30
0.0
 11
178.0000000000001
 21
77.5
 31
0.0
  0
LINE
  5
58AC
330
A
100
AcDbEntity
  8
0
  6
Continuous
 62
     9
100
AcDbLine
 10
178.0000000000001
 20
77.5
 30
0.0
 11
178.5000000000001
 21
77.5
 31
0.0
  0
LINE
  5
58AD
330
A
100
AcDbEntity
  8
0
  6
Continuous
 62
     7
100
AcDbLine
 10
178.0000000000001
 20
83.49999999999979
 30
0.0
 11
178.5000000000001
 21
83.49999999999979
 31
0.0
  0
LINE
  5
58AE
330
A
100
AcDbEntity
  8
0
  6
Continuous
 62
     7
100
AcDbLine
 10
178.5000000000001
 20
83.49999999999979
 30
0.0
 11
178.5000000000001
 21
77.5
 31
0.0
  0
LINE
  5
58AF
330
A
100
AcDbEntity
  8
0
  6
Continuous
 62
     9
100
AcDbLine
 10
178.0000000000001
 20
-7.499999999999992
 30
0.0
 11
178.5000000000001
 21
-7.499999999999992
 31
0.0
  0
LINE
  5
58B0
330
A
100
AcDbEntity
  8
0
  6
Continuous
 62
     7
100
AcDbLine
 10
178.5000000000001
 20
77.5
 30
0.0
 11
178.5000000000001
 21
-7.499999999999992
 31
0.0
  0
LINE
  5
58B1
330
A
100
AcDbEntity
  8
0
  6
Continuous
 62
     7
100
AcDbLine
 10
178.0000000000001
 20
-13.5
 30
0.0
 11
178.5000000000001
 21
-13.5
 31
0.0
  0
LINE
  5
58B2
330
A
100
AcDbEntity
  8
0
  6
Continuous
 62
     7
100
AcDbLine
 10
178.5000000000001
 20
-7.499999999999992
 30
0.0
 11
178.5000000000001
 21
-13.5
 31
0.0
  0
LINE
  5
58B3
330
A
100
AcDbEntity
  8
0
  6
Continuous
 62
     7
100
AcDbLine
 10
189.0000000000001
 20
83.49999999999979
 30
0.0
 11
188.5000000000001
 21
83.49999999999979
 31
0.0
  0
LINE
  5
58B4
330
A
100
AcDbEntity
  8
0
  6
Continuous
 62
     9
100
AcDbLine
 10
189.0000000000001
 20
77.5
 30
0.0
 11
188.5000000000001
 21
77.5
 31
0.0
  0
LINE
  5
58B5
330
A
100
AcDbEntity
  8
0
  6
Continuous
 62
     7
100
AcDbLine
 10
188.5000000000001
 20
77.5
 30
0.0
 11
188.5000000000001
 21
83.49999999999979
 31
0.0
  0
LINE
  5
58B6
330
A
100
AcDbEntity
  8
0
  6
Continuous
 62
     9
100
AcDbLine
 10
189.0000000000001
 20
-7.499999999999992
 30
0.0
 11
188.5000000000001
 21
-7.499999999999992
 31
0.0
  0
LINE
  5
58B7
330
A
100
AcDbEntity
  8
0
  6
Continuous
 62
     7
100
AcDbLine
 10
189.0000000000001
 20
-13.5
 30
0.0
 11
188.5000000000001
 21
-13.5
 31
0.0
  0
LINE
  5
58B8
330
A
100
AcDbEntity
  8
0
  6
Continuous
 62
     7
100
AcDbLine
 10
188.5000000000001
 20
-13.5
 30
0.0
 11
188.5000000000001
 21
-7.499999999999992
 31
0.0
  0
LINE
  5
58B9
330
A
100
AcDbEntity
  8
0
  6
Continuous
 62
     7
100
AcDbLine
 10
188.5000000000001
 20
-7.499999999999992
 30
0.0
 11
188.5000000000001
 21
77.5
 31
0.0
  0
LINE
  5
58BA
330
A
100
AcDbEntity
  8
0
  6
Continuous
 62
     9
100
AcDbLine
 10
179.5
 20
1.000000000000007
 30
0.0
 11
187.5
 21
1.000000000000007
 31
0.0
  0
LINE
  5
58BB
330
A
100
AcDbEntity
  8
0
  6
Continuous
 62
     9
100
AcDbLine
 10
179.5
 20
69.0
 30
0.0
 11
187.5
 21
69.0
 31
0.0
  0
LINE
  5
58BC
330
A
100
AcDbEntity
  8
0
  6
Continuous
 62
     7
100
AcDbLine
 10
179.5
 20
76.0
 30
0.0
 11
187.5
 21
76.0
 31
0.0
  0
LINE
  5
58BD
330
A
100
AcDbEntity
  8
0
  6
Continuous
 62
     7
100
AcDbLine
 10
179.5
 20
-5.999999999999992
 30
0.0
 11
187.5
 21
-5.999999999999992
 31
0.0
  0
LINE
  5
58BE
330
A
100
AcDbEntity
  8
0
  6
Continuous
 62
     7
100
AcDbLine
 10
189.0000000000001
 20
77.5
 30
0.0
 11
189.0000000000001
 21
85.0
 31
0.0
  0
LINE
  5
58BF
330
A
100
AcDbEntity
  8
0
  6
Continuous
 62
     7
100
AcDbLine
 10
189.0000000000001
 20
85.0
 30
0.0
 11
192.0
 21
85.0
 31
0.0
  0
LINE
  5
58C0
330
A
100
AcDbEntity
  8
0
  6
Continuous
 62
     9
100
AcDbLine
 10
192.0
 20
77.5
 30
0.0
 11
192.0
 21
85.0
 31
0.0
  0
LINE
  5
58C1
330
A
100
AcDbEntity
  8
0
  6
Continuous
 62
     9
100
AcDbLine
 10
192.0
 20
77.5
 30
0.0
 11
189.0000000000001
 21
77.5
 31
0.0
  0
LINE
  5
58C2
330
A
100
AcDbEntity
  8
0
  6
Continuous
 62
     7
100
AcDbLine
 10
189.0000000000001
 20
-15.0
 30
0.0
 11
189.0000000000001
 21
-7.499999999999992
 31
0.0
  0
LINE
  5
58C3
330
A
100
AcDbEntity
  8
0
  6
Continuous
 62
     9
100
AcDbLine
 10
189.0000000000001
 20
-7.499999999999992
 30
0.0
 11
192.0
 21
-7.499999999999992
 31
0.0
  0
LINE
  5
58C4
330
A
100
AcDbEntity
  8
0
  6
Continuous
 62
     9
100
AcDbLine
 10
192.0
 20
-15.0
 30
0.0
 11
192.0
 21
-7.499999999999992
 31
0.0
  0
LINE
  5
58C5
330
A
100
AcDbEntity
  8
0
  6
Continuous
 62
     7
100
AcDbLine
 10
192.0
 20
-15.0
 30
0.0
 11
189.0000000000001
 21
-15.0
 31
0.0
  0
LINE
  5
58C6
330
A
100
AcDbEntity
  8
0
  6
Continuous
 62
     9
100
AcDbLine
 10
192.0
 20
-7.499999999999992
 30
0.0
 11
192.0
 21
77.5
 31
0.0
  0
LINE
  5
58C7
330
A
100
AcDbEntity
  8
0
  6
Continuous
 62
     7
100
AcDbLine
 10
189.0000000000001
 20
-7.499999999999992
 30
0.0
 11
189.0000000000001
 21
77.5
 31
0.0
  0
LINE
  5
58C8
330
A
100
AcDbEntity
  8
0
  6
Continuous
 62
     9
100
AcDbLine
 10
192.0
 20
77.5
 30
0.0
 11
196.0
 21
77.5
 31
0.0
  0
LINE
  5
58C9
330
A
100
AcDbEntity
  8
0
  6
Continuous
 62
     7
100
AcDbLine
 10
196.0
 20
77.5
 30
0.0
 11
196.0
 21
-7.499999999999992
 31
0.0
  0
LINE
  5
58CA
330
A
100
AcDbEntity
  8
0
  6
Continuous
 62
     9
100
AcDbLine
 10
192.0
 20
-7.499999999999992
 30
0.0
 11
196.0
 21
-7.499999999999992
 31
0.0
  0
ARC
  5
58CB
330
A
100
AcDbEntity
  8
0
  6
Continuous
 62
     7
100
AcDbCircle
 10
192.0
 20
81.0
 30
0.0
 40
4.0
100
AcDbArc
 50
0.0
 51
90.0
  0
LINE
  5
58CC
330
A
100
AcDbEntity
  8
0
  6
Continuous
 62
     7
100
AcDbLine
 10
196.0
 20
81.0
 30
0.0
 11
196.0
 21
77.5
 31
0.0
  0
LINE
  5
58CD
330
A
100
AcDbEntity
  8
0
  6
Continuous
 62
     7
100
AcDbLine
 10
196.0
 20
-7.499999999999992
 30
0.0
 11
196.0
 21
-11.0
 31
0.0
  0
ARC
  5
58CE
330
A
100
AcDbEntity
  8
0
  6
Continuous
 62
     7
100
AcDbCircle
 10
192.0
 20
-11.0
 30
0.0
 40
4.0
100
AcDbArc
 50
270.0
 51
0.0
  0
LINE
  5
58CF
330
A
100
AcDbEntity
  8
0
  6
Continuous
 62
     7
100
AcDbLine
 10
165.8891870000004
 20
41.0
 30
0.0
 11
165.8891870000004
 21
29.00000000000001
 31
0.0
  0
LINE
  5
58D0
330
A
100
AcDbEntity
  8
0
  6
Continuous
 62
     7
100
AcDbLine
 10
201.1108129999998
 20
29.00000000000001
 30
0.0
 11
201.1108129999998
 21
41.0
 31
0.0
  0
LINE
  5
58D1
330
A
100
AcDbEntity
  8
0
  6
Continuous
 62
     7
100
AcDbLine
 10
165.7971899999999
 20
41.0
 30
0.0
 11
165.7971899999999
 21
29.00000000000001
 31
0.0
  0
LINE
  5
58D2
330
A
100
AcDbEntity
  8
0
  6
Continuous
 62
     7
100
AcDbLine
 10
201.2028100000013
 20
29.00000000000001
 30
0.0
 11
201.2028100000013
 21
41.0
 31
0.0
  0
ARC
  5
58D3
330
A
100
AcDbEntity
  8
0
  6
Continuous
 62
     7
100
AcDbCircle
 10
171.4499999999999
 20
0.0201710000000084
 30
0.0
 40
0.5
100
AcDbArc
 50
180.0
 51
205.8419369999924
  0
ARC
  5
58D4
330
A
100
AcDbEntity
  8
0
  6
Continuous
 62
     7
100
AcDbCircle
 10
171.4499999999999
 20
9.979828999999773
 30
0.0
 40
0.5
100
AcDbArc
 50
154.1580630000076
 51
180.0
  0
ARC
  5
58D5
330
A
100
AcDbEntity
  8
0
  6
Continuous
 62
     7
100
AcDbCircle
 10
171.4499999999999
 20
60.020171
 30
0.0
 40
0.5
100
AcDbArc
 50
180.0
 51
205.8419369999924
  0
ARC
  5
58D6
330
A
100
AcDbEntity
  8
0
  6
Continuous
 62
     7
100
AcDbCircle
 10
171.4499999999999
 20
69.97982900000001
 30
0.0
 40
0.5
100
AcDbArc
 50
154.1580630000076
 51
180.0
  0
LINE
  5
58D7
330
A
100
AcDbEntity
  8
0
  6
Continuous
 62
     9
100
AcDbLine
 10
-68.99999999999989
 20
77.5
 30
0.0
 11
-68.49999999999989
 21
77.5
 31
0.0
  0
LINE
  5
58D8
330
A
100
AcDbEntity
  8
0
  6
Continuous
 62
     7
100
AcDbLine
 10
-68.99999999999989
 20
83.49999999999979
 30
0.0
 11
-68.99999999999989
 21
77.5
 31
0.0
  0
LINE
  5
58D9
330
A
100
AcDbEntity
  8
0
  6
Continuous
 62
     7
100
AcDbLine
 10
-68.99999999999989
 20
83.49999999999979
 30
0.0
 11
-68.49999999999989
 21
83.49999999999979
 31
0.0
  0
LINE
  5
58DA
330
A
100
AcDbEntity
  8
0
  6
Continuous
 62
     9
100
AcDbLine
 10
-68.99999999999989
 20
-7.499999999999992
 30
0.0
 11
-68.49999999999989
 21
-7.499999999999992
 31
0.0
  0
LINE
  5
58DB
330
A
100
AcDbEntity
  8
0
  6
Continuous
 62
     7
100
AcDbLine
 10
-68.99999999999989
 20
77.5
 30
0.0
 11
-68.99999999999989
 21
-7.499999999999992
 31
0.0
  0
LINE
  5
58DC
330
A
100
AcDbEntity
  8
0
  6
Continuous
 62
     7
100
AcDbLine
 10
-68.99999999999989
 20
-13.5
 30
0.0
 11
-68.49999999999989
 21
-13.5
 31
0.0
  0
LINE
  5
58DD
330
A
100
AcDbEntity
  8
0
  6
Continuous
 62
     7
100
AcDbLine
 10
-68.99999999999989
 20
-7.499999999999992
 30
0.0
 11
-68.99999999999989
 21
-13.5
 31
0.0
  0
LINE
  5
58DE
330
A
100
AcDbEntity
  8
0
  6
Continuous
 62
     7
100
AcDbLine
 10
-78.99999999999989
 20
83.49999999999979
 30
0.0
 11
-79.49999999999989
 21
83.49999999999979
 31
0.0
  0
LINE
  5
58DF
330
A
100
AcDbEntity
  8
0
  6
Continuous
 62
     7
100
AcDbLine
 10
-78.99999999999989
 20
77.5
 30
0.0
 11
-78.99999999999989
 21
83.49999999999979
 31
0.0
  0
LINE
  5
58E0
330
A
100
AcDbEntity
  8
0
  6
Continuous
 62
     9
100
AcDbLine
 10
-78.99999999999989
 20
77.5
 30
0.0
 11
-79.49999999999989
 21
77.5
 31
0.0
  0
LINE
  5
58E1
330
A
100
AcDbEntity
  8
0
  6
Continuous
 62
     7
100
AcDbLine
 10
-78.99999999999989
 20
-7.499999999999992
 30
0.0
 11
-78.99999999999989
 21
77.5
 31
0.0
  0
LINE
  5
58E2
330
A
100
AcDbEntity
  8
0
  6
Continuous
 62
     9
100
AcDbLine
 10
-78.99999999999989
 20
-7.499999999999992
 30
0.0
 11
-79.49999999999989
 21
-7.499999999999992
 31
0.0
  0
LINE
  5
58E3
330
A
100
AcDbEntity
  8
0
  6
Continuous
 62
     7
100
AcDbLine
 10
-78.99999999999989
 20
-13.5
 30
0.0
 11
-78.99999999999989
 21
-7.499999999999992
 31
0.0
  0
LINE
  5
58E4
330
A
100
AcDbEntity
  8
0
  6
Continuous
 62
     7
100
AcDbLine
 10
-78.99999999999989
 20
-13.5
 30
0.0
 11
-79.49999999999989
 21
-13.5
 31
0.0
  0
LINE
  5
58E5
330
A
100
AcDbEntity
  8
0
  6
Continuous
 62
     9
100
AcDbLine
 10
-69.99999999999989
 20
77.5
 30
0.0
 11
-68.99999999999989
 21
77.5
 31
0.0
  0
LINE
  5
58E6
330
A
100
AcDbEntity
  8
0
  6
Continuous
 62
     9
100
AcDbLine
 10
-68.99999999999989
 20
77.5
 30
0.0
 11
-68.49999999999989
 21
77.5
 31
0.0
  0
LINE
  5
58E7
330
A
100
AcDbEntity
  8
0
  6
Continuous
 62
     7
100
AcDbLine
 10
-69.99999999999989
 20
83.49999999999979
 30
0.0
 11
-69.99999999999989
 21
77.5
 31
0.0
  0
LINE
  5
58E8
330
A
100
AcDbEntity
  8
0
  6
Continuous
 62
     7
100
AcDbLine
 10
-69.99999999999989
 20
83.49999999999979
 30
0.0
 11
-68.99999999999989
 21
83.49999999999979
 31
0.0
  0
LINE
  5
58E9
330
A
100
AcDbEntity
  8
0
  6
Continuous
 62
     7
100
AcDbLine
 10
-68.99999999999989
 20
83.49999999999979
 30
0.0
 11
-68.49999999999989
 21
83.49999999999979
 31
0.0
  0
LINE
  5
58EA
330
A
100
AcDbEntity
  8
0
  6
Continuous
 62
     9
100
AcDbLine
 10
-69.99999999999989
 20
-7.499999999999992
 30
0.0
 11
-68.99999999999989
 21
-7.499999999999992
 31
0.0
  0
LINE
  5
58EB
330
A
100
AcDbEntity
  8
0
  6
Continuous
 62
     9
100
AcDbLine
 10
-68.99999999999989
 20
-7.499999999999992
 30
0.0
 11
-68.49999999999989
 21
-7.499999999999992
 31
0.0
  0
LINE
  5
58EC
330
A
100
AcDbEntity
  8
0
  6
Continuous
 62
     7
100
AcDbLine
 10
-69.99999999999989
 20
77.5
 30
0.0
 11
-69.99999999999989
 21
-7.499999999999992
 31
0.0
  0
LINE
  5
58ED
330
A
100
AcDbEntity
  8
0
  6
Continuous
 62
     7
100
AcDbLine
 10
-69.99999999999989
 20
-13.5
 30
0.0
 11
-68.99999999999989
 21
-13.5
 31
0.0
  0
LINE
  5
58EE
330
A
100
AcDbEntity
  8
0
  6
Continuous
 62
     7
100
AcDbLine
 10
-68.99999999999989
 20
-13.5
 30
0.0
 11
-68.49999999999989
 21
-13.5
 31
0.0
  0
LINE
  5
58EF
330
A
100
AcDbEntity
  8
0
  6
Continuous
 62
     7
100
AcDbLine
 10
-69.99999999999989
 20
-7.499999999999992
 30
0.0
 11
-69.99999999999989
 21
-13.5
 31
0.0
  0
LINE
  5
58F0
330
A
100
AcDbEntity
  8
0
  6
Continuous
 62
     7
100
AcDbLine
 10
-77.99999999999989
 20
83.49999999999979
 30
0.0
 11
-78.99999999999989
 21
83.49999999999979
 31
0.0
  0
LINE
  5
58F1
330
A
100
AcDbEntity
  8
0
  6
Continuous
 62
     7
100
AcDbLine
 10
-78.99999999999989
 20
83.49999999999979
 30
0.0
 11
-79.49999999999989
 21
83.49999999999979
 31
0.0
  0
LINE
  5
58F2
330
A
100
AcDbEntity
  8
0
  6
Continuous
 62
     7
100
AcDbLine
 10
-77.99999999999989
 20
77.5
 30
0.0
 11
-77.99999999999989
 21
83.49999999999979
 31
0.0
  0
LINE
  5
58F3
330
A
100
AcDbEntity
  8
0
  6
Continuous
 62
     9
100
AcDbLine
 10
-77.99999999999989
 20
77.5
 30
0.0
 11
-78.99999999999989
 21
77.5
 31
0.0
  0
LINE
  5
58F4
330
A
100
AcDbEntity
  8
0
  6
Continuous
 62
     9
100
AcDbLine
 10
-78.99999999999989
 20
77.5
 30
0.0
 11
-79.49999999999989
 21
77.5
 31
0.0
  0
LINE
  5
58F5
330
A
100
AcDbEntity
  8
0
  6
Continuous
 62
     7
100
AcDbLine
 10
-77.99999999999989
 20
-7.499999999999992
 30
0.0
 11
-77.99999999999989
 21
77.5
 31
0.0
  0
LINE
  5
58F6
330
A
100
AcDbEntity
  8
0
  6
Continuous
 62
     9
100
AcDbLine
 10
-77.99999999999989
 20
-7.499999999999992
 30
0.0
 11
-78.99999999999989
 21
-7.499999999999992
 31
0.0
  0
LINE
  5
58F7
330
A
100
AcDbEntity
  8
0
  6
Continuous
 62
     9
100
AcDbLine
 10
-78.99999999999989
 20
-7.499999999999992
 30
0.0
 11
-79.49999999999989
 21
-7.499999999999992
 31
0.0
  0
LINE
  5
58F8
330
A
100
AcDbEntity
  8
0
  6
Continuous
 62
     7
100
AcDbLine
 10
-77.99999999999989
 20
-13.5
 30
0.0
 11
-77.99999999999989
 21
-7.499999999999992
 31
0.0
  0
LINE
  5
58F9
330
A
100
AcDbEntity
  8
0
  6
Continuous
 62
     7
100
AcDbLine
 10
-77.99999999999989
 20
-13.5
 30
0.0
 11
-78.99999999999989
 21
-13.5
 31
0.0
  0
LINE
  5
58FA
330
A
100
AcDbEntity
  8
0
  6
Continuous
 62
     7
100
AcDbLine
 10
-78.99999999999989
 20
-13.5
 30
0.0
 11
-79.49999999999989
 21
-13.5
 31
0.0
  0
LINE
  5
58FB
330
A
100
AcDbEntity
  8
0
  6
Continuous
 62
     7
100
AcDbLine
 10
-77.99999999999989
 20
-5.999999999999992
 30
0.0
 11
-69.99999999999989
 21
-5.999999999999992
 31
0.0
  0
LINE
  5
58FC
330
A
100
AcDbEntity
  8
0
  6
Continuous
 62
     9
100
AcDbLine
 10
-77.99999999999989
 20
1.000000000000007
 30
0.0
 11
-69.99999999999989
 21
1.000000000000007
 31
0.0
  0
LINE
  5
58FD
330
A
100
AcDbEntity
  8
0
  6
Continuous
 62
     9
100
AcDbLine
 10
-77.99999999999989
 20
69.0
 30
0.0
 11
-69.99999999999989
 21
69.0
 31
0.0
  0
LINE
  5
58FE
330
A
100
AcDbEntity
  8
0
  6
Continuous
 62
     7
100
AcDbLine
 10
-77.99999999999989
 20
76.0
 30
0.0
 11
-69.99999999999989
 21
76.0
 31
0.0
  0
LINE
  5
58FF
330
A
100
AcDbEntity
  8
0
  6
Continuous
 62
     7
100
AcDbLine
 10
-61.44999999999971
 20
9.979828999999773
 30
0.0
 11
-61.44999999999971
 21
0.0201710000000084
 31
0.0
  0
LINE
  5
5900
330
A
100
AcDbEntity
  8
0
  6
Continuous
 62
     7
100
AcDbLine
 10
-61.44999999999971
 20
69.97982900000001
 30
0.0
 11
-61.44999999999971
 21
60.020171
 31
0.0
  0
LINE
  5
5901
330
A
100
AcDbEntity
  8
0
  6
Continuous
 62
     7
100
AcDbLine
 10
-68.49999999999989
 20
85.0
 30
0.0
 11
-65.49999999999989
 21
85.0
 31
0.0
  0
LINE
  5
5902
330
A
100
AcDbEntity
  8
0
  6
Continuous
 62
     9
100
AcDbLine
 10
-65.49999999999989
 20
77.5
 30
0.0
 11
-65.49999999999989
 21
85.0
 31
0.0
  0
LINE
  5
5903
330
A
100
AcDbEntity
  8
0
  6
Continuous
 62
     9
100
AcDbLine
 10
-65.49999999999989
 20
77.5
 30
0.0
 11
-68.49999999999989
 21
77.5
 31
0.0
  0
LINE
  5
5904
330
A
100
AcDbEntity
  8
0
  6
Continuous
 62
     7
100
AcDbLine
 10
-68.49999999999989
 20
77.5
 30
0.0
 11
-68.49999999999989
 21
85.0
 31
0.0
  0
LINE
  5
5905
330
A
100
AcDbEntity
  8
0
  6
Continuous
 62
     9
100
AcDbLine
 10
-65.49999999999989
 20
-7.499999999999992
 30
0.0
 11
-65.49999999999989
 21
77.5
 31
0.0
  0
LINE
  5
5906
330
A
100
AcDbEntity
  8
0
  6
Continuous
 62
     9
100
AcDbLine
 10
-68.49999999999989
 20
-7.499999999999992
 30
0.0
 11
-65.49999999999989
 21
-7.499999999999992
 31
0.0
  0
LINE
  5
5907
330
A
100
AcDbEntity
  8
0
  6
Continuous
 62
     7
100
AcDbLine
 10
-68.49999999999989
 20
77.5
 30
0.0
 11
-68.49999999999989
 21
-7.499999999999992
 31
0.0
  0
LINE
  5
5908
330
A
100
AcDbEntity
  8
0
  6
Continuous
 62
     9
100
AcDbLine
 10
-65.49999999999989
 20
-15.0
 30
0.0
 11
-65.49999999999989
 21
-7.499999999999992
 31
0.0
  0
LINE
  5
5909
330
A
100
AcDbEntity
  8
0
  6
Continuous
 62
     7
100
AcDbLine
 10
-65.49999999999989
 20
-15.0
 30
0.0
 11
-68.49999999999989
 21
-15.0
 31
0.0
  0
LINE
  5
590A
330
A
100
AcDbEntity
  8
0
  6
Continuous
 62
     7
100
AcDbLine
 10
-68.49999999999989
 20
-15.0
 30
0.0
 11
-68.49999999999989
 21
-7.499999999999992
 31
0.0
  0
LINE
  5
590B
330
A
100
AcDbEntity
  8
0
  6
Continuous
 62
     7
100
AcDbLine
 10
-61.49999999999989
 20
81.0
 30
0.0
 11
-61.49999999999989
 21
77.5
 31
0.0
  0
LINE
  5
590C
330
A
100
AcDbEntity
  8
0
  6
Continuous
 62
     9
100
AcDbLine
 10
-61.49999999999989
 20
77.5
 30
0.0
 11
-65.49999999999989
 21
77.5
 31
0.0
  0
ARC
  5
590D
330
A
100
AcDbEntity
  8
0
  6
Continuous
 62
     7
100
AcDbCircle
 10
-65.49999999999989
 20
81.0
 30
0.0
 40
4.0
100
AcDbArc
 50
0.0
 51
90.0
  0
LINE
  5
590E
330
A
100
AcDbEntity
  8
0
  6
Continuous
 62
     7
100
AcDbLine
 10
-61.49999999999989
 20
77.5
 30
0.0
 11
-61.49999999999989
 21
-7.499999999999992
 31
0.0
  0
LINE
  5
590F
330
A
100
AcDbEntity
  8
0
  6
Continuous
 62
     9
100
AcDbLine
 10
-61.49999999999989
 20
-7.499999999999992
 30
0.0
 11
-65.49999999999989
 21
-7.499999999999992
 31
0.0
  0
LINE
  5
5910
330
A
100
AcDbEntity
  8
0
  6
Continuous
 62
     7
100
AcDbLine
 10
-61.49999999999989
 20
-7.499999999999992
 30
0.0
 11
-61.49999999999989
 21
-11.0
 31
0.0
  0
ARC
  5
5911
330
A
100
AcDbEntity
  8
0
  6
Continuous
 62
     7
100
AcDbCircle
 10
-65.49999999999989
 20
-11.0
 30
0.0
 40
4.0
100
AcDbArc
 50
270.0
 51
0.0
  0
LINE
  5
5912
330
A
100
AcDbEntity
  8
0
  6
Continuous
 62
     9
100
AcDbLine
 10
-82.49999999999989
 20
85.0
 30
0.0
 11
-82.49999999999989
 21
77.5
 31
0.0
  0
LINE
  5
5913
330
A
100
AcDbEntity
  8
0
  6
Continuous
 62
     9
100
AcDbLine
 10
-82.49999999999989
 20
77.5
 30
0.0
 11
-86.49999999999989
 21
77.5
 31
0.0
  0
LINE
  5
5914
330
A
100
AcDbEntity
  8
0
  6
Continuous
 62
     7
100
AcDbLine
 10
-86.49999999999989
 20
77.5
 30
0.0
 11
-86.49999999999989
 21
81.0
 31
0.0
  0
ARC
  5
5915
330
A
100
AcDbEntity
  8
0
  6
Continuous
 62
     7
100
AcDbCircle
 10
-82.49999999999989
 20
81.0
 30
0.0
 40
4.0
100
AcDbArc
 50
90.0
 51
180.0
  0
LINE
  5
5916
330
A
100
AcDbEntity
  8
0
  6
Continuous
 62
     9
100
AcDbLine
 10
-82.49999999999989
 20
77.5
 30
0.0
 11
-82.49999999999989
 21
-7.499999999999992
 31
0.0
  0
LINE
  5
5917
330
A
100
AcDbEntity
  8
0
  6
Continuous
 62
     9
100
AcDbLine
 10
-86.49999999999989
 20
-7.499999999999992
 30
0.0
 11
-82.49999999999989
 21
-7.499999999999992
 31
0.0
  0
LINE
  5
5918
330
A
100
AcDbEntity
  8
0
  6
Continuous
 62
     7
100
AcDbLine
 10
-86.49999999999989
 20
-7.499999999999992
 30
0.0
 11
-86.49999999999989
 21
77.5
 31
0.0
  0
LINE
  5
5919
330
A
100
AcDbEntity
  8
0
  6
Continuous
 62
     7
100
AcDbLine
 10
-86.49999999999989
 20
-11.0
 30
0.0
 11
-86.49999999999989
 21
-7.499999999999992
 31
0.0
  0
LINE
  5
591A
330
A
100
AcDbEntity
  8
0
  6
Continuous
 62
     9
100
AcDbLine
 10
-82.49999999999989
 20
-7.499999999999992
 30
0.0
 11
-82.49999999999989
 21
-15.0
 31
0.0
  0
ARC
  5
591B
330
A
100
AcDbEntity
  8
0
  6
Continuous
 62
     7
100
AcDbCircle
 10
-82.49999999999989
 20
-11.0
 30
0.0
 40
4.0
100
AcDbArc
 50
180.0
 51
270.0
  0
LINE
  5
591C
330
A
100
AcDbEntity
  8
0
  6
Continuous
 62
     7
100
AcDbLine
 10
-79.49999999999989
 20
85.0
 30
0.0
 11
-79.49999999999989
 21
77.5
 31
0.0
  0
LINE
  5
591D
330
A
100
AcDbEntity
  8
0
  6
Continuous
 62
     9
100
AcDbLine
 10
-79.49999999999989
 20
77.5
 30
0.0
 11
-82.49999999999989
 21
77.5
 31
0.0
  0
LINE
  5
591E
330
A
100
AcDbEntity
  8
0
  6
Continuous
 62
     7
100
AcDbLine
 10
-82.49999999999989
 20
85.0
 30
0.0
 11
-79.49999999999989
 21
85.0
 31
0.0
  0
LINE
  5
591F
330
A
100
AcDbEntity
  8
0
  6
Continuous
 62
     7
100
AcDbLine
 10
-79.49999999999989
 20
-7.499999999999992
 30
0.0
 11
-79.49999999999989
 21
77.5
 31
0.0
  0
LINE
  5
5920
330
A
100
AcDbEntity
  8
0
  6
Continuous
 62
     9
100
AcDbLine
 10
-82.49999999999989
 20
-7.499999999999992
 30
0.0
 11
-79.49999999999989
 21
-7.499999999999992
 31
0.0
  0
LINE
  5
5921
330
A
100
AcDbEntity
  8
0
  6
Continuous
 62
     7
100
AcDbLine
 10
-79.49999999999989
 20
-7.499999999999992
 30
0.0
 11
-79.49999999999989
 21
-15.0
 31
0.0
  0
LINE
  5
5922
330
A
100
AcDbEntity
  8
0
  6
Continuous
 62
     7
100
AcDbLine
 10
-79.49999999999989
 20
-15.0
 30
0.0
 11
-82.49999999999989
 21
-15.0
 31
0.0
  0
LINE
  5
5923
330
A
100
AcDbEntity
  8
0
  6
Continuous
 62
     9
100
AcDbLine
 10
-91.694797
 20
41.0
 30
0.0
 11
-91.694797
 21
29.00000000000001
 31
0.0
  0
LINE
  5
5924
330
A
100
AcDbEntity
  8
0
  6
Continuous
 62
     7
100
AcDbLine
 10
-91.694797
 20
41.0
 30
0.0
 11
-86.49999999999989
 21
41.0
 31
0.0
  0
LINE
  5
5925
330
A
100
AcDbEntity
  8
0
  6
Continuous
 62
     7
100
AcDbLine
 10
-91.694797
 20
29.00000000000001
 30
0.0
 11
-86.49999999999989
 21
29.00000000000001
 31
0.0
  0
LINE
  5
5926
330
A
100
AcDbEntity
  8
0
  6
Continuous
 62
     9
100
AcDbLine
 10
-56.30520299999979
 20
29.00000000000001
 30
0.0
 11
-56.30520299999979
 21
41.0
 31
0.0
  0
LINE
  5
5927
330
A
100
AcDbEntity
  8
0
  6
Continuous
 62
     7
100
AcDbLine
 10
-61.49999999999989
 20
41.0
 30
0.0
 11
-56.30520299999979
 21
41.0
 31
0.0
  0
LINE
  5
5928
330
A
100
AcDbEntity
  8
0
  6
Continuous
 62
     7
100
AcDbLine
 10
-61.49999999999989
 20
29.00000000000001
 30
0.0
 11
-56.30520299999979
 21
29.00000000000001
 31
0.0
  0
LINE
  5
5929
330
A
100
AcDbEntity
  8
0
  6
Continuous
 62
     7
100
AcDbLine
 10
-91.70281000000011
 20
41.0
 30
0.0
 11
-91.694797
 21
41.0
 31
0.0
  0
LINE
  5
592A
330
A
100
AcDbEntity
  8
0
  6
Continuous
 62
     7
100
AcDbLine
 10
-91.694797
 20
29.00000000000001
 30
0.0
 11
-91.70281000000011
 21
29.00000000000001
 31
0.0
  0
LINE
  5
592B
330
A
100
AcDbEntity
  8
0
  6
Continuous
 62
     7
100
AcDbLine
 10
-56.29718999999965
 20
29.00000000000001
 30
0.0
 11
-56.30520299999979
 21
29.00000000000001
 31
0.0
  0
LINE
  5
592C
330
A
100
AcDbEntity
  8
0
  6
Continuous
 62
     7
100
AcDbLine
 10
-56.30520299999979
 20
41.0
 30
0.0
 11
-56.29718999999965
 21
41.0
 31
0.0
  0
LINE
  5
592D
330
A
100
AcDbEntity
  8
0
  6
Continuous
 62
     7
100
AcDbLine
 10
-77.99999999999989
 20
83.49999999999979
 30
0.0
 11
-77.99999999999989
 21
78.0
 31
0.0
  0
LINE
  5
592E
330
A
100
AcDbEntity
  8
0
  6
Continuous
 62
     7
100
AcDbLine
 10
-77.99999999999989
 20
78.0
 30
0.0
 11
-77.99999999999989
 21
77.5
 31
0.0
  0
LINE
  5
592F
330
A
100
AcDbEntity
  8
0
  6
Continuous
 62
     7
100
AcDbLine
 10
-77.99999999999989
 20
-7.499999999999992
 30
0.0
 11
-77.99999999999989
 21
-7.999999999999992
 31
0.0
  0
LINE
  5
5930
330
A
100
AcDbEntity
  8
0
  6
Continuous
 62
     7
100
AcDbLine
 10
-77.99999999999989
 20
-7.999999999999992
 30
0.0
 11
-77.99999999999989
 21
-13.5
 31
0.0
  0
LINE
  5
5931
330
A
100
AcDbEntity
  8
0
  6
Continuous
 62
     7
100
AcDbLine
 10
-69.99999999999989
 20
78.0
 30
0.0
 11
-69.99999999999989
 21
83.49999999999979
 31
0.0
  0
LINE
  5
5932
330
A
100
AcDbEntity
  8
0
  6
Continuous
 62
     7
100
AcDbLine
 10
-69.99999999999989
 20
77.5
 30
0.0
 11
-69.99999999999989
 21
78.0
 31
0.0
  0
LINE
  5
5933
330
A
100
AcDbEntity
  8
0
  6
Continuous
 62
     7
100
AcDbLine
 10
-69.99999999999989
 20
-7.999999999999992
 30
0.0
 11
-69.99999999999989
 21
-7.499999999999992
 31
0.0
  0
LINE
  5
5934
330
A
100
AcDbEntity
  8
0
  6
Continuous
 62
     7
100
AcDbLine
 10
-69.99999999999989
 20
-13.5
 30
0.0
 11
-69.99999999999989
 21
-7.999999999999992
 31
0.0
  0
LINE
  5
5935
330
A
100
AcDbEntity
  8
0
  6
Continuous
 62
     7
100
AcDbLine
 10
-86.49999999999989
 20
77.5
 30
0.0
 11
-86.49999999999989
 21
81.0
 31
0.0
  0
LINE
  5
5936
330
A
100
AcDbEntity
  8
0
  6
Continuous
 62
     7
100
AcDbLine
 10
-86.49999999999989
 20
-11.0
 30
0.0
 11
-86.49999999999989
 21
-7.499999999999992
 31
0.0
  0
LINE
  5
5937
330
A
100
AcDbEntity
  8
0
  6
Continuous
 62
     7
100
AcDbLine
 10
-79.49999999999989
 20
85.0
 30
0.0
 11
-79.49999999999989
 21
83.49999999999979
 31
0.0
  0
LINE
  5
5938
330
A
100
AcDbEntity
  8
0
  6
Continuous
 62
     7
100
AcDbLine
 10
-79.49999999999989
 20
-13.5
 30
0.0
 11
-79.49999999999989
 21
-15.0
 31
0.0
  0
ARC
  5
5939
330
A
100
AcDbEntity
  8
0
  6
Continuous
 62
     7
100
AcDbCircle
 10
-61.94999999999971
 20
9.979828999999773
 30
0.0
 40
0.5
100
AcDbArc
 50
0.0
 51
25.84192800000222
  0
ARC
  5
593A
330
A
100
AcDbEntity
  8
0
  6
Continuous
 62
     7
100
AcDbCircle
 10
-61.94999999999971
 20
0.0201710000000084
 30
0.0
 40
0.5
100
AcDbArc
 50
334.1580710000022
 51
0.0
  0
ARC
  5
593B
330
A
100
AcDbEntity
  8
0
  6
Continuous
 62
     7
100
AcDbCircle
 10
-61.94999999999971
 20
69.97982900000001
 30
0.0
 40
0.5
100
AcDbArc
 50
0.0
 51
25.84192800000222
  0
ARC
  5
593C
330
A
100
AcDbEntity
  8
0
  6
Continuous
 62
     7
100
AcDbCircle
 10
-61.94999999999971
 20
60.020171
 30
0.0
 40
0.5
100
AcDbArc
 50
334.1580710000022
 51
0.0
  0
LINE
  5
593D
330
A
100
AcDbEntity
  8
0
  6
Continuous
 62
     7
100
AcDbLine
 10
-91.70281000000011
 20
41.0
 30
0.0
 11
-91.70281000000011
 21
29.00000000000001
 31
0.0
  0
LINE
  5
593E
330
A
100
AcDbEntity
  8
0
  6
Continuous
 62
     7
100
AcDbLine
 10
-56.29718999999965
 20
29.00000000000001
 30
0.0
 11
-56.29718999999965
 21
41.0
 31
0.0
  0
LINE
  5
593F
330
A
100
AcDbEntity
  8
0
  6
Continuous
 62
     9
100
AcDbLine
 10
121.5
 20
135.0
 30
0.0
 11
121.5
 21
134.5
 31
0.0
  0
LINE
  5
5940
330
A
100
AcDbEntity
  8
0
  6
Continuous
 62
     7
100
AcDbLine
 10
127.5
 20
135.0
 30
0.0
 11
127.5
 21
134.5
 31
0.0
  0
LINE
  5
5941
330
A
100
AcDbEntity
  8
0
  6
Continuous
 62
     7
100
AcDbLine
 10
127.5
 20
135.0
 30
0.0
 11
121.5
 21
135.0
 31
0.0
  0
LINE
  5
5942
330
A
100
AcDbEntity
  8
0
  6
Continuous
 62
     9
100
AcDbLine
 10
67.00000000000006
 20
135.0
 30
0.0
 11
67.00000000000006
 21
134.5
 31
0.0
  0
LINE
  5
5943
330
A
100
AcDbEntity
  8
0
  6
Continuous
 62
     7
100
AcDbLine
 10
121.5
 20
135.0
 30
0.0
 11
67.00000000000006
 21
135.0
 31
0.0
  0
LINE
  5
5944
330
A
100
AcDbEntity
  8
0
  6
Continuous
 62
     7
100
AcDbLine
 10
61.50000000000005
 20
135.0
 30
0.0
 11
61.50000000000005
 21
134.5
 31
0.0
  0
LINE
  5
5945
330
A
100
AcDbEntity
  8
0
  6
Continuous
 62
     7
100
AcDbLine
 10
67.00000000000006
 20
135.0
 30
0.0
 11
61.50000000000005
 21
135.0
 31
0.0
  0
LINE
  5
5946
330
A
100
AcDbEntity
  8
0
  6
Continuous
 62
     7
100
AcDbLine
 10
127.5
 20
145.0
 30
0.0
 11
127.5
 21
145.4999999999996
 31
0.0
  0
LINE
  5
5947
330
A
100
AcDbEntity
  8
0
  6
Continuous
 62
     7
100
AcDbLine
 10
121.5
 20
145.0
 30
0.0
 11
127.5
 21
145.0
 31
0.0
  0
LINE
  5
5948
330
A
100
AcDbEntity
  8
0
  6
Continuous
 62
     9
100
AcDbLine
 10
121.5
 20
145.0
 30
0.0
 11
121.5
 21
145.4999999999996
 31
0.0
  0
LINE
  5
5949
330
A
100
AcDbEntity
  8
0
  6
Continuous
 62
     9
100
AcDbLine
 10
67.00000000000006
 20
145.0
 30
0.0
 11
67.00000000000006
 21
145.4999999999996
 31
0.0
  0
LINE
  5
594A
330
A
100
AcDbEntity
  8
0
  6
Continuous
 62
     7
100
AcDbLine
 10
67.00000000000006
 20
145.0
 30
0.0
 11
121.5
 21
145.0
 31
0.0
  0
LINE
  5
594B
330
A
100
AcDbEntity
  8
0
  6
Continuous
 62
     7
100
AcDbLine
 10
61.50000000000005
 20
145.0
 30
0.0
 11
61.50000000000005
 21
145.4999999999996
 31
0.0
  0
LINE
  5
594C
330
A
100
AcDbEntity
  8
0
  6
Continuous
 62
     7
100
AcDbLine
 10
61.50000000000005
 20
145.0
 30
0.0
 11
67.00000000000006
 21
145.0
 31
0.0
  0
LINE
  5
594D
330
A
100
AcDbEntity
  8
0
  6
Continuous
 62
     9
100
AcDbLine
 10
121.5
 20
136.0
 30
0.0
 11
121.5
 21
135.0
 31
0.0
  0
LINE
  5
594E
330
A
100
AcDbEntity
  8
0
  6
Continuous
 62
     9
100
AcDbLine
 10
121.5
 20
135.0
 30
0.0
 11
121.5
 21
134.5
 31
0.0
  0
LINE
  5
594F
330
A
100
AcDbEntity
  8
0
  6
Continuous
 62
     7
100
AcDbLine
 10
127.5
 20
136.0
 30
0.0
 11
121.5
 21
136.0
 31
0.0
  0
LINE
  5
5950
330
A
100
AcDbEntity
  8
0
  6
Continuous
 62
     7
100
AcDbLine
 10
127.5
 20
136.0
 30
0.0
 11
127.5
 21
135.0
 31
0.0
  0
LINE
  5
5951
330
A
100
AcDbEntity
  8
0
  6
Continuous
 62
     7
100
AcDbLine
 10
127.5
 20
135.0
 30
0.0
 11
127.5
 21
134.5
 31
0.0
  0
LINE
  5
5952
330
A
100
AcDbEntity
  8
0
  6
Continuous
 62
     9
100
AcDbLine
 10
67.00000000000006
 20
136.0
 30
0.0
 11
67.00000000000006
 21
135.0
 31
0.0
  0
LINE
  5
5953
330
A
100
AcDbEntity
  8
0
  6
Continuous
 62
     9
100
AcDbLine
 10
67.00000000000006
 20
135.0
 30
0.0
 11
67.00000000000006
 21
134.5
 31
0.0
  0
LINE
  5
5954
330
A
100
AcDbEntity
  8
0
  6
Continuous
 62
     7
100
AcDbLine
 10
121.5
 20
136.0
 30
0.0
 11
67.00000000000006
 21
136.0
 31
0.0
  0
LINE
  5
5955
330
A
100
AcDbEntity
  8
0
  6
Continuous
 62
     7
100
AcDbLine
 10
61.50000000000005
 20
136.0
 30
0.0
 11
61.50000000000005
 21
135.0
 31
0.0
  0
LINE
  5
5956
330
A
100
AcDbEntity
  8
0
  6
Continuous
 62
     7
100
AcDbLine
 10
61.50000000000005
 20
135.0
 30
0.0
 11
61.50000000000005
 21
134.5
 31
0.0
  0
LINE
  5
5957
330
A
100
AcDbEntity
  8
0
  6
Continuous
 62
     7
100
AcDbLine
 10
67.00000000000006
 20
136.0
 30
0.0
 11
61.50000000000005
 21
136.0
 31
0.0
  0
LINE
  5
5958
330
A
100
AcDbEntity
  8
0
  6
Continuous
 62
     7
100
AcDbLine
 10
127.5
 20
144.0
 30
0.0
 11
127.5
 21
145.0
 31
0.0
  0
LINE
  5
5959
330
A
100
AcDbEntity
  8
0
  6
Continuous
 62
     7
100
AcDbLine
 10
127.5
 20
145.0
 30
0.0
 11
127.5
 21
145.4999999999996
 31
0.0
  0
LINE
  5
595A
330
A
100
AcDbEntity
  8
0
  6
Continuous
 62
     9
100
AcDbLine
 10
121.5
 20
144.0
 30
0.0
 11
121.5
 21
145.0
 31
0.0
  0
LINE
  5
595B
330
A
100
AcDbEntity
  8
0
  6
Continuous
 62
     9
100
AcDbLine
 10
121.5
 20
145.0
 30
0.0
 11
121.5
 21
145.4999999999996
 31
0.0
  0
LINE
  5
595C
330
A
100
AcDbEntity
  8
0
  6
Continuous
 62
     7
100
AcDbLine
 10
121.5
 20
144.0
 30
0.0
 11
127.5
 21
144.0
 31
0.0
  0
LINE
  5
595D
330
A
100
AcDbEntity
  8
0
  6
Continuous
 62
     9
100
AcDbLine
 10
67.00000000000006
 20
144.0
 30
0.0
 11
67.00000000000006
 21
145.0
 31
0.0
  0
LINE
  5
595E
330
A
100
AcDbEntity
  8
0
  6
Continuous
 62
     9
100
AcDbLine
 10
67.00000000000006
 20
145.0
 30
0.0
 11
67.00000000000006
 21
145.4999999999996
 31
0.0
  0
LINE
  5
595F
330
A
100
AcDbEntity
  8
0
  6
Continuous
 62
     7
100
AcDbLine
 10
67.00000000000006
 20
144.0
 30
0.0
 11
121.5
 21
144.0
 31
0.0
  0
LINE
  5
5960
330
A
100
AcDbEntity
  8
0
  6
Continuous
 62
     7
100
AcDbLine
 10
61.50000000000005
 20
144.0
 30
0.0
 11
61.50000000000005
 21
145.0
 31
0.0
  0
LINE
  5
5961
330
A
100
AcDbEntity
  8
0
  6
Continuous
 62
     7
100
AcDbLine
 10
61.50000000000005
 20
145.0
 30
0.0
 11
61.50000000000005
 21
145.4999999999996
 31
0.0
  0
LINE
  5
5962
330
A
100
AcDbEntity
  8
0
  6
Continuous
 62
     7
100
AcDbLine
 10
61.50000000000005
 20
144.0
 30
0.0
 11
67.00000000000006
 21
144.0
 31
0.0
  0
LINE
  5
5963
330
A
100
AcDbEntity
  8
0
  6
Continuous
 62
     7
100
AcDbLine
 10
103.1999999999999
 20
144.0
 30
0.0
 11
103.1999999999999
 21
136.0
 31
0.0
  0
LINE
  5
5964
330
A
100
AcDbEntity
  8
0
  6
Continuous
 62
     9
100
AcDbLine
 10
110.1999999999999
 20
144.0
 30
0.0
 11
110.1999999999999
 21
136.0
 31
0.0
  0
LINE
  5
5965
330
A
100
AcDbEntity
  8
0
  6
Continuous
 62
     7
100
AcDbLine
 10
117.1999999999999
 20
144.0
 30
0.0
 11
117.1999999999999
 21
136.0
 31
0.0
  0
LINE
  5
5966
330
A
100
AcDbEntity
  8
0
  6
Continuous
 62
     7
100
AcDbLine
 10
103.9798289999999
 20
127.4500000000001
 30
0.0
 11
94.02017100000026
 21
127.4500000000001
 31
0.0
  0
LINE
  5
5967
330
A
100
AcDbEntity
  8
0
  6
Continuous
 62
     7
100
AcDbLine
 10
121.5
 20
134.5
 30
0.0
 11
129.0000000000001
 21
134.5
 31
0.0
  0
LINE
  5
5968
330
A
100
AcDbEntity
  8
0
  6
Continuous
 62
     7
100
AcDbLine
 10
129.0000000000001
 20
134.5
 30
0.0
 11
129.0000000000001
 21
131.5
 31
0.0
  0
LINE
  5
5969
330
A
100
AcDbEntity
  8
0
  6
Continuous
 62
     9
100
AcDbLine
 10
121.5
 20
131.5
 30
0.0
 11
129.0000000000001
 21
131.5
 31
0.0
  0
LINE
  5
596A
330
A
100
AcDbEntity
  8
0
  6
Continuous
 62
     9
100
AcDbLine
 10
121.5
 20
131.5
 30
0.0
 11
121.5
 21
134.5
 31
0.0
  0
LINE
  5
596B
330
A
100
AcDbEntity
  8
0
  6
Continuous
 62
     7
100
AcDbLine
 10
125.0
 20
127.5
 30
0.0
 11
121.5
 21
127.5
 31
0.0
  0
LINE
  5
596C
330
A
100
AcDbEntity
  8
0
  6
Continuous
 62
     9
100
AcDbLine
 10
121.5
 20
127.5
 30
0.0
 11
121.5
 21
131.5
 31
0.0
  0
ARC
  5
596D
330
A
100
AcDbEntity
  8
0
  6
Continuous
 62
     7
100
AcDbCircle
 10
125.0
 20
131.5
 30
0.0
 40
4.0
100
AcDbArc
 50
270.0
 51
0.0
  0
LINE
  5
596E
330
A
100
AcDbEntity
  8
0
  6
Continuous
 62
     9
100
AcDbLine
 10
66.50000000000006
 20
131.5
 30
0.0
 11
121.5
 21
131.5
 31
0.0
  0
LINE
  5
596F
330
A
100
AcDbEntity
  8
0
  6
Continuous
 62
     9
100
AcDbLine
 10
66.50000000000006
 20
134.5
 30
0.0
 11
66.50000000000006
 21
131.5
 31
0.0
  0
LINE
  5
5970
330
A
100
AcDbEntity
  8
0
  6
Continuous
 62
     7
100
AcDbLine
 10
121.5
 20
134.5
 30
0.0
 11
66.50000000000006
 21
134.5
 31
0.0
  0
LINE
  5
5971
330
A
100
AcDbEntity
  8
0
  6
Continuous
 62
     7
100
AcDbLine
 10
121.5
 20
127.5
 30
0.0
 11
66.50000000000006
 21
127.5
 31
0.0
  0
LINE
  5
5972
330
A
100
AcDbEntity
  8
0
  6
Continuous
 62
     9
100
AcDbLine
 10
66.50000000000006
 20
131.5
 30
0.0
 11
66.50000000000006
 21
127.5
 31
0.0
  0
LINE
  5
5973
330
A
100
AcDbEntity
  8
0
  6
Continuous
 62
     9
100
AcDbLine
 10
59.00000000000005
 20
131.5
 30
0.0
 11
66.50000000000006
 21
131.5
 31
0.0
  0
LINE
  5
5974
330
A
100
AcDbEntity
  8
0
  6
Continuous
 62
     7
100
AcDbLine
 10
59.00000000000005
 20
131.5
 30
0.0
 11
59.00000000000005
 21
134.5
 31
0.0
  0
LINE
  5
5975
330
A
100
AcDbEntity
  8
0
  6
Continuous
 62
     7
100
AcDbLine
 10
59.00000000000005
 20
134.5
 30
0.0
 11
66.50000000000006
 21
134.5
 31
0.0
  0
LINE
  5
5976
330
A
100
AcDbEntity
  8
0
  6
Continuous
 62
     7
100
AcDbLine
 10
66.50000000000006
 20
127.5
 30
0.0
 11
63.00000000000006
 21
127.5
 31
0.0
  0
ARC
  5
5977
330
A
100
AcDbEntity
  8
0
  6
Continuous
 62
     7
100
AcDbCircle
 10
63.00000000000006
 20
131.5
 30
0.0
 40
4.0
100
AcDbArc
 50
180.0
 51
270.0
  0
ARC
  5
5978
330
A
100
AcDbEntity
  8
0
  6
Continuous
 62
     7
100
AcDbCircle
 10
60.11999999999995
 20
131.5
 30
0.0
 40
4.0
100
AcDbArc
 50
218.7418839999969
 51
270.0
  0
ARC
  5
5979
330
A
100
AcDbEntity
  8
0
  6
Continuous
 62
     7
100
AcDbCircle
 10
64.10467500000013
 20
128.43447
 30
0.0
 40
7.130597999999999
100
AcDbArc
 50
154.538018999996
 51
174.9856609999982
  0
LINE
  5
597A
330
A
100
AcDbEntity
  8
0
  6
Continuous
 62
     7
100
AcDbLine
 10
57.00136700000086
 20
129.05772
 30
0.0
 11
57.00010699999996
 21
128.996748
 31
0.0
  0
LINE
  5
597B
330
A
100
AcDbEntity
  8
0
  6
Continuous
 62
     9
100
AcDbLine
 10
57.66666700000005
 20
131.5
 30
0.0
 11
59.00000000000005
 21
131.5
 31
0.0
  0
LINE
  5
597C
330
A
100
AcDbEntity
  8
0
  6
Continuous
 62
     7
100
AcDbLine
 10
63.00000000000006
 20
127.5
 30
0.0
 11
60.11999999999995
 21
127.5
 31
0.0
  0
LINE
  5
597D
330
A
100
AcDbEntity
  8
0
  6
Continuous
 62
     9
100
AcDbLine
 10
57.66666700000005
 20
134.5
 30
0.0
 11
57.66666700000005
 21
131.5
 31
0.0
  0
LINE
  5
597E
330
A
100
AcDbEntity
  8
0
  6
Continuous
 62
     7
100
AcDbLine
 10
59.00000000000005
 20
134.5
 30
0.0
 11
57.66666700000005
 21
134.5
 31
0.0
  0
LINE
  5
597F
330
A
100
AcDbEntity
  8
0
  6
Continuous
 62
     7
100
AcDbLine
 10
57.00010699999996
 20
128.996748
 30
0.0
 11
57.00000000000006
 21
128.996882
 31
0.0
  0
LINE
  5
5980
330
A
100
AcDbEntity
  8
0
  6
Continuous
 62
     7
100
AcDbLine
 10
57.00000000000006
 20
129.0
 30
0.0
 11
57.00000000000006
 21
128.996882
 31
0.0
  0
LINE
  5
5981
330
A
100
AcDbEntity
  8
0
  6
Continuous
 62
     7
100
AcDbLine
 10
57.66666700000005
 20
134.5
 30
0.0
 11
57.00000000000006
 21
134.5
 31
0.0
  0
LINE
  5
5982
330
A
100
AcDbEntity
  8
0
  6
Continuous
 62
     7
100
AcDbLine
 10
121.5
 20
152.5
 30
0.0
 11
125.0
 21
152.5
 31
0.0
  0
ARC
  5
5983
330
A
100
AcDbEntity
  8
0
  6
Continuous
 62
     7
100
AcDbCircle
 10
125.0
 20
148.5
 30
0.0
 40
4.0
100
AcDbArc
 50
0.0
 51
90.0
  0
LINE
  5
5984
330
A
100
AcDbEntity
  8
0
  6
Continuous
 62
     9
100
AcDbLine
 10
129.0000000000001
 20
148.5
 30
0.0
 11
121.5
 21
148.5
 31
0.0
  0
LINE
  5
5985
330
A
100
AcDbEntity
  8
0
  6
Continuous
 62
     9
100
AcDbLine
 10
121.5
 20
152.5
 30
0.0
 11
121.5
 21
148.5
 31
0.0
  0
LINE
  5
5986
330
A
100
AcDbEntity
  8
0
  6
Continuous
 62
     7
100
AcDbLine
 10
129.0000000000001
 20
145.4999999999996
 30
0.0
 11
121.5
 21
145.4999999999996
 31
0.0
  0
LINE
  5
5987
330
A
100
AcDbEntity
  8
0
  6
Continuous
 62
     9
100
AcDbLine
 10
121.5
 20
145.4999999999996
 30
0.0
 11
121.5
 21
148.5
 31
0.0
  0
LINE
  5
5988
330
A
100
AcDbEntity
  8
0
  6
Continuous
 62
     7
100
AcDbLine
 10
129.0000000000001
 20
148.5
 30
0.0
 11
129.0000000000001
 21
145.4999999999996
 31
0.0
  0
LINE
  5
5989
330
A
100
AcDbEntity
  8
0
  6
Continuous
 62
     7
100
AcDbLine
 10
66.50000000000006
 20
152.5
 30
0.0
 11
121.5
 21
152.5
 31
0.0
  0
LINE
  5
598A
330
A
100
AcDbEntity
  8
0
  6
Continuous
 62
     9
100
AcDbLine
 10
121.5
 20
148.5
 30
0.0
 11
66.50000000000006
 21
148.5
 31
0.0
  0
LINE
  5
598B
330
A
100
AcDbEntity
  8
0
  6
Continuous
 62
     9
100
AcDbLine
 10
66.50000000000006
 20
152.5
 30
0.0
 11
66.50000000000006
 21
148.5
 31
0.0
  0
LINE
  5
598C
330
A
100
AcDbEntity
  8
0
  6
Continuous
 62
     9
100
AcDbLine
 10
66.50000000000006
 20
148.5
 30
0.0
 11
66.50000000000006
 21
145.4999999999996
 31
0.0
  0
LINE
  5
598D
330
A
100
AcDbEntity
  8
0
  6
Continuous
 62
     7
100
AcDbLine
 10
121.5
 20
145.4999999999996
 30
0.0
 11
66.50000000000006
 21
145.4999999999996
 31
0.0
  0
LINE
  5
598E
330
A
100
AcDbEntity
  8
0
  6
Continuous
 62
     7
100
AcDbLine
 10
63.00000000000006
 20
152.5
 30
0.0
 11
66.50000000000006
 21
152.5
 31
0.0
  0
LINE
  5
598F
330
A
100
AcDbEntity
  8
0
  6
Continuous
 62
     9
100
AcDbLine
 10
66.50000000000006
 20
148.5
 30
0.0
 11
59.00000000000005
 21
148.5
 31
0.0
  0
ARC
  5
5990
330
A
100
AcDbEntity
  8
0
  6
Continuous
 62
     7
100
AcDbCircle
 10
63.00000000000006
 20
148.5
 30
0.0
 40
4.0
100
AcDbArc
 50
90.0
 51
180.0
  0
LINE
  5
5991
330
A
100
AcDbEntity
  8
0
  6
Continuous
 62
     7
100
AcDbLine
 10
59.00000000000005
 20
145.4999999999996
 30
0.0
 11
59.00000000000005
 21
148.5
 31
0.0
  0
LINE
  5
5992
330
A
100
AcDbEntity
  8
0
  6
Continuous
 62
     7
100
AcDbLine
 10
66.50000000000006
 20
145.4999999999996
 30
0.0
 11
59.00000000000005
 21
145.4999999999996
 31
0.0
  0
LINE
  5
5993
330
A
100
AcDbEntity
  8
0
  6
Continuous
 62
     7
100
AcDbLine
 10
61.50000000000005
 20
135.0
 30
0.0
 11
59.00000000000005
 21
135.0
 31
0.0
  0
LINE
  5
5994
330
A
100
AcDbEntity
  8
0
  6
Continuous
 62
     7
100
AcDbLine
 10
103.1
 20
136.0
 30
0.0
 11
103.1
 21
144.0
 31
0.0
  0
LINE
  5
5995
330
A
100
AcDbEntity
  8
0
  6
Continuous
 62
     7
100
AcDbLine
 10
59.00000000000005
 20
145.4999999999996
 30
0.0
 11
59.00000000000005
 21
135.0
 31
0.0
  0
LINE
  5
5996
330
A
100
AcDbEntity
  8
0
  6
Continuous
 62
     9
100
AcDbLine
 10
59.00000000000005
 20
148.5
 30
0.0
 11
57.66666700000005
 21
148.5
 31
0.0
  0
LINE
  5
5997
330
A
100
AcDbEntity
  8
0
  6
Continuous
 62
     9
100
AcDbLine
 10
57.66666700000005
 20
148.5
 30
0.0
 11
57.66666700000005
 21
146.5
 31
0.0
  0
LINE
  5
5998
330
A
100
AcDbEntity
  8
0
  6
Continuous
 62
     7
100
AcDbLine
 10
57.66666700000005
 20
146.5
 30
0.0
 11
59.00000000000005
 21
146.5
 31
0.0
  0
LINE
  5
5999
330
A
100
AcDbEntity
  8
0
  6
Continuous
 62
     7
100
AcDbLine
 10
57.00010699999996
 20
151.0032519999998
 30
0.0
 11
57.00160800000015
 21
150.935024
 31
0.0
  0
ARC
  5
599A
330
A
100
AcDbEntity
  8
0
  6
Continuous
 62
     7
100
AcDbCircle
 10
64.44092800000004
 20
151.658534
 30
0.0
 40
7.474419999999997
100
AcDbArc
 50
185.5548250000003
 51
204.9975299999959
  0
ARC
  5
599B
330
A
100
AcDbEntity
  8
0
  6
Continuous
 62
     7
100
AcDbCircle
 10
60.11999999999995
 20
148.5
 30
0.0
 40
4.0
100
AcDbArc
 50
90.0
 51
141.258116000003
  0
LINE
  5
599C
330
A
100
AcDbEntity
  8
0
  6
Continuous
 62
     7
100
AcDbLine
 10
63.00000000000006
 20
152.5
 30
0.0
 11
60.11999999999995
 21
152.5
 31
0.0
  0
LINE
  5
599D
330
A
100
AcDbEntity
  8
0
  6
Continuous
 62
     7
100
AcDbLine
 10
57.00000000000006
 20
151.0031179999999
 30
0.0
 11
57.00010699999996
 21
151.0032519999998
 31
0.0
  0
LINE
  5
599E
330
A
100
AcDbEntity
  8
0
  6
Continuous
 62
     7
100
AcDbLine
 10
57.00000000000006
 20
151.0031179999999
 30
0.0
 11
57.00000000000006
 21
151.0
 31
0.0
  0
LINE
  5
599F
330
A
100
AcDbEntity
  8
0
  6
Continuous
 62
     7
100
AcDbLine
 10
57.66666700000005
 20
146.5
 30
0.0
 11
57.00000000000006
 21
146.5
 31
0.0
  0
ARC
  5
59A0
330
A
100
AcDbEntity
  8
0
  6
Continuous
 62
     7
100
AcDbCircle
 10
42.00564499999987
 20
128.7791620000001
 30
0.0
 40
6.5
100
AcDbArc
 50
275.1304229999879
 51
348.6504459999932
  0
ARC
  5
59A1
330
A
100
AcDbEntity
  8
0
  6
Continuous
 62
     7
100
AcDbCircle
 10
42.40804899999978
 20
124.29719
 30
0.0
 40
2.0
100
AcDbArc
 50
251.9364989999867
 51
275.1304229999879
  0
ARC
  5
59A2
330
A
100
AcDbEntity
  8
0
  6
Continuous
 62
     7
100
AcDbCircle
 10
40.00500000000013
 20
116.9291609999997
 30
0.0
 40
5.75
100
AcDbArc
 50
71.9364989999867
 51
105.7228070000068
  0
ARC
  5
59A3
330
A
100
AcDbEntity
  8
0
  6
Continuous
 62
     7
100
AcDbCircle
 10
37.90487700000006
 20
124.3891869999999
 30
0.0
 40
2.0
100
AcDbArc
 50
250.111259999999
 51
285.7228070000068
  0
ARC
  5
59A4
330
A
100
AcDbEntity
  8
0
  6
Continuous
 62
     7
100
AcDbCircle
 10
43.00779800000015
 20
138.494512
 30
0.0
 40
17.0
100
AcDbArc
 50
220.2959599999954
 51
250.111259999999
  0
ARC
  5
59A5
330
A
100
AcDbEntity
  8
0
  6
Continuous
 62
     7
100
AcDbCircle
 10
43.00779800000015
 20
141.505488
 30
0.0
 40
17.0
100
AcDbArc
 50
109.8887400000009
 51
139.7040400000046
  0
ARC
  5
59A6
330
A
100
AcDbEntity
  8
0
  6
Continuous
 62
     7
100
AcDbCircle
 10
37.90487700000006
 20
155.6108129999999
 30
0.0
 40
2.0
100
AcDbArc
 50
74.27719299999319
 51
109.8887400000009
  0
ARC
  5
59A7
330
A
100
AcDbEntity
  8
0
  6
Continuous
 62
     7
100
AcDbCircle
 10
40.00500000000013
 20
163.0708389999999
 30
0.0
 40
5.75
100
AcDbArc
 50
254.2771929999932
 51
288.0635010000133
  0
ARC
  5
59A8
330
A
100
AcDbEntity
  8
0
  6
Continuous
 62
     7
100
AcDbCircle
 10
42.40804899999978
 20
155.7028099999999
 30
0.0
 40
2.0
100
AcDbArc
 50
84.86957700001211
 51
108.0635010000133
  0
ARC
  5
59A9
330
A
100
AcDbEntity
  8
0
  6
Continuous
 62
     7
100
AcDbCircle
 10
42.00564499999987
 20
151.2208379999997
 30
0.0
 40
6.5
100
AcDbArc
 50
11.34955400000682
 51
84.86957700001211
  0
LINE
  5
59AA
330
A
100
AcDbEntity
  8
0
  6
Continuous
 62
     7
100
AcDbLine
 10
57.00000000000006
 20
150.0
 30
0.0
 11
57.00000000000006
 21
151.0
 31
0.0
  0
LINE
  5
59AB
330
A
100
AcDbEntity
  8
0
  6
Continuous
 62
     7
100
AcDbLine
 10
57.00000000000006
 20
146.5
 30
0.0
 11
57.00000000000006
 21
150.0
 31
0.0
  0
LINE
  5
59AC
330
A
100
AcDbEntity
  8
0
  6
Continuous
 62
     7
100
AcDbLine
 10
57.00000000000006
 20
130.0
 30
0.0
 11
57.00000000000006
 21
139.5
 31
0.0
  0
LINE
  5
59AD
330
A
100
AcDbEntity
  8
0
  6
Continuous
 62
     7
100
AcDbLine
 10
52.12249900000014
 20
129.0
 30
0.0
 11
57.00000000000006
 21
129.0
 31
0.0
  0
LINE
  5
59AE
330
A
100
AcDbEntity
  8
0
  6
Continuous
 62
     7
100
AcDbLine
 10
57.00000000000006
 20
151.0
 30
0.0
 11
52.12249900000014
 21
151.0
 31
0.0
  0
LINE
  5
59AF
330
A
100
AcDbEntity
  8
0
  6
Continuous
 62
     7
100
AcDbLine
 10
57.00000000000006
 20
146.5
 30
0.0
 11
57.00012300000077
 21
146.5
 31
0.0
  0
LINE
  5
59B0
330
A
100
AcDbEntity
  8
0
  6
Continuous
 62
     7
100
AcDbLine
 10
57.00012300000077
 20
146.5
 30
0.0
 11
57.66666700000005
 21
146.5
 31
0.0
  0
LINE
  5
59B1
330
A
100
AcDbEntity
  8
0
  6
Continuous
 62
     7
100
AcDbLine
 10
59.00000000000005
 20
139.5
 30
0.0
 11
57.00000000000006
 21
139.5
 31
0.0
  0
LINE
  5
59B2
330
A
100
AcDbEntity
  8
0
  6
Continuous
 62
     7
100
AcDbLine
 10
17.97982899999995
 20
127.4500000000001
 30
0.0
 11
11.84226700000005
 21
127.4500000000001
 31
0.0
  0
LINE
  5
59B3
330
A
100
AcDbEntity
  8
0
  6
Continuous
 62
     7
100
AcDbLine
 10
11.84226700000005
 20
127.4500000000001
 30
0.0
 11
8.020171000000161
 21
127.4500000000001
 31
0.0
  0
LINE
  5
59B4
330
A
100
AcDbEntity
  8
0
  6
Continuous
 62
     7
100
AcDbLine
 10
50.50000000000006
 20
145.4999999999996
 30
0.0
 11
50.50000000000006
 21
145.0
 31
0.0
  0
LINE
  5
59B5
330
A
100
AcDbEntity
  8
0
  6
Continuous
 62
     7
100
AcDbLine
 10
50.50000000000006
 20
145.0
 30
0.0
 11
50.50000000000006
 21
144.0
 31
0.0
  0
LINE
  5
59B6
330
A
100
AcDbEntity
  8
0
  6
Continuous
 62
     7
100
AcDbLine
 10
50.50000000000006
 20
144.0
 30
0.0
 11
45.00000000000006
 21
144.0
 31
0.0
  0
LINE
  5
59B7
330
A
100
AcDbEntity
  8
0
  6
Continuous
 62
     9
100
AcDbLine
 10
45.00000000000006
 20
145.4999999999996
 30
0.0
 11
45.00000000000006
 21
145.0
 31
0.0
  0
LINE
  5
59B8
330
A
100
AcDbEntity
  8
0
  6
Continuous
 62
     9
100
AcDbLine
 10
45.00000000000006
 20
145.0
 30
0.0
 11
45.00000000000006
 21
144.0
 31
0.0
  0
LINE
  5
59B9
330
A
100
AcDbEntity
  8
0
  6
Continuous
 62
     7
100
AcDbLine
 10
45.00000000000006
 20
144.0
 30
0.0
 11
-9.499999999999872
 21
144.0
 31
0.0
  0
LINE
  5
59BA
330
A
100
AcDbEntity
  8
0
  6
Continuous
 62
     7
100
AcDbLine
 10
-15.49999999999987
 20
145.4999999999996
 30
0.0
 11
-15.49999999999987
 21
145.0
 31
0.0
  0
LINE
  5
59BB
330
A
100
AcDbEntity
  8
0
  6
Continuous
 62
     7
100
AcDbLine
 10
-15.49999999999987
 20
145.0
 30
0.0
 11
-15.49999999999987
 21
144.0
 31
0.0
  0
LINE
  5
59BC
330
A
100
AcDbEntity
  8
0
  6
Continuous
 62
     9
100
AcDbLine
 10
-9.499999999999872
 20
145.4999999999996
 30
0.0
 11
-9.499999999999872
 21
145.0
 31
0.0
  0
LINE
  5
59BD
330
A
100
AcDbEntity
  8
0
  6
Continuous
 62
     9
100
AcDbLine
 10
-9.499999999999872
 20
145.0
 30
0.0
 11
-9.499999999999872
 21
144.0
 31
0.0
  0
LINE
  5
59BE
330
A
100
AcDbEntity
  8
0
  6
Continuous
 62
     7
100
AcDbLine
 10
-9.499999999999872
 20
144.0
 30
0.0
 11
-15.49999999999987
 21
144.0
 31
0.0
  0
LINE
  5
59BF
330
A
100
AcDbEntity
  8
0
  6
Continuous
 62
     7
100
AcDbLine
 10
50.50000000000006
 20
134.5
 30
0.0
 11
50.50000000000006
 21
135.0
 31
0.0
  0
LINE
  5
59C0
330
A
100
AcDbEntity
  8
0
  6
Continuous
 62
     7
100
AcDbLine
 10
50.50000000000006
 20
135.0
 30
0.0
 11
50.50000000000006
 21
136.0
 31
0.0
  0
LINE
  5
59C1
330
A
100
AcDbEntity
  8
0
  6
Continuous
 62
     7
100
AcDbLine
 10
45.00000000000006
 20
136.0
 30
0.0
 11
50.50000000000006
 21
136.0
 31
0.0
  0
LINE
  5
59C2
330
A
100
AcDbEntity
  8
0
  6
Continuous
 62
     9
100
AcDbLine
 10
45.00000000000006
 20
134.5
 30
0.0
 11
45.00000000000006
 21
135.0
 31
0.0
  0
LINE
  5
59C3
330
A
100
AcDbEntity
  8
0
  6
Continuous
 62
     9
100
AcDbLine
 10
45.00000000000006
 20
135.0
 30
0.0
 11
45.00000000000006
 21
136.0
 31
0.0
  0
LINE
  5
59C4
330
A
100
AcDbEntity
  8
0
  6
Continuous
 62
     7
100
AcDbLine
 10
-9.499999999999872
 20
136.0
 30
0.0
 11
45.00000000000006
 21
136.0
 31
0.0
  0
LINE
  5
59C5
330
A
100
AcDbEntity
  8
0
  6
Continuous
 62
     9
100
AcDbLine
 10
-9.499999999999872
 20
134.5
 30
0.0
 11
-9.499999999999872
 21
135.0
 31
0.0
  0
LINE
  5
59C6
330
A
100
AcDbEntity
  8
0
  6
Continuous
 62
     9
100
AcDbLine
 10
-9.499999999999872
 20
135.0
 30
0.0
 11
-9.499999999999872
 21
136.0
 31
0.0
  0
LINE
  5
59C7
330
A
100
AcDbEntity
  8
0
  6
Continuous
 62
     7
100
AcDbLine
 10
-15.49999999999987
 20
134.5
 30
0.0
 11
-15.49999999999987
 21
135.0
 31
0.0
  0
LINE
  5
59C8
330
A
100
AcDbEntity
  8
0
  6
Continuous
 62
     7
100
AcDbLine
 10
-15.49999999999987
 20
135.0
 30
0.0
 11
-15.49999999999987
 21
136.0
 31
0.0
  0
LINE
  5
59C9
330
A
100
AcDbEntity
  8
0
  6
Continuous
 62
     7
100
AcDbLine
 10
-15.49999999999987
 20
136.0
 30
0.0
 11
-9.499999999999872
 21
136.0
 31
0.0
  0
LINE
  5
59CA
330
A
100
AcDbEntity
  8
0
  6
Continuous
 62
     7
100
AcDbLine
 10
53.00000000000006
 20
131.5
 30
0.0
 11
53.00000000000006
 21
134.5
 31
0.0
  0
LINE
  5
59CB
330
A
100
AcDbEntity
  8
0
  6
Continuous
 62
     9
100
AcDbLine
 10
45.50000000000006
 20
131.5
 30
0.0
 11
53.00000000000006
 21
131.5
 31
0.0
  0
LINE
  5
59CC
330
A
100
AcDbEntity
  8
0
  6
Continuous
 62
     9
100
AcDbLine
 10
45.50000000000006
 20
131.5
 30
0.0
 11
45.50000000000006
 21
134.5
 31
0.0
  0
LINE
  5
59CD
330
A
100
AcDbEntity
  8
0
  6
Continuous
 62
     7
100
AcDbLine
 10
53.00000000000006
 20
134.5
 30
0.0
 11
45.50000000000006
 21
134.5
 31
0.0
  0
LINE
  5
59CE
330
A
100
AcDbEntity
  8
0
  6
Continuous
 62
     7
100
AcDbLine
 10
49.00000000000005
 20
127.5
 30
0.0
 11
45.50000000000006
 21
127.5
 31
0.0
  0
LINE
  5
59CF
330
A
100
AcDbEntity
  8
0
  6
Continuous
 62
     9
100
AcDbLine
 10
45.50000000000006
 20
127.5
 30
0.0
 11
45.50000000000006
 21
131.5
 31
0.0
  0
ARC
  5
59D0
330
A
100
AcDbEntity
  8
0
  6
Continuous
 62
     7
100
AcDbCircle
 10
49.00000000000005
 20
131.5
 30
0.0
 40
4.0
100
AcDbArc
 50
270.0
 51
0.0
  0
LINE
  5
59D1
330
A
100
AcDbEntity
  8
0
  6
Continuous
 62
     9
100
AcDbLine
 10
-9.499999999999872
 20
131.5
 30
0.0
 11
45.50000000000006
 21
131.5
 31
0.0
  0
LINE
  5
59D2
330
A
100
AcDbEntity
  8
0
  6
Continuous
 62
     9
100
AcDbLine
 10
-9.499999999999872
 20
131.5
 30
0.0
 11
-9.499999999999872
 21
134.5
 31
0.0
  0
LINE
  5
59D3
330
A
100
AcDbEntity
  8
0
  6
Continuous
 62
     7
100
AcDbLine
 10
45.50000000000006
 20
134.5
 30
0.0
 11
-9.499999999999872
 21
134.5
 31
0.0
  0
LINE
  5
59D4
330
A
100
AcDbEntity
  8
0
  6
Continuous
 62
     7
100
AcDbLine
 10
45.50000000000006
 20
127.5
 30
0.0
 11
-9.499999999999872
 21
127.5
 31
0.0
  0
LINE
  5
59D5
330
A
100
AcDbEntity
  8
0
  6
Continuous
 62
     9
100
AcDbLine
 10
-9.499999999999872
 20
127.5
 30
0.0
 11
-9.499999999999872
 21
131.5
 31
0.0
  0
LINE
  5
59D6
330
A
100
AcDbEntity
  8
0
  6
Continuous
 62
     9
100
AcDbLine
 10
-16.99999999999987
 20
131.5
 30
0.0
 11
-9.499999999999872
 21
131.5
 31
0.0
  0
LINE
  5
59D7
330
A
100
AcDbEntity
  8
0
  6
Continuous
 62
     7
100
AcDbLine
 10
-16.99999999999987
 20
131.5
 30
0.0
 11
-16.99999999999987
 21
134.5
 31
0.0
  0
LINE
  5
59D8
330
A
100
AcDbEntity
  8
0
  6
Continuous
 62
     7
100
AcDbLine
 10
-9.499999999999872
 20
134.5
 30
0.0
 11
-16.99999999999987
 21
134.5
 31
0.0
  0
LINE
  5
59D9
330
A
100
AcDbEntity
  8
0
  6
Continuous
 62
     7
100
AcDbLine
 10
-9.499999999999872
 20
127.5
 30
0.0
 11
-12.99999999999987
 21
127.5
 31
0.0
  0
ARC
  5
59DA
330
A
100
AcDbEntity
  8
0
  6
Continuous
 62
     7
100
AcDbCircle
 10
-12.99999999999987
 20
131.5
 30
0.0
 40
4.0
100
AcDbArc
 50
180.0
 51
270.0
  0
LINE
  5
59DB
330
A
100
AcDbEntity
  8
0
  6
Continuous
 62
     9
100
AcDbLine
 10
-9.499999999999872
 20
134.5
 30
0.0
 11
-9.499999999999872
 21
135.0
 31
0.0
  0
LINE
  5
59DC
330
A
100
AcDbEntity
  8
0
  6
Continuous
 62
     7
100
AcDbLine
 10
-15.49999999999987
 20
134.5
 30
0.0
 11
-15.49999999999987
 21
135.0
 31
0.0
  0
LINE
  5
59DD
330
A
100
AcDbEntity
  8
0
  6
Continuous
 62
     7
100
AcDbLine
 10
-15.49999999999987
 20
135.0
 30
0.0
 11
-9.499999999999872
 21
135.0
 31
0.0
  0
LINE
  5
59DE
330
A
100
AcDbEntity
  8
0
  6
Continuous
 62
     9
100
AcDbLine
 10
45.00000000000006
 20
134.5
 30
0.0
 11
45.00000000000006
 21
135.0
 31
0.0
  0
LINE
  5
59DF
330
A
100
AcDbEntity
  8
0
  6
Continuous
 62
     7
100
AcDbLine
 10
-9.499999999999872
 20
135.0
 30
0.0
 11
45.00000000000006
 21
135.0
 31
0.0
  0
LINE
  5
59E0
330
A
100
AcDbEntity
  8
0
  6
Continuous
 62
     7
100
AcDbLine
 10
50.50000000000006
 20
134.5
 30
0.0
 11
50.50000000000006
 21
135.0
 31
0.0
  0
LINE
  5
59E1
330
A
100
AcDbEntity
  8
0
  6
Continuous
 62
     7
100
AcDbLine
 10
45.00000000000006
 20
135.0
 30
0.0
 11
50.50000000000006
 21
135.0
 31
0.0
  0
LINE
  5
59E2
330
A
100
AcDbEntity
  8
0
  6
Continuous
 62
     7
100
AcDbLine
 10
-15.49999999999987
 20
145.4999999999996
 30
0.0
 11
-15.49999999999987
 21
145.0
 31
0.0
  0
LINE
  5
59E3
330
A
100
AcDbEntity
  8
0
  6
Continuous
 62
     9
100
AcDbLine
 10
-9.499999999999872
 20
145.4999999999996
 30
0.0
 11
-9.499999999999872
 21
145.0
 31
0.0
  0
LINE
  5
59E4
330
A
100
AcDbEntity
  8
0
  6
Continuous
 62
     7
100
AcDbLine
 10
-9.499999999999872
 20
145.0
 30
0.0
 11
-15.49999999999987
 21
145.0
 31
0.0
  0
LINE
  5
59E5
330
A
100
AcDbEntity
  8
0
  6
Continuous
 62
     7
100
AcDbLine
 10
50.50000000000006
 20
145.4999999999996
 30
0.0
 11
50.50000000000006
 21
145.0
 31
0.0
  0
LINE
  5
59E6
330
A
100
AcDbEntity
  8
0
  6
Continuous
 62
     7
100
AcDbLine
 10
50.50000000000006
 20
145.0
 30
0.0
 11
45.00000000000006
 21
145.0
 31
0.0
  0
LINE
  5
59E7
330
A
100
AcDbEntity
  8
0
  6
Continuous
 62
     9
100
AcDbLine
 10
45.00000000000006
 20
145.4999999999996
 30
0.0
 11
45.00000000000006
 21
145.0
 31
0.0
  0
LINE
  5
59E8
330
A
100
AcDbEntity
  8
0
  6
Continuous
 62
     7
100
AcDbLine
 10
45.00000000000006
 20
145.0
 30
0.0
 11
-9.499999999999872
 21
145.0
 31
0.0
  0
ARC
  5
59E9
330
A
100
AcDbEntity
  8
0
  6
Continuous
 62
     7
100
AcDbCircle
 10
40.00000000000006
 20
140.0
 30
0.0
 40
3.75
100
AcDbArc
 50
193.0979619999985
 51
210.4220740000026
  0
LINE
  5
59EA
330
A
100
AcDbEntity
  8
0
  6
Continuous
 62
     7
100
AcDbLine
 10
36.76630500000016
 20
138.1011269999996
 30
0.0
 11
36.26049999999995
 21
138.3183339999997
 31
0.0
  0
LINE
  5
59EB
330
A
100
AcDbEntity
  8
0
  6
Continuous
 62
     7
100
AcDbLine
 10
36.13093099999975
 20
138.6457259999999
 30
0.0
 11
36.34756000000024
 21
139.1501869999997
 31
0.0
  0
ARC
  5
59EC
330
A
100
AcDbEntity
  8
0
  6
Continuous
 62
     7
100
AcDbCircle
 10
43.35628400000004
 20
138.19736
 30
0.0
 40
0.1
100
AcDbArc
 50
116.7600179999902
 51
186.7600179999998
  0
LINE
  5
59ED
330
A
100
AcDbEntity
  8
0
  6
Continuous
 62
     7
100
AcDbLine
 10
43.25697899999989
 20
138.1855889999997
 30
0.0
 11
43.26131900000027
 21
138.148974
 31
0.0
  0
ARC
  5
59EE
330
A
100
AcDbEntity
  8
0
  6
Continuous
 62
     7
100
AcDbCircle
 10
40.00000000000006
 20
140.0
 30
0.0
 40
3.75
100
AcDbArc
 50
313.0979619999951
 51
330.4220739999973
  0
LINE
  5
59EF
330
A
100
AcDbEntity
  8
0
  6
Continuous
 62
     7
100
AcDbLine
 10
42.56217900000004
 20
137.2617999999998
 30
0.0
 11
42.52556499999994
 21
137.2574599999997
 31
0.0
  0
ARC
  5
59F0
330
A
100
AcDbEntity
  8
0
  6
Continuous
 62
     7
100
AcDbCircle
 10
42.53733599999995
 20
137.1581549999998
 30
0.0
 40
0.1
100
AcDbArc
 50
96.76001800001298
 51
166.7600179999982
  0
LINE
  5
59F1
330
A
100
AcDbEntity
  8
0
  6
Continuous
 62
     7
100
AcDbLine
 10
42.43999400000086
 20
137.1810579999996
 30
0.0
 11
42.43154999999987
 21
137.145168
 31
0.0
  0
ARC
  5
59F2
330
A
100
AcDbEntity
  8
0
  6
Continuous
 62
     7
100
AcDbCircle
 10
40.00000000000006
 20
140.0
 30
0.0
 40
3.75
100
AcDbArc
 50
293.0979619999922
 51
310.4220739999957
  0
LINE
  5
59F3
330
A
100
AcDbEntity
  8
0
  6
Continuous
 62
     7
100
AcDbLine
 10
41.47114200000046
 20
136.5506169999999
 30
0.0
 11
41.43525100000047
 21
136.559062
 31
0.0
  0
ARC
  5
59F4
330
A
100
AcDbEntity
  8
0
  6
Continuous
 62
     7
100
AcDbCircle
 10
41.41234799999994
 20
136.46172
 30
0.0
 40
0.1
100
AcDbArc
 50
76.76001800000823
 51
146.7600179999944
  0
LINE
  5
59F5
330
A
100
AcDbEntity
  8
0
  6
Continuous
 62
     7
100
AcDbLine
 10
41.32871000000029
 20
136.5165339999997
 30
0.0
 11
41.30849899999986
 21
136.4856959999997
 31
0.0
  0
ARC
  5
59F6
330
A
100
AcDbEntity
  8
0
  6
Continuous
 62
     7
100
AcDbCircle
 10
40.00000000000006
 20
140.0
 30
0.0
 40
3.75
100
AcDbArc
 50
273.0979619999954
 51
290.4220740000044
  0
LINE
  5
59F7
330
A
100
AcDbEntity
  8
0
  6
Continuous
 62
     7
100
AcDbLine
 10
40.20266200000029
 20
136.25548
 30
0.0
 11
40.17182400000004
 21
136.275691
 31
0.0
  0
ARC
  5
59F8
330
A
100
AcDbEntity
  8
0
  6
Continuous
 62
     7
100
AcDbCircle
 10
40.11701000000004
 20
136.1920529999996
 30
0.0
 40
0.1
100
AcDbArc
 50
56.76001799999174
 51
126.7600179999968
  0
LINE
  5
59F9
330
A
100
AcDbEntity
  8
0
  6
Continuous
 62
     7
100
AcDbLine
 10
40.05716300000005
 20
136.2721679999997
 30
0.0
 11
40.02762399999994
 21
136.2501019999997
 31
0.0
  0
ARC
  5
59FA
330
A
100
AcDbEntity
  8
0
  6
Continuous
 62
     7
100
AcDbCircle
 10
40.00000000000006
 20
140.0
 30
0.0
 40
3.75
100
AcDbArc
 50
253.0979619999898
 51
270.4220740000065
  0
LINE
  5
59FB
330
A
100
AcDbEntity
  8
0
  6
Continuous
 62
     7
100
AcDbLine
 10
38.90973900000029
 20
136.4119879999997
 30
0.0
 11
38.88767300000026
 21
136.4415269999999
 31
0.0
  0
ARC
  5
59FC
330
A
100
AcDbEntity
  8
0
  6
Continuous
 62
     7
100
AcDbCircle
 10
38.80755899999994
 20
136.3816799999999
 30
0.0
 40
0.1
100
AcDbArc
 50
36.76001800001138
 51
106.7600179999905
  0
ARC
  5
59FD
330
A
100
AcDbEntity
  8
0
  6
Continuous
 62
     7
100
AcDbCircle
 10
40.00000000000006
 20
140.0
 30
0.0
 40
3.75
100
AcDbArc
 50
233.0979620000054
 51
250.4220740000002
  0
LINE
  5
59FE
330
A
100
AcDbEntity
  8
0
  6
Continuous
 62
     7
100
AcDbLine
 10
37.74831800000004
 20
137.001263
 30
0.0
 11
37.73768500000014
 21
137.0365669999996
 31
0.0
  0
ARC
  5
59FF
330
A
100
AcDbEntity
  8
0
  6
Continuous
 62
     7
100
AcDbCircle
 10
37.64193299999994
 20
137.0077309999996
 30
0.0
 40
0.1
100
AcDbArc
 50
16.76001799999783
 51
86.76001800001129
  0
LINE
  5
5A00
330
A
100
AcDbEntity
  8
0
  6
Continuous
 62
     7
100
AcDbLine
 10
37.64758500000028
 20
137.107571
 30
0.0
 11
37.61077299999994
 21
137.1096549999997
 31
0.0
  0
ARC
  5
5A01
330
A
100
AcDbEntity
  8
0
  6
Continuous
 62
     7
100
AcDbCircle
 10
40.00000000000006
 20
140.0
 30
0.0
 40
3.75
100
AcDbArc
 50
213.0979619999973
 51
230.4220739999954
  0
LINE
  5
5A02
330
A
100
AcDbEntity
  8
0
  6
Continuous
 62
     7
100
AcDbLine
 10
36.85848200000015
 20
137.952229
 30
0.0
 11
36.86056599999995
 21
137.989041
 31
0.0
  0
ARC
  5
5A03
330
A
100
AcDbEntity
  8
0
  6
Continuous
 62
     7
100
AcDbCircle
 10
36.76072600000003
 20
137.9946929999996
 30
0.0
 40
0.1
100
AcDbArc
 50
356.7600179999983
 51
66.76001799999314
  0
LINE
  5
5A04
330
A
100
AcDbEntity
  8
0
  6
Continuous
 62
     7
100
AcDbLine
 10
36.80018400000026
 20
138.086579
 30
0.0
 11
36.76630500000016
 21
138.1011269999996
 31
0.0
  0
LINE
  5
5A05
330
A
100
AcDbEntity
  8
0
  6
Continuous
 62
     7
100
AcDbLine
 10
36.34756000000024
 20
139.1501869999997
 30
0.0
 11
36.36210799999986
 21
139.184066
 31
0.0
  0
ARC
  5
5A06
330
A
100
AcDbEntity
  8
0
  6
Continuous
 62
     7
100
AcDbCircle
 10
36.27022200000016
 20
139.223525
 30
0.0
 40
0.1
100
AcDbArc
 50
336.7600180000003
 51
46.76001799999807
  0
LINE
  5
5A07
330
A
100
AcDbEntity
  8
0
  6
Continuous
 62
     7
100
AcDbLine
 10
36.33872800000026
 20
139.296374
 30
0.0
 11
36.31186799999986
 21
139.321632
 31
0.0
  0
ARC
  5
5A08
330
A
100
AcDbEntity
  8
0
  6
Continuous
 62
     7
100
AcDbCircle
 10
40.00000000000006
 20
140.0
 30
0.0
 40
3.75
100
AcDbArc
 50
173.0979619999978
 51
190.4220739999997
  0
LINE
  5
5A09
330
A
100
AcDbEntity
  8
0
  6
Continuous
 62
     7
100
AcDbLine
 10
36.27717600000017
 20
140.450646
 30
0.0
 11
36.30243400000026
 21
140.4775049999997
 31
0.0
  0
ARC
  5
5A0A
330
A
100
AcDbEntity
  8
0
  6
Continuous
 62
     7
100
AcDbCircle
 10
36.22958500000016
 20
140.546011
 30
0.0
 40
0.1
100
AcDbArc
 50
316.7600180000075
 51
26.7600179999972
  0
LINE
  5
5A0B
330
A
100
AcDbEntity
  8
0
  6
Continuous
 62
     7
100
AcDbLine
 10
36.31887500000005
 20
140.591036
 30
0.0
 11
36.30227399999976
 21
140.623958
 31
0.0
  0
ARC
  5
5A0C
330
A
100
AcDbEntity
  8
0
  6
Continuous
 62
     7
100
AcDbCircle
 10
40.00000000000006
 20
140.0
 30
0.0
 40
3.75
100
AcDbArc
 50
153.0979619999975
 51
170.422074000003
  0
LINE
  5
5A0D
330
A
100
AcDbEntity
  8
0
  6
Continuous
 62
     7
100
AcDbLine
 10
36.65582000000004
 20
141.696749
 30
0.0
 11
36.68874100000005
 21
141.71335
 31
0.0
  0
ARC
  5
5A0E
330
A
100
AcDbEntity
  8
0
  6
Continuous
 62
     7
100
AcDbCircle
 10
36.64371600000015
 20
141.80264
 30
0.0
 40
0.1
100
AcDbArc
 50
296.7600179999902
 51
6.760017999999858
  0
LINE
  5
5A0F
330
A
100
AcDbEntity
  8
0
  6
Continuous
 62
     7
100
AcDbLine
 10
36.74302100000025
 20
141.814411
 30
0.0
 11
36.73868099999987
 21
141.8510259999997
 31
0.0
  0
ARC
  5
5A10
330
A
100
AcDbEntity
  8
0
  6
Continuous
 62
     7
100
AcDbCircle
 10
40.00000000000006
 20
140.0
 30
0.0
 40
3.75
100
AcDbArc
 50
133.0979619999962
 51
150.4220739999983
  0
LINE
  5
5A11
330
A
100
AcDbEntity
  8
0
  6
Continuous
 62
     7
100
AcDbLine
 10
37.43782100000004
 20
142.7382
 30
0.0
 11
37.47443500000014
 21
142.7425400000003
 31
0.0
  0
ARC
  5
5A12
330
A
100
AcDbEntity
  8
0
  6
Continuous
 62
     7
100
AcDbCircle
 10
37.46266400000024
 20
142.841845
 30
0.0
 40
0.1
100
AcDbArc
 50
276.760018000013
 51
346.7600179999984
  0
LINE
  5
5A13
330
A
100
AcDbEntity
  8
0
  6
Continuous
 62
     7
100
AcDbLine
 10
37.56000599999979
 20
142.818942
 30
0.0
 11
37.56845000000027
 21
142.8548319999996
 31
0.0
  0
ARC
  5
5A14
330
A
100
AcDbEntity
  8
0
  6
Continuous
 62
     7
100
AcDbCircle
 10
40.00000000000006
 20
140.0
 30
0.0
 40
3.75
100
AcDbArc
 50
113.0979619999922
 51
130.4220739999957
  0
LINE
  5
5A15
330
A
100
AcDbEntity
  8
0
  6
Continuous
 62
     7
100
AcDbLine
 10
38.52885799999979
 20
143.4493829999996
 30
0.0
 11
38.56474899999978
 21
143.4409379999997
 31
0.0
  0
ARC
  5
5A16
330
A
100
AcDbEntity
  8
0
  6
Continuous
 62
     7
100
AcDbCircle
 10
38.58765200000028
 20
143.5382799999998
 30
0.0
 40
0.1
100
AcDbArc
 50
256.7600180000082
 51
326.7600179999944
  0
LINE
  5
5A17
330
A
100
AcDbEntity
  8
0
  6
Continuous
 62
     7
100
AcDbLine
 10
38.67128999999989
 20
143.483466
 30
0.0
 11
38.69150100000036
 21
143.514304
 31
0.0
  0
ARC
  5
5A18
330
A
100
AcDbEntity
  8
0
  6
Continuous
 62
     7
100
AcDbCircle
 10
40.00000000000006
 20
140.0
 30
0.0
 40
3.75
100
AcDbArc
 50
93.0979619999954
 51
110.4220740000044
  0
LINE
  5
5A19
330
A
100
AcDbEntity
  8
0
  6
Continuous
 62
     7
100
AcDbLine
 10
39.79733799999994
 20
143.7445199999997
 30
0.0
 11
39.82817600000004
 21
143.7243089999997
 31
0.0
  0
ARC
  5
5A1A
330
A
100
AcDbEntity
  8
0
  6
Continuous
 62
     7
100
AcDbCircle
 10
39.88299000000015
 20
143.807947
 30
0.0
 40
0.1
100
AcDbArc
 50
236.7600179999916
 51
306.7600179999967
  0
LINE
  5
5A1B
330
A
100
AcDbEntity
  8
0
  6
Continuous
 62
     7
100
AcDbLine
 10
39.94283700000014
 20
143.727832
 30
0.0
 11
39.97237600000028
 21
143.749898
 31
0.0
  0
ARC
  5
5A1C
330
A
100
AcDbEntity
  8
0
  6
Continuous
 62
     7
100
AcDbCircle
 10
40.00000000000006
 20
140.0
 30
0.0
 40
3.75
100
AcDbArc
 50
73.09796199998982
 51
90.42207400000655
  0
LINE
  5
5A1D
330
A
100
AcDbEntity
  8
0
  6
Continuous
 62
     7
100
AcDbLine
 10
41.09026099999994
 20
143.588012
 30
0.0
 11
41.11232699999994
 21
143.558473
 31
0.0
  0
ARC
  5
5A1E
330
A
100
AcDbEntity
  8
0
  6
Continuous
 62
     7
100
AcDbCircle
 10
41.19244100000028
 20
143.61832
 30
0.0
 40
0.1
100
AcDbArc
 50
216.7600180000112
 51
286.7600179999906
  0
LINE
  5
5A1F
330
A
100
AcDbEntity
  8
0
  6
Continuous
 62
     7
100
AcDbLine
 10
41.22127800000003
 20
143.522568
 30
0.0
 11
41.25658200000003
 21
143.5331999999997
 31
0.0
  0
ARC
  5
5A20
330
A
100
AcDbEntity
  8
0
  6
Continuous
 62
     7
100
AcDbCircle
 10
40.00000000000006
 20
140.0
 30
0.0
 40
3.75
100
AcDbArc
 50
53.0979620000054
 51
70.42207400000018
  0
LINE
  5
5A21
330
A
100
AcDbEntity
  8
0
  6
Continuous
 62
     7
100
AcDbLine
 10
42.25168200000013
 20
142.9987369999996
 30
0.0
 11
42.26231500000006
 21
142.963433
 31
0.0
  0
ARC
  5
5A22
330
A
100
AcDbEntity
  8
0
  6
Continuous
 62
     7
100
AcDbCircle
 10
42.35806700000026
 20
142.9922690000003
 30
0.0
 40
0.1
100
AcDbArc
 50
196.7600179999972
 51
266.7600180000113
  0
LINE
  5
5A23
330
A
100
AcDbEntity
  8
0
  6
Continuous
 62
     7
100
AcDbLine
 10
42.35241499999995
 20
142.892429
 30
0.0
 11
42.38922700000014
 21
142.890345
 31
0.0
  0
ARC
  5
5A24
330
A
100
AcDbEntity
  8
0
  6
Continuous
 62
     7
100
AcDbCircle
 10
40.00000000000006
 20
140.0
 30
0.0
 40
3.75
100
AcDbArc
 50
33.09796199999728
 51
50.42207399999632
  0
LINE
  5
5A25
330
A
100
AcDbEntity
  8
0
  6
Continuous
 62
     7
100
AcDbLine
 10
43.14151799999996
 20
142.0477709999999
 30
0.0
 11
43.13943400000027
 21
142.0109589999997
 31
0.0
  0
ARC
  5
5A26
330
A
100
AcDbEntity
  8
0
  6
Continuous
 62
     7
100
AcDbCircle
 10
43.23927400000013
 20
142.005307
 30
0.0
 40
0.1
100
AcDbArc
 50
176.7600179999982
 51
246.7600179999932
  0
LINE
  5
5A27
330
A
100
AcDbEntity
  8
0
  6
Continuous
 62
     7
100
AcDbLine
 10
43.19981599999993
 20
141.9134209999998
 30
0.0
 11
43.23369499999995
 21
141.8988730000003
 31
0.0
  0
ARC
  5
5A28
330
A
100
AcDbEntity
  8
0
  6
Continuous
 62
     7
100
AcDbCircle
 10
40.00000000000006
 20
140.0
 30
0.0
 40
3.75
100
AcDbArc
 50
13.09796199999875
 51
30.42207400000246
  0
LINE
  5
5A29
330
A
100
AcDbEntity
  8
0
  6
Continuous
 62
     7
100
AcDbLine
 10
43.65243999999996
 20
140.849813
 30
0.0
 11
43.63789200000027
 21
140.8159339999997
 31
0.0
  0
ARC
  5
5A2A
330
A
100
AcDbEntity
  8
0
  6
Continuous
 62
     7
100
AcDbCircle
 10
43.72977799999995
 20
140.7764749999998
 30
0.0
 40
0.1
100
AcDbArc
 50
156.7600180000004
 51
226.7600179999969
  0
LINE
  5
5A2B
330
A
100
AcDbEntity
  8
0
  6
Continuous
 62
     7
100
AcDbLine
 10
43.66127199999993
 20
140.7036259999996
 30
0.0
 11
43.68813200000036
 21
140.6783679999998
 31
0.0
  0
ARC
  5
5A2C
330
A
100
AcDbEntity
  8
0
  6
Continuous
 62
     7
100
AcDbCircle
 10
40.00000000000006
 20
140.0
 30
0.0
 40
3.75
100
AcDbArc
 50
353.0979619999979
 51
10.42207399999979
  0
LINE
  5
5A2D
330
A
100
AcDbEntity
  8
0
  6
Continuous
 62
     7
100
AcDbLine
 10
43.72282400000005
 20
139.549354
 30
0.0
 11
43.69756599999994
 21
139.522495
 31
0.0
  0
ARC
  5
5A2E
330
A
100
AcDbEntity
  8
0
  6
Continuous
 62
     7
100
AcDbCircle
 10
43.77041500000004
 20
139.4539889999997
 30
0.0
 40
0.1
100
AcDbArc
 50
136.7600180000072
 51
206.7600179999978
  0
LINE
  5
5A2F
330
A
100
AcDbEntity
  8
0
  6
Continuous
 62
     7
100
AcDbLine
 10
43.68112500000015
 20
139.4089639999997
 30
0.0
 11
43.69772600000047
 21
139.3760419999999
 31
0.0
  0
ARC
  5
5A30
330
A
100
AcDbEntity
  8
0
  6
Continuous
 62
     7
100
AcDbCircle
 10
40.00000000000006
 20
140.0
 30
0.0
 40
3.75
100
AcDbArc
 50
333.0979619999967
 51
350.4220740000032
  0
LINE
  5
5A31
330
A
100
AcDbEntity
  8
0
  6
Continuous
 62
     7
100
AcDbLine
 10
43.34418000000013
 20
138.3032509999997
 30
0.0
 11
43.31125900000015
 21
138.28665
 31
0.0
  0
LINE
  5
5A32
330
A
100
AcDbEntity
  8
0
  6
Continuous
 62
     7
100
AcDbLine
 10
38.77872200000004
 20
136.477432
 30
0.0
 11
38.74341800000014
 21
136.4668
 31
0.0
  0
LINE
  5
5A33
330
A
100
AcDbEntity
  8
0
  6
Continuous
 62
     7
100
AcDbLine
 10
36.82738000000026
 20
137.402807
 30
0.0
 11
36.85848200000015
 21
137.952229
 31
0.0
  0
LINE
  5
5A34
330
A
100
AcDbEntity
  8
0
  6
Continuous
 62
     7
100
AcDbLine
 10
37.61077299999994
 20
137.1096549999997
 30
0.0
 11
37.06218999999976
 21
137.140709
 31
0.0
  0
LINE
  5
5A35
330
A
100
AcDbEntity
  8
0
  6
Continuous
 62
     7
100
AcDbLine
 10
37.90678399999988
 20
136.4750709999997
 30
0.0
 11
37.74831800000004
 21
137.001263
 31
0.0
  0
LINE
  5
5A36
330
A
100
AcDbEntity
  8
0
  6
Continuous
 62
     7
100
AcDbLine
 10
38.74341800000014
 20
136.4668
 30
0.0
 11
38.21771099999987
 21
136.30848
 31
0.0
  0
LINE
  5
5A37
330
A
100
AcDbEntity
  8
0
  6
Continuous
 62
     7
100
AcDbLine
 10
40.02762399999994
 20
136.2501019999997
 30
0.0
 11
39.69621000000015
 21
136.0025319999997
 31
0.0
  0
LINE
  5
5A38
330
A
100
AcDbEntity
  8
0
  6
Continuous
 62
     7
100
AcDbLine
 10
39.21804800000027
 20
135.999262
 30
0.0
 11
38.90973900000029
 21
136.4119879999997
 31
0.0
  0
LINE
  5
5A39
330
A
100
AcDbEntity
  8
0
  6
Continuous
 62
     7
100
AcDbLine
 10
40.59316600000014
 20
135.9995519999996
 30
0.0
 11
40.20266200000029
 21
136.25548
 31
0.0
  0
LINE
  5
5A3A
330
A
100
AcDbEntity
  8
0
  6
Continuous
 62
     7
100
AcDbLine
 10
41.30849899999986
 20
136.4856959999997
 30
0.0
 11
41.00731300000015
 21
136.026136
 31
0.0
  0
LINE
  5
5A3B
330
A
100
AcDbEntity
  8
0
  6
Continuous
 62
     7
100
AcDbLine
 10
36.31186799999986
 20
139.321632
 30
0.0
 11
35.91190500000005
 21
139.6977480000001
 31
0.0
  0
LINE
  5
5A3C
330
A
100
AcDbEntity
  8
0
  6
Continuous
 62
     7
100
AcDbLine
 10
35.90071399999994
 20
140.0503139999997
 30
0.0
 11
36.27717600000017
 21
140.450646
 31
0.0
  0
LINE
  5
5A3D
330
A
100
AcDbEntity
  8
0
  6
Continuous
 62
     7
100
AcDbLine
 10
36.30227399999976
 20
140.623958
 30
0.0
 11
36.05487700000015
 21
141.114573
 31
0.0
  0
LINE
  5
5A3E
330
A
100
AcDbEntity
  8
0
  6
Continuous
 62
     7
100
AcDbLine
 10
36.16445500000017
 20
141.448973
 30
0.0
 11
36.65582000000004
 21
141.696749
 31
0.0
  0
LINE
  5
5A3F
330
A
100
AcDbEntity
  8
0
  6
Continuous
 62
     7
100
AcDbLine
 10
42.43154999999987
 20
137.145168
 30
0.0
 11
42.30580500000004
 21
136.6107319999999
 31
0.0
  0
LINE
  5
5A40
330
A
100
AcDbEntity
  8
0
  6
Continuous
 62
     7
100
AcDbLine
 10
42.00606999999993
 20
136.424757
 30
0.0
 11
41.47114200000046
 21
136.5506169999999
 31
0.0
  0
LINE
  5
5A41
330
A
100
AcDbEntity
  8
0
  6
Continuous
 62
     7
100
AcDbLine
 10
43.26131900000027
 20
138.148974
 30
0.0
 11
43.32611600000027
 21
137.6023309999997
 31
0.0
  0
LINE
  5
5A42
330
A
100
AcDbEntity
  8
0
  6
Continuous
 62
     7
100
AcDbLine
 10
43.10736999999986
 20
137.3264249999997
 30
0.0
 11
42.56217900000004
 21
137.2617999999998
 31
0.0
  0
LINE
  5
5A43
330
A
100
AcDbEntity
  8
0
  6
Continuous
 62
     7
100
AcDbLine
 10
36.73868099999987
 20
141.8510259999997
 30
0.0
 11
36.67388399999988
 21
142.397669
 31
0.0
  0
LINE
  5
5A44
330
A
100
AcDbEntity
  8
0
  6
Continuous
 62
     7
100
AcDbLine
 10
36.89263000000037
 20
142.673575
 30
0.0
 11
37.43782100000004
 21
142.7382
 31
0.0
  0
LINE
  5
5A45
330
A
100
AcDbEntity
  8
0
  6
Continuous
 62
     7
100
AcDbLine
 10
37.56845000000027
 20
142.8548319999996
 30
0.0
 11
37.69419500000015
 21
143.389268
 31
0.0
  0
LINE
  5
5A46
330
A
100
AcDbEntity
  8
0
  6
Continuous
 62
     7
100
AcDbLine
 10
37.99393000000015
 20
143.5752429999996
 30
0.0
 11
38.52885799999979
 21
143.4493829999996
 31
0.0
  0
LINE
  5
5A47
330
A
100
AcDbEntity
  8
0
  6
Continuous
 62
     7
100
AcDbLine
 10
43.69772600000047
 20
139.3760419999999
 30
0.0
 11
43.94512300000005
 21
138.8854269999997
 31
0.0
  0
LINE
  5
5A48
330
A
100
AcDbEntity
  8
0
  6
Continuous
 62
     7
100
AcDbLine
 10
43.83554499999994
 20
138.5510269999998
 30
0.0
 11
43.34418000000013
 21
138.3032509999997
 31
0.0
  0
LINE
  5
5A49
330
A
100
AcDbEntity
  8
0
  6
Continuous
 62
     7
100
AcDbLine
 10
43.68813200000036
 20
140.6783679999998
 30
0.0
 11
44.08809500000015
 21
140.3022519999997
 31
0.0
  0
LINE
  5
5A4A
330
A
100
AcDbEntity
  8
0
  6
Continuous
 62
     7
100
AcDbLine
 10
44.09928600000026
 20
139.949686
 30
0.0
 11
43.72282400000005
 21
139.549354
 31
0.0
  0
LINE
  5
5A4B
330
A
100
AcDbEntity
  8
0
  6
Continuous
 62
     7
100
AcDbLine
 10
38.69150100000036
 20
143.514304
 30
0.0
 11
38.99268700000005
 21
143.9738639999997
 31
0.0
  0
LINE
  5
5A4C
330
A
100
AcDbEntity
  8
0
  6
Continuous
 62
     7
100
AcDbLine
 10
39.40683399999995
 20
144.000448
 30
0.0
 11
39.79733799999994
 21
143.7445199999997
 31
0.0
  0
LINE
  5
5A4D
330
A
100
AcDbEntity
  8
0
  6
Continuous
 62
     7
100
AcDbLine
 10
39.97237600000028
 20
143.749898
 30
0.0
 11
40.30379000000005
 21
143.997468
 31
0.0
  0
LINE
  5
5A4E
330
A
100
AcDbEntity
  8
0
  6
Continuous
 62
     7
100
AcDbLine
 10
40.78195199999996
 20
144.0007379999997
 30
0.0
 11
41.09026099999994
 21
143.588012
 31
0.0
  0
LINE
  5
5A4F
330
A
100
AcDbEntity
  8
0
  6
Continuous
 62
     7
100
AcDbLine
 10
43.23369499999995
 20
141.8988730000003
 30
0.0
 11
43.73950000000028
 21
141.681666
 31
0.0
  0
LINE
  5
5A50
330
A
100
AcDbEntity
  8
0
  6
Continuous
 62
     7
100
AcDbLine
 10
43.86906900000087
 20
141.354274
 30
0.0
 11
43.65243999999996
 21
140.849813
 31
0.0
  0
LINE
  5
5A51
330
A
100
AcDbEntity
  8
0
  6
Continuous
 62
     7
100
AcDbLine
 10
42.09317100000004
 20
143.525081
 30
0.0
 11
42.25168200000013
 21
142.9987369999996
 31
0.0
  0
LINE
  5
5A52
330
A
100
AcDbEntity
  8
0
  6
Continuous
 62
     7
100
AcDbLine
 10
41.25658200000003
 20
143.5331999999997
 30
0.0
 11
41.78244099999995
 21
143.6915659999999
 31
0.0
  0
LINE
  5
5A53
330
A
100
AcDbEntity
  8
0
  6
Continuous
 62
     7
100
AcDbLine
 10
42.38922700000014
 20
142.890345
 30
0.0
 11
42.93781000000047
 21
142.8592909999996
 31
0.0
  0
LINE
  5
5A54
330
A
100
AcDbEntity
  8
0
  6
Continuous
 62
     7
100
AcDbLine
 10
43.17261999999994
 20
142.5971929999999
 30
0.0
 11
43.14151799999996
 21
142.0477709999999
 31
0.0
  0
ARC
  5
5A55
330
A
100
AcDbEntity
  8
0
  6
Continuous
 62
     7
100
AcDbCircle
 10
40.00000000000006
 20
140.0
 30
0.0
 40
4.0
100
AcDbArc
 50
245.8019959999907
 51
257.7180399999893
  0
ARC
  5
5A56
330
A
100
AcDbEntity
  8
0
  6
Continuous
 62
     7
100
AcDbCircle
 10
40.00000000000006
 20
140.0
 30
0.0
 40
4.0
100
AcDbArc
 50
325.8019960000077
 51
337.7180400000033
  0
ARC
  5
5A57
330
A
100
AcDbEntity
  8
0
  6
Continuous
 62
     7
100
AcDbCircle
 10
40.00000000000006
 20
140.0
 30
0.0
 40
4.0
100
AcDbArc
 50
345.8019960000005
 51
357.7180400000004
  0
ARC
  5
5A58
330
A
100
AcDbEntity
  8
0
  6
Continuous
 62
     7
100
AcDbCircle
 10
40.00000000000006
 20
140.0
 30
0.0
 40
4.0
100
AcDbArc
 50
5.801995999999483
 51
17.71804000000303
  0
ARC
  5
5A59
330
A
100
AcDbEntity
  8
0
  6
Continuous
 62
     7
100
AcDbCircle
 10
40.00000000000006
 20
140.0
 30
0.0
 40
4.0
100
AcDbArc
 50
25.80199599999954
 51
37.71804000000612
  0
ARC
  5
5A5A
330
A
100
AcDbEntity
  8
0
  6
Continuous
 62
     7
100
AcDbCircle
 10
40.00000000000006
 20
140.0
 30
0.0
 40
4.0
100
AcDbArc
 50
45.80199600001015
 51
57.71803999999005
  0
ARC
  5
5A5B
330
A
100
AcDbEntity
  8
0
  6
Continuous
 62
     7
100
AcDbCircle
 10
40.00000000000006
 20
140.0
 30
0.0
 40
4.0
100
AcDbArc
 50
65.80199599999065
 51
77.71803999998927
  0
ARC
  5
5A5C
330
A
100
AcDbEntity
  8
0
  6
Continuous
 62
     7
100
AcDbCircle
 10
40.00000000000006
 20
140.0
 30
0.0
 40
4.0
100
AcDbArc
 50
85.80199599999114
 51
90.0
  0
ARC
  5
5A5D
330
A
100
AcDbEntity
  8
0
  6
Continuous
 62
     7
100
AcDbCircle
 10
40.00000000000006
 20
140.0
 30
0.0
 40
4.0
100
AcDbArc
 50
90.0
 51
97.71803999999551
  0
ARC
  5
5A5E
330
A
100
AcDbEntity
  8
0
  6
Continuous
 62
     7
100
AcDbCircle
 10
40.00000000000006
 20
140.0
 30
0.0
 40
4.0
100
AcDbArc
 50
105.80199600001
 51
117.7180399999918
  0
ARC
  5
5A5F
330
A
100
AcDbEntity
  8
0
  6
Continuous
 62
     7
100
AcDbCircle
 10
40.00000000000006
 20
140.0
 30
0.0
 40
4.0
100
AcDbArc
 50
125.8019960000062
 51
137.7180400000061
  0
ARC
  5
5A60
330
A
100
AcDbEntity
  8
0
  6
Continuous
 62
     7
100
AcDbCircle
 10
40.00000000000006
 20
140.0
 30
0.0
 40
4.0
100
AcDbArc
 50
145.8019960000081
 51
157.7180400000034
  0
ARC
  5
5A61
330
A
100
AcDbEntity
  8
0
  6
Continuous
 62
     7
100
AcDbCircle
 10
40.00000000000006
 20
140.0
 30
0.0
 40
4.0
100
AcDbArc
 50
165.801996
 51
177.7180400000005
  0
ARC
  5
5A62
330
A
100
AcDbEntity
  8
0
  6
Continuous
 62
     7
100
AcDbCircle
 10
40.00000000000006
 20
140.0
 30
0.0
 40
4.0
100
AcDbArc
 50
185.8019959999995
 51
197.7180400000026
  0
ARC
  5
5A63
330
A
100
AcDbEntity
  8
0
  6
Continuous
 62
     7
100
AcDbCircle
 10
40.00000000000006
 20
140.0
 30
0.0
 40
4.0
100
AcDbArc
 50
205.8019960000001
 51
217.718040000005
  0
ARC
  5
5A64
330
A
100
AcDbEntity
  8
0
  6
Continuous
 62
     7
100
AcDbCircle
 10
40.00000000000006
 20
140.0
 30
0.0
 40
4.0
100
AcDbArc
 50
225.8019960000101
 51
237.71803999999
  0
ARC
  5
5A65
330
A
100
AcDbEntity
  8
0
  6
Continuous
 62
     7
100
AcDbCircle
 10
40.00000000000006
 20
140.0
 30
0.0
 40
4.0
100
AcDbArc
 50
265.8019959999911
 51
270.0
  0
ARC
  5
5A66
330
A
100
AcDbEntity
  8
0
  6
Continuous
 62
     7
100
AcDbCircle
 10
40.00000000000006
 20
140.0
 30
0.0
 40
4.0
100
AcDbArc
 50
270.0
 51
277.7180399999955
  0
ARC
  5
5A67
330
A
100
AcDbEntity
  8
0
  6
Continuous
 62
     7
100
AcDbCircle
 10
40.00000000000006
 20
140.0
 30
0.0
 40
4.0
100
AcDbArc
 50
285.8019960000099
 51
297.718039999992
  0
ARC
  5
5A68
330
A
100
AcDbEntity
  8
0
  6
Continuous
 62
     7
100
AcDbCircle
 10
40.00000000000006
 20
140.0
 30
0.0
 40
4.0
100
AcDbArc
 50
305.8019960000064
 51
317.7180400000073
  0
LINE
  5
5A69
330
A
100
AcDbEntity
  8
0
  6
Continuous
 62
     7
100
AcDbLine
 10
8.824999999999873
 20
136.0
 30
0.0
 11
8.824999999999873
 21
144.0
 31
0.0
  0
LINE
  5
5A6A
330
A
100
AcDbEntity
  8
0
  6
Continuous
 62
     9
100
AcDbLine
 10
1.824999999999945
 20
136.0
 30
0.0
 11
1.824999999999945
 21
144.0
 31
0.0
  0
LINE
  5
5A6B
330
A
100
AcDbEntity
  8
0
  6
Continuous
 62
     7
100
AcDbLine
 10
-5.175000000000054
 20
136.0
 30
0.0
 11
-5.175000000000054
 21
144.0
 31
0.0
  0
LINE
  5
5A6C
330
A
100
AcDbEntity
  8
0
  6
Continuous
 62
     9
100
AcDbLine
 10
53.00000000000006
 20
148.5
 30
0.0
 11
45.50000000000006
 21
148.5
 31
0.0
  0
LINE
  5
5A6D
330
A
100
AcDbEntity
  8
0
  6
Continuous
 62
     9
100
AcDbLine
 10
45.50000000000006
 20
148.5
 30
0.0
 11
45.50000000000006
 21
152.5
 31
0.0
  0
LINE
  5
5A6E
330
A
100
AcDbEntity
  8
0
  6
Continuous
 62
     7
100
AcDbLine
 10
45.50000000000006
 20
152.5
 30
0.0
 11
49.00000000000005
 21
152.5
 31
0.0
  0
ARC
  5
5A6F
330
A
100
AcDbEntity
  8
0
  6
Continuous
 62
     7
100
AcDbCircle
 10
49.00000000000005
 20
148.5
 30
0.0
 40
4.0
100
AcDbArc
 50
0.0
 51
90.0
  0
LINE
  5
5A70
330
A
100
AcDbEntity
  8
0
  6
Continuous
 62
     7
100
AcDbLine
 10
53.00000000000006
 20
145.4999999999996
 30
0.0
 11
45.50000000000006
 21
145.4999999999996
 31
0.0
  0
LINE
  5
5A71
330
A
100
AcDbEntity
  8
0
  6
Continuous
 62
     9
100
AcDbLine
 10
45.50000000000006
 20
145.4999999999996
 30
0.0
 11
45.50000000000006
 21
148.5
 31
0.0
  0
LINE
  5
5A72
330
A
100
AcDbEntity
  8
0
  6
Continuous
 62
     7
100
AcDbLine
 10
53.00000000000006
 20
148.5
 30
0.0
 11
53.00000000000006
 21
145.4999999999996
 31
0.0
  0
LINE
  5
5A73
330
A
100
AcDbEntity
  8
0
  6
Continuous
 62
     9
100
AcDbLine
 10
45.50000000000006
 20
148.5
 30
0.0
 11
-9.499999999999872
 21
148.5
 31
0.0
  0
LINE
  5
5A74
330
A
100
AcDbEntity
  8
0
  6
Continuous
 62
     9
100
AcDbLine
 10
-9.499999999999872
 20
148.5
 30
0.0
 11
-9.499999999999872
 21
152.5
 31
0.0
  0
LINE
  5
5A75
330
A
100
AcDbEntity
  8
0
  6
Continuous
 62
     7
100
AcDbLine
 10
-9.499999999999872
 20
152.5
 30
0.0
 11
45.50000000000006
 21
152.5
 31
0.0
  0
LINE
  5
5A76
330
A
100
AcDbEntity
  8
0
  6
Continuous
 62
     9
100
AcDbLine
 10
-9.499999999999872
 20
148.5
 30
0.0
 11
-9.499999999999872
 21
145.4999999999996
 31
0.0
  0
LINE
  5
5A77
330
A
100
AcDbEntity
  8
0
  6
Continuous
 62
     7
100
AcDbLine
 10
-9.499999999999872
 20
145.4999999999996
 30
0.0
 11
45.50000000000006
 21
145.4999999999996
 31
0.0
  0
LINE
  5
5A78
330
A
100
AcDbEntity
  8
0
  6
Continuous
 62
     9
100
AcDbLine
 10
-9.499999999999872
 20
148.5
 30
0.0
 11
-16.99999999999987
 21
148.5
 31
0.0
  0
ARC
  5
5A79
330
A
100
AcDbEntity
  8
0
  6
Continuous
 62
     7
100
AcDbCircle
 10
-12.99999999999987
 20
148.5
 30
0.0
 40
4.0
100
AcDbArc
 50
90.0
 51
180.0
  0
LINE
  5
5A7A
330
A
100
AcDbEntity
  8
0
  6
Continuous
 62
     7
100
AcDbLine
 10
-12.99999999999987
 20
152.5
 30
0.0
 11
-9.499999999999872
 21
152.5
 31
0.0
  0
LINE
  5
5A7B
330
A
100
AcDbEntity
  8
0
  6
Continuous
 62
     7
100
AcDbLine
 10
-16.99999999999987
 20
145.4999999999996
 30
0.0
 11
-16.99999999999987
 21
148.5
 31
0.0
  0
LINE
  5
5A7C
330
A
100
AcDbEntity
  8
0
  6
Continuous
 62
     7
100
AcDbLine
 10
-9.499999999999872
 20
145.4999999999996
 30
0.0
 11
-16.99999999999987
 21
145.4999999999996
 31
0.0
  0
LINE
  5
5A7D
330
A
100
AcDbEntity
  8
0
  6
Continuous
 62
     7
100
AcDbLine
 10
53.00000000000006
 20
135.0
 30
0.0
 11
50.50000000000006
 21
135.0
 31
0.0
  0
ARC
  5
5A7E
330
A
100
AcDbEntity
  8
0
  6
Continuous
 62
     7
100
AcDbCircle
 10
40.00000000000006
 20
140.0
 30
0.0
 40
4.099999999999996
100
AcDbArc
 50
282.6803830000083
 51
77.31961599999431
  0
ARC
  5
5A7F
330
A
100
AcDbEntity
  8
0
  6
Continuous
 62
     7
100
AcDbCircle
 10
40.00000000000006
 20
140.0
 30
0.0
 40
4.099999999999996
100
AcDbArc
 50
102.6803830000082
 51
257.3196159999942
  0
LINE
  5
5A80
330
A
100
AcDbEntity
  8
0
  6
Continuous
 62
     7
100
AcDbLine
 10
8.875000000000043
 20
144.0
 30
0.0
 11
8.875000000000043
 21
136.0
 31
0.0
  0
LINE
  5
5A81
330
A
100
AcDbEntity
  8
0
  6
Continuous
 62
     7
100
AcDbLine
 10
53.00000000000006
 20
145.4999999999996
 30
0.0
 11
53.00000000000006
 21
135.0
 31
0.0
  0
ARC
  5
5A82
330
A
100
AcDbEntity
  8
0
  6
Continuous
 62
     7
100
AcDbCircle
 10
40.00000000000006
 20
140.0
 30
0.0
 40
4.009999999999998
100
AcDbArc
 50
345.6531140000013
 51
357.8640439999974
  0
ARC
  5
5A83
330
A
100
AcDbEntity
  8
0
  6
Continuous
 62
     7
100
AcDbCircle
 10
40.00000000000006
 20
140.0
 30
0.0
 40
4.009999999999998
100
AcDbArc
 50
325.6598669999975
 51
337.8611049999993
  0
ARC
  5
5A84
330
A
100
AcDbEntity
  8
0
  6
Continuous
 62
     7
100
AcDbCircle
 10
40.00000000000006
 20
140.0
 30
0.0
 40
4.009999999999998
100
AcDbArc
 50
305.6468910000107
 51
317.8788450000071
  0
ARC
  5
5A85
330
A
100
AcDbEntity
  8
0
  6
Continuous
 62
     7
100
AcDbCircle
 10
40.00000000000006
 20
140.0
 30
0.0
 40
4.009999999999998
100
AcDbArc
 50
285.6531139999994
 51
297.8640440000116
  0
ARC
  5
5A86
330
A
100
AcDbEntity
  8
0
  6
Continuous
 62
     7
100
AcDbCircle
 10
40.00000000000006
 20
140.0
 30
0.0
 40
4.009999999999998
100
AcDbArc
 50
274.0472099999924
 51
277.8611049999931
  0
ARC
  5
5A87
330
A
100
AcDbEntity
  8
0
  6
Continuous
 62
     7
100
AcDbCircle
 10
40.00000000000006
 20
140.0
 30
0.0
 40
4.009999999999998
100
AcDbArc
 50
245.6468909999991
 51
257.8788449999871
  0
ARC
  5
5A88
330
A
100
AcDbEntity
  8
0
  6
Continuous
 62
     7
100
AcDbCircle
 10
40.00000000000006
 20
140.0
 30
0.0
 40
4.009999999999998
100
AcDbArc
 50
225.6531139999933
 51
237.8640440000013
  0
ARC
  5
5A89
330
A
100
AcDbEntity
  8
0
  6
Continuous
 62
     7
100
AcDbCircle
 10
40.00000000000006
 20
140.0
 30
0.0
 40
4.009999999999998
100
AcDbArc
 50
205.6598670000041
 51
217.861104999994
  0
ARC
  5
5A8A
330
A
100
AcDbEntity
  8
0
  6
Continuous
 62
     7
100
AcDbCircle
 10
40.00000000000006
 20
140.0
 30
0.0
 40
4.009999999999998
100
AcDbArc
 50
185.6468909999995
 51
197.8788449999976
  0
ARC
  5
5A8B
330
A
100
AcDbEntity
  8
0
  6
Continuous
 62
     7
100
AcDbCircle
 10
40.00000000000006
 20
140.0
 30
0.0
 40
4.009999999999998
100
AcDbArc
 50
165.653114000001
 51
177.8640439999974
  0
ARC
  5
5A8C
330
A
100
AcDbEntity
  8
0
  6
Continuous
 62
     7
100
AcDbCircle
 10
40.00000000000006
 20
140.0
 30
0.0
 40
4.009999999999998
100
AcDbArc
 50
145.6598669999986
 51
157.8611049999994
  0
ARC
  5
5A8D
330
A
100
AcDbEntity
  8
0
  6
Continuous
 62
     7
100
AcDbCircle
 10
40.00000000000006
 20
140.0
 30
0.0
 40
4.009999999999998
100
AcDbArc
 50
125.6468910000106
 51
137.8788450000062
  0
ARC
  5
5A8E
330
A
100
AcDbEntity
  8
0
  6
Continuous
 62
     7
100
AcDbCircle
 10
40.00000000000006
 20
140.0
 30
0.0
 40
4.009999999999998
100
AcDbArc
 50
105.6531139999995
 51
117.8640440000117
  0
ARC
  5
5A8F
330
A
100
AcDbEntity
  8
0
  6
Continuous
 62
     7
100
AcDbCircle
 10
40.00000000000006
 20
140.0
 30
0.0
 40
4.009999999999998
100
AcDbArc
 50
94.0472099999924
 51
97.86110499999306
  0
ARC
  5
5A90
330
A
100
AcDbEntity
  8
0
  6
Continuous
 62
     7
100
AcDbCircle
 10
40.00000000000006
 20
140.0
 30
0.0
 40
4.009999999999998
100
AcDbArc
 50
65.64689099999926
 51
77.87884499998707
  0
ARC
  5
5A91
330
A
100
AcDbEntity
  8
0
  6
Continuous
 62
     7
100
AcDbCircle
 10
40.00000000000006
 20
140.0
 30
0.0
 40
4.009999999999998
100
AcDbArc
 50
45.65311399999442
 51
57.86404400000143
  0
ARC
  5
5A92
330
A
100
AcDbEntity
  8
0
  6
Continuous
 62
     7
100
AcDbCircle
 10
40.00000000000006
 20
140.0
 30
0.0
 40
4.009999999999998
100
AcDbArc
 50
25.65986700000431
 51
37.86110499999418
  0
ARC
  5
5A93
330
A
100
AcDbEntity
  8
0
  6
Continuous
 62
     7
100
AcDbCircle
 10
40.00000000000006
 20
140.0
 30
0.0
 40
4.009999999999998
100
AcDbArc
 50
5.646890999999549
 51
17.87884499999806
  0
ARC
  5
5A94
330
A
100
AcDbEntity
  8
0
  6
Continuous
 62
     7
100
AcDbCircle
 10
103.9798289999999
 20
127.95
 30
0.0
 40
0.5
100
AcDbArc
 50
270.0
 51
295.8419329999879
  0
ARC
  5
5A95
330
A
100
AcDbEntity
  8
0
  6
Continuous
 62
     7
100
AcDbCircle
 10
94.02017100000026
 20
127.95
 30
0.0
 40
0.5
100
AcDbArc
 50
244.1580670000121
 51
270.0
  0
ARC
  5
5A96
330
A
100
AcDbEntity
  8
0
  6
Continuous
 62
     7
100
AcDbCircle
 10
17.97982899999995
 20
127.95
 30
0.0
 40
0.5
100
AcDbArc
 50
270.0
 51
295.8419329999879
  0
ARC
  5
5A97
330
A
100
AcDbEntity
  8
0
  6
Continuous
 62
     7
100
AcDbCircle
 10
8.020171000000161
 20
127.95
 30
0.0
 40
0.5
100
AcDbArc
 50
244.1580670000121
 51
270.0
  0
LINE
  5
5A98
330
A
100
AcDbEntity
  8
0
  6
Continuous
 62
     9
100
AcDbLine
 10
60.11999999999995
 20
12.69699899999979
 30
0.0
 11
60.11999999999995
 21
57.30300099999977
 31
0.0
  0
ARC
  5
5A99
330
A
100
AcDbEntity
  8
0
  6
Continuous
 62
     7
100
AcDbCircle
 10
71.15067800000006
 20
-11.31755799999995
 30
0.0
 40
26.426782
100
AcDbArc
 50
114.6708789999899
 51
122.3753330000104
  0
LINE
  5
5A9A
330
A
100
AcDbEntity
  8
0
  6
Continuous
 62
     7
100
AcDbLine
 10
57.00000000000006
 20
11.02213600000006
 30
0.0
 11
57.00010699999996
 21
11.00140599999987
 31
0.0
  0
LINE
  5
5A9B
330
A
100
AcDbEntity
  8
0
  6
Continuous
 62
     7
100
AcDbLine
 10
57.00000000000006
 20
11.02213600000006
 30
0.0
 11
57.00000000000006
 21
58.97786399999974
 31
0.0
  0
LINE
  5
5A9C
330
A
100
AcDbEntity
  8
0
  6
Continuous
 62
     7
100
AcDbLine
 10
57.00010699999996
 20
58.99859400000003
 30
0.0
 11
57.00000000000006
 21
58.97786399999974
 31
0.0
  0
ARC
  5
5A9D
330
A
100
AcDbEntity
  8
0
  6
Continuous
 62
     7
100
AcDbCircle
 10
71.15067800000006
 20
81.31755799999996
 30
0.0
 40
26.426782
100
AcDbArc
 50
237.6246669999896
 51
245.32912100001
  0
ARC
  5
5A9E
330
A
100
AcDbEntity
  8
0
  6
Continuous
 62
     9
100
AcDbCircle
 10
55.00000000000006
 20
6.549999999999734
 30
0.0
 40
8.0
100
AcDbArc
 50
0.0
 51
50.20818100000383
  0
LINE
  5
5A9F
330
A
100
AcDbEntity
  8
0
  6
Continuous
 62
     9
100
AcDbLine
 10
63.00000000000006
 20
6.549999999999734
 30
0.0
 11
59.00000000000005
 21
6.549999999999734
 31
0.0
  0
ARC
  5
5AA0
330
A
100
AcDbEntity
  8
0
  6
Continuous
 62
     7
100
AcDbCircle
 10
55.00000000000006
 20
6.549999999999734
 30
0.0
 40
4.0
100
AcDbArc
 50
0.0
 51
48.18968499999703
  0
LINE
  5
5AA8
330
A
100
AcDbEntity
  8
0
  6
Continuous
 62
     9
100
AcDbLine
 10
59.00000000000005
 20
63.45000000000005
 30
0.0
 11
63.00000000000006
 21
63.45000000000005
 31
0.0
  0
ARC
  5
5AA9
330
A
100
AcDbEntity
  8
0
  6
Continuous
 62
     9
100
AcDbCircle
 10
55.00000000000006
 20
63.45000000000005
 30
0.0
 40
8.0
100
AcDbArc
 50
309.7918189999962
 51
0.0
  0
ARC
  5
5AAA
330
A
100
AcDbEntity
  8
0
  6
Continuous
 62
     7
100
AcDbCircle
 10
59.00000000000005
 20
58.97786399999974
 30
0.0
 40
2.0
100
AcDbArc
 50
131.8103150000029
 51
179.4061309999994
  0
ARC
  5
5AAB
330
A
100
AcDbEntity
  8
0
  6
Continuous
 62
     7
100
AcDbCircle
 10
55.00000000000006
 20
63.45000000000005
 30
0.0
 40
4.0
100
AcDbArc
 50
311.8103150000031
 51
0.0
  0
LINE
  5
5AAC
330
A
100
AcDbEntity
  8
0
  6
Continuous
 62
     9
100
AcDbLine
 10
63.00000000000006
 20
6.549999999999734
 30
0.0
 11
63.00000000000006
 21
-7.499999999999992
 31
0.0
  0
LINE
  5
5AAD
330
A
100
AcDbEntity
  8
0
  6
Continuous
 62
     9
100
AcDbLine
 10
63.00000000000006
 20
-7.499999999999992
 30
0.0
 11
59.00000000000005
 21
-7.499999999999992
 31
0.0
  0
LINE
  5
5AAE
330
A
100
AcDbEntity
  8
0
  6
Continuous
 62
     7
100
AcDbLine
 10
59.00000000000005
 20
-7.499999999999992
 30
0.0
 11
59.00000000000005
 21
6.549999999999734
 31
0.0
  0
LINE
  5
5AAF
330
A
100
AcDbEntity
  8
0
  6
Continuous
 62
     7
100
AcDbLine
 10
59.00000000000005
 20
63.45000000000005
 30
0.0
 11
59.00000000000005
 21
77.5
 31
0.0
  0
LINE
  5
5AB0
330
A
100
AcDbEntity
  8
0
  6
Continuous
 62
     9
100
AcDbLine
 10
59.00000000000005
 20
77.5
 30
0.0
 11
63.00000000000006
 21
77.5
 31
0.0
  0
LINE
  5
5AB1
330
A
100
AcDbEntity
  8
0
  6
Continuous
 62
     9
100
AcDbLine
 10
63.00000000000006
 20
77.5
 30
0.0
 11
63.00000000000006
 21
63.45000000000005
 31
0.0
  0
ARC
  5
5AB2
330
A
100
AcDbEntity
  8
0
  6
Continuous
 62
     7
100
AcDbCircle
 10
66.50000000000006
 20
77.5
 30
0.0
 40
7.5
100
AcDbArc
 50
90.0
 51
180.0
  0
LINE
  5
5AB3
330
A
100
AcDbEntity
  8
0
  6
Continuous
 62
     9
100
AcDbLine
 10
66.50000000000006
 20
85.0
 30
0.0
 11
66.50000000000006
 21
81.0
 31
0.0
  0
ARC
  5
5AB4
330
A
100
AcDbEntity
  8
0
  6
Continuous
 62
     9
100
AcDbCircle
 10
66.50000000000006
 20
77.5
 30
0.0
 40
3.5
100
AcDbArc
 50
90.0
 51
180.0
  0
ARC
  5
5AB5
330
A
100
AcDbEntity
  8
0
  6
Continuous
 62
     9
100
AcDbCircle
 10
66.50000000000006
 20
-7.499999999999992
 30
0.0
 40
3.5
100
AcDbArc
 50
180.0
 51
270.0
  0
LINE
  5
5AB6
330
A
100
AcDbEntity
  8
0
  6
Continuous
 62
     9
100
AcDbLine
 10
66.50000000000006
 20
-11.0
 30
0.0
 11
66.50000000000006
 21
-15.0
 31
0.0
  0
ARC
  5
5AB7
330
A
100
AcDbEntity
  8
0
  6
Continuous
 62
     7
100
AcDbCircle
 10
66.50000000000006
 20
-7.499999999999992
 30
0.0
 40
7.5
100
AcDbArc
 50
180.0
 51
270.0
  0
LINE
  5
5AB8
330
A
100
AcDbEntity
  8
0
  6
Continuous
 62
     9
100
AcDbLine
 10
121.5
 20
81.0
 30
0.0
 11
66.50000000000006
 21
81.0
 31
0.0
  0
ARC
  5
5AB9
330
A
100
AcDbEntity
  8
0
  6
Continuous
 62
     9
100
AcDbCircle
 10
121.5
 20
77.5
 30
0.0
 40
3.5
100
AcDbArc
 50
0.0
 51
90.0
  0
LINE
  5
5ABA
330
A
100
AcDbEntity
  8
0
  6
Continuous
 62
     9
100
AcDbLine
 10
125.0
 20
-7.499999999999992
 30
0.0
 11
125.0
 21
77.5
 31
0.0
  0
ARC
  5
5ABB
330
A
100
AcDbEntity
  8
0
  6
Continuous
 62
     9
100
AcDbCircle
 10
121.5
 20
-7.499999999999992
 30
0.0
 40
3.5
100
AcDbArc
 50
270.0
 51
0.0
  0
LINE
  5
5ABC
330
A
100
AcDbEntity
  8
0
  6
Continuous
 62
     9
100
AcDbLine
 10
66.50000000000006
 20
-11.0
 30
0.0
 11
121.5
 21
-11.0
 31
0.0
  0
LINE
  5
5ABD
330
A
100
AcDbEntity
  8
0
  6
Continuous
 62
     7
100
AcDbLine
 10
66.50000000000006
 20
85.0
 30
0.0
 11
121.5
 21
85.0
 31
0.0
  0
LINE
  5
5ABE
330
A
100
AcDbEntity
  8
0
  6
Continuous
 62
     9
100
AcDbLine
 10
121.5
 20
85.0
 30
0.0
 11
121.5
 21
81.0
 31
0.0
  0
LINE
  5
5ABF
330
A
100
AcDbEntity
  8
0
  6
Continuous
 62
     9
100
AcDbLine
 10
121.5
 20
-11.0
 30
0.0
 11
121.5
 21
-15.0
 31
0.0
  0
LINE
  5
5AC0
330
A
100
AcDbEntity
  8
0
  6
Continuous
 62
     7
100
AcDbLine
 10
121.5
 20
-15.0
 30
0.0
 11
66.50000000000006
 21
-15.0
 31
0.0
  0
LINE
  5
5AC1
330
A
100
AcDbEntity
  8
0
  6
Continuous
 62
     9
100
AcDbLine
 10
125.0
 20
-7.499999999999992
 30
0.0
 11
129.0000000000001
 21
-7.499999999999992
 31
0.0
  0
ARC
  5
5AC2
330
A
100
AcDbEntity
  8
0
  6
Continuous
 62
     7
100
AcDbCircle
 10
121.5
 20
-7.499999999999992
 30
0.0
 40
7.5
100
AcDbArc
 50
270.0
 51
0.0
  0
ARC
  5
5AC3
330
A
100
AcDbEntity
  8
0
  6
Continuous
 62
     7
100
AcDbCircle
 10
121.5
 20
77.5
 30
0.0
 40
7.5
100
AcDbArc
 50
0.0
 51
90.0
  0
LINE
  5
5AC4
330
A
100
AcDbEntity
  8
0
  6
Continuous
 62
     9
100
AcDbLine
 10
129.0000000000001
 20
77.5
 30
0.0
 11
125.0
 21
77.5
 31
0.0
  0
LINE
  5
5AC5
330
A
100
AcDbEntity
  8
0
  6
Continuous
 62
     7
100
AcDbLine
 10
129.0000000000001
 20
77.5
 30
0.0
 11
129.0000000000001
 21
-7.499999999999992
 31
0.0
  0
LINE
  5
5AC6
330
A
100
AcDbEntity
  8
0
  6
Continuous
 62
     9
100
AcDbLine
 10
41.78790699999995
 20
29.00000000000001
 30
0.0
 11
41.78790699999995
 21
41.0
 31
0.0
  0
LINE
  5
5AC7
330
A
100
AcDbEntity
  8
0
  6
Continuous
 62
     9
100
AcDbLine
 10
42.58689600000036
 20
41.0
 30
0.0
 11
42.58689600000036
 21
29.00000000000001
 31
0.0
  0
LINE
  5
5AC8
330
A
100
AcDbEntity
  8
0
  6
Continuous
 62
     7
100
AcDbLine
 10
42.58689600000036
 20
29.00000000000001
 30
0.0
 11
41.78790699999995
 21
29.00000000000001
 31
0.0
  0
LINE
  5
5AC9
330
A
100
AcDbEntity
  8
0
  6
Continuous
 62
     7
100
AcDbLine
 10
41.78790699999995
 20
41.0
 30
0.0
 11
42.58689600000036
 21
41.0
 31
0.0
  0
LINE
  5
5ACA
330
A
100
AcDbEntity
  8
0
  6
Continuous
 62
     7
100
AcDbLine
 10
48.50430000000014
 20
41.0
 30
0.0
 11
48.50430000000014
 21
29.00000000000001
 31
0.0
  0
LINE
  5
5ACB
330
A
100
AcDbEntity
  8
0
  6
Continuous
 62
     7
100
AcDbLine
 10
42.58689600000036
 20
29.00000000000001
 30
0.0
 11
48.50430000000014
 21
29.00000000000001
 31
0.0
  0
LINE
  5
5ACC
330
A
100
AcDbEntity
  8
0
  6
Continuous
 62
     7
100
AcDbLine
 10
42.58689600000036
 20
41.0
 30
0.0
 11
48.50430000000014
 21
41.0
 31
0.0
  0
LINE
  5
5ACD
330
A
100
AcDbEntity
  8
0
  6
Continuous
 62
     9
100
AcDbLine
 10
37.22448700000004
 20
29.00000000000001
 30
0.0
 11
37.22448700000004
 21
41.0
 31
0.0
  0
LINE
  5
5ACE
330
A
100
AcDbEntity
  8
0
  6
Continuous
 62
     9
100
AcDbLine
 10
38.44684400000014
 20
41.0
 30
0.0
 11
38.44684400000014
 21
29.00000000000001
 31
0.0
  0
LINE
  5
5ACF
330
A
100
AcDbEntity
  8
0
  6
Continuous
 62
     7
100
AcDbLine
 10
38.44684400000014
 20
29.00000000000001
 30
0.0
 11
37.22448700000004
 21
29.00000000000001
 31
0.0
  0
LINE
  5
5AD0
330
A
100
AcDbEntity
  8
0
  6
Continuous
 62
     7
100
AcDbLine
 10
37.22448700000004
 20
41.0
 30
0.0
 11
38.44684400000014
 21
41.0
 31
0.0
  0
LINE
  5
5AD1
330
A
100
AcDbEntity
  8
0
  6
Continuous
 62
     7
100
AcDbLine
 10
41.78790699999995
 20
29.00000000000001
 30
0.0
 11
38.44684400000014
 21
29.00000000000001
 31
0.0
  0
LINE
  5
5AD2
330
A
100
AcDbEntity
  8
0
  6
Continuous
 62
     7
100
AcDbLine
 10
41.78790699999995
 20
41.0
 30
0.0
 11
38.44684400000014
 21
41.0
 31
0.0
  0
LINE
  5
5AD3
330
A
100
AcDbEntity
  8
0
  6
Continuous
 62
     7
100
AcDbLine
 10
26.90999999999994
 20
29.00000000000001
 30
0.0
 11
26.90999999999994
 21
41.0
 31
0.0
  0
LINE
  5
5AD4
330
A
100
AcDbEntity
  8
0
  6
Continuous
 62
     7
100
AcDbLine
 10
26.90999999999994
 20
29.00000000000001
 30
0.0
 11
37.22448700000004
 21
29.00000000000001
 31
0.0
  0
LINE
  5
5AD5
330
A
100
AcDbEntity
  8
0
  6
Continuous
 62
     7
100
AcDbLine
 10
26.90999999999994
 20
41.0
 30
0.0
 11
37.22448700000004
 21
41.0
 31
0.0
  0
LINE
  5
5AD6
330
A
100
AcDbEntity
  8
0
  6
Continuous
 62
     9
100
AcDbLine
 10
26.71455700000038
 20
41.0
 30
0.0
 11
26.71455700000038
 21
29.00000000000001
 31
0.0
  0
LINE
  5
5AD7
330
A
100
AcDbEntity
  8
0
  6
Continuous
 62
     7
100
AcDbLine
 10
26.71455700000038
 20
29.00000000000001
 30
0.0
 11
26.90999999999994
 21
29.00000000000001
 31
0.0
  0
LINE
  5
5AD8
330
A
100
AcDbEntity
  8
0
  6
Continuous
 62
     7
100
AcDbLine
 10
26.71455700000038
 20
41.0
 30
0.0
 11
26.90999999999994
 21
41.0
 31
0.0
  0
LINE
  5
5AD9
330
A
100
AcDbEntity
  8
0
  6
Continuous
 62
     7
100
AcDbLine
 10
26.65380000000016
 20
41.0
 30
0.0
 11
26.71455700000038
 21
41.0
 31
0.0
  0
LINE
  5
5ADA
330
A
100
AcDbEntity
  8
0
  6
Continuous
 62
     7
100
AcDbLine
 10
26.71455700000038
 20
29.00000000000001
 30
0.0
 11
26.65380000000016
 21
29.00000000000001
 31
0.0
  0
LINE
  5
5ADB
330
A
100
AcDbEntity
  8
0
  6
Continuous
 62
     9
100
AcDbLine
 10
41.00000000000005
 20
41.10000000000002
 30
0.0
 11
41.00000000000005
 21
59.00000000000001
 31
0.0
  0
LINE
  5
5ADC
330
A
100
AcDbEntity
  8
0
  6
Continuous
 62
     7
100
AcDbLine
 10
41.00000000000005
 20
41.10000000000002
 30
0.0
 11
30.00000000000006
 21
41.10000000000002
 31
0.0
  0
LINE
  5
5ADD
330
A
100
AcDbEntity
  8
0
  6
Continuous
 62
     7
100
AcDbLine
 10
41.00000000000005
 20
59.00000000000001
 30
0.0
 11
30.00000000000006
 21
59.00000000000001
 31
0.0
  0
LINE
  5
5ADE
330
A
100
AcDbEntity
  8
0
  6
Continuous
 62
     7
100
AcDbLine
 10
30.00000000000006
 20
28.89999999999976
 30
0.0
 11
41.00000000000005
 21
28.89999999999976
 31
0.0
  0
LINE
  5
5ADF
330
A
100
AcDbEntity
  8
0
  6
Continuous
 62
     9
100
AcDbLine
 10
41.00000000000005
 20
11.0
 30
0.0
 11
41.00000000000005
 21
28.89999999999976
 31
0.0
  0
LINE
  5
5AE0
330
A
100
AcDbEntity
  8
0
  6
Continuous
 62
     7
100
AcDbLine
 10
41.00000000000005
 20
11.0
 30
0.0
 11
30.00000000000006
 21
11.0
 31
0.0
  0
ARC
  5
5AE1
330
A
100
AcDbEntity
  8
0
  6
Continuous
 62
     7
100
AcDbCircle
 10
46.80000000000027
 20
29.10000000000003
 30
0.0
 40
0.2
100
AcDbArc
 50
270.0
 51
330.0000020000011
  0
ARC
  5
5AE2
330
A
100
AcDbEntity
  8
0
  6
Continuous
 62
     7
100
AcDbCircle
 10
46.80000000000027
 20
40.89999999999975
 30
0.0
 40
0.2
100
AcDbArc
 50
30.000001999995
 51
90.0
  0
LINE
  5
5AE3
330
A
100
AcDbEntity
  8
0
  6
Continuous
 62
     7
100
AcDbLine
 10
57.00000000000006
 20
11.0
 30
0.0
 11
57.00000000000006
 21
11.02213600000006
 31
0.0
  0
LINE
  5
5AE4
330
A
100
AcDbEntity
  8
0
  6
Continuous
 62
     7
100
AcDbLine
 10
57.00000000000006
 20
58.97786399999974
 30
0.0
 11
57.00000000000006
 21
59.00000000000001
 31
0.0
  0
LINE
  5
5AE5
330
A
100
AcDbEntity
  8
0
  6
Continuous
 62
     7
100
AcDbLine
 10
46.80000000000027
 20
41.10000000000002
 30
0.0
 11
41.00000000000005
 21
41.10000000000002
 31
0.0
  0
LINE
  5
5AE6
330
A
100
AcDbEntity
  8
0
  6
Continuous
 62
     7
100
AcDbLine
 10
57.00000000000006
 20
59.00000000000001
 30
0.0
 11
41.00000000000005
 21
59.00000000000001
 31
0.0
  0
LINE
  5
5AE7
330
A
100
AcDbEntity
  8
0
  6
Continuous
 62
     7
100
AcDbLine
 10
41.00000000000005
 20
28.89999999999976
 30
0.0
 11
46.80000000000027
 21
28.89999999999976
 31
0.0
  0
LINE
  5
5AE8
330
A
100
AcDbEntity
  8
0
  6
Continuous
 62
     7
100
AcDbLine
 10
57.00000000000006
 20
11.0
 30
0.0
 11
41.00000000000005
 21
11.0
 31
0.0
  0
LINE
  5
5AE9
330
A
100
AcDbEntity
  8
0
  6
Continuous
 62
     7
100
AcDbLine
 10
26.20499999999996
 20
29.79999999999974
 30
0.0
 11
26.65380000000016
 21
29.79999999999974
 31
0.0
  0
LINE
  5
5AEA
330
A
100
AcDbEntity
  8
0
  6
Continuous
 62
     7
100
AcDbLine
 10
26.65380000000016
 20
29.49999999999978
 30
0.0
 11
26.20499999999996
 21
29.49999999999978
 31
0.0
  0
LINE
  5
5AEB
330
A
100
AcDbEntity
  8
0
  6
Continuous
 62
     7
100
AcDbLine
 10
26.65380000000016
 20
40.20000000000005
 30
0.0
 11
26.20499999999996
 21
40.20000000000005
 31
0.0
  0
LINE
  5
5AEC
330
A
100
AcDbEntity
  8
0
  6
Continuous
 62
     7
100
AcDbLine
 10
26.20499999999996
 20
40.5
 30
0.0
 11
26.65380000000016
 21
40.5
 31
0.0
  0
LINE
  5
5AED
330
A
100
AcDbEntity
  8
0
  6
Continuous
 62
     9
100
AcDbLine
 10
31.75000000000006
 20
10.54999999999973
 30
0.0
 11
48.25000000000006
 21
10.54999999999973
 31
0.0
  0
LINE
  5
5AEE
330
A
100
AcDbEntity
  8
0
  6
Continuous
 62
     7
100
AcDbLine
 10
32.34999999999994
 20
9.950000000000045
 30
0.0
 11
47.65000000000014
 21
9.950000000000045
 31
0.0
  0
LINE
  5
5AEF
330
A
100
AcDbEntity
  8
0
  6
Continuous
 62
     7
100
AcDbLine
 10
26.20499999999996
 20
42.0
 30
0.0
 11
26.20499999999996
 21
28.00000000000001
 31
0.0
  0
LINE
  5
5AF0
330
A
100
AcDbEntity
  8
0
  6
Continuous
 62
     7
100
AcDbLine
 10
44.69999999999996
 20
41.04999999999962
 30
0.0
 11
35.30000000000027
 21
41.04999999999962
 31
0.0
  0
LINE
  5
5AF1
330
A
100
AcDbEntity
  8
0
  6
Continuous
 62
     7
100
AcDbLine
 10
35.30000000000027
 20
28.95000000000005
 30
0.0
 11
35.74138400000004
 21
28.95000000000005
 31
0.0
  0
LINE
  5
5AF2
330
A
100
AcDbEntity
  8
0
  6
Continuous
 62
     7
100
AcDbLine
 10
35.74138400000004
 20
28.95000000000005
 30
0.0
 11
44.69999999999996
 21
28.95000000000005
 31
0.0
  0
ARC
  5
5AF3
330
A
100
AcDbEntity
  8
0
  6
Continuous
 62
     7
100
AcDbCircle
 10
-9.499999999999872
 20
-7.499999999999992
 30
0.0
 40
7.5
100
AcDbArc
 50
180.0
 51
270.0
  0
LINE
  5
5AF4
330
A
100
AcDbEntity
  8
0
  6
Continuous
 62
     9
100
AcDbLine
 10
-16.99999999999987
 20
-7.499999999999992
 30
0.0
 11
-12.99999999999987
 21
-7.499999999999992
 31
0.0
  0
ARC
  5
5AF5
330
A
100
AcDbEntity
  8
0
  6
Continuous
 62
     9
100
AcDbCircle
 10
-9.499999999999872
 20
-7.499999999999992
 30
0.0
 40
3.5
100
AcDbArc
 50
180.0
 51
270.0
  0
LINE
  5
5AF6
330
A
100
AcDbEntity
  8
0
  6
Continuous
 62
     9
100
AcDbLine
 10
-9.499999999999872
 20
-15.0
 30
0.0
 11
-9.499999999999872
 21
-11.0
 31
0.0
  0
ARC
  5
5AF7
330
A
100
AcDbEntity
  8
0
  6
Continuous
 62
     7
100
AcDbCircle
 10
-9.499999999999872
 20
77.5
 30
0.0
 40
7.5
100
AcDbArc
 50
90.0
 51
180.0
  0
LINE
  5
5AF8
330
A
100
AcDbEntity
  8
0
  6
Continuous
 62
     9
100
AcDbLine
 10
-9.499999999999872
 20
85.0
 30
0.0
 11
-9.499999999999872
 21
81.0
 31
0.0
  0
ARC
  5
5AF9
330
A
100
AcDbEntity
  8
0
  6
Continuous
 62
     9
100
AcDbCircle
 10
-9.499999999999872
 20
77.5
 30
0.0
 40
3.5
100
AcDbArc
 50
90.0
 51
180.0
  0
LINE
  5
5AFA
330
A
100
AcDbEntity
  8
0
  6
Continuous
 62
     9
100
AcDbLine
 10
-16.99999999999987
 20
77.5
 30
0.0
 11
-12.99999999999987
 21
77.5
 31
0.0
  0
LINE
  5
5AFB
330
A
100
AcDbEntity
  8
0
  6
Continuous
 62
     7
100
AcDbLine
 10
-16.99999999999987
 20
-7.499999999999992
 30
0.0
 11
-16.99999999999987
 21
77.5
 31
0.0
  0
LINE
  5
5AFC
330
A
100
AcDbEntity
  8
0
  6
Continuous
 62
     9
100
AcDbLine
 10
-12.99999999999987
 20
77.5
 30
0.0
 11
-12.99999999999987
 21
-7.499999999999992
 31
0.0
  0
LINE
  5
5AFD
330
A
100
AcDbEntity
  8
0
  6
Continuous
 62
     7
100
AcDbLine
 10
28.50000000000006
 20
42.0
 30
0.0
 11
28.50000000000006
 21
60.29999999999973
 31
0.0
  0
LINE
  5
5AFE
330
A
100
AcDbEntity
  8
0
  6
Continuous
 62
     7
100
AcDbLine
 10
22.00000000000004
 20
42.0
 30
0.0
 11
28.50000000000006
 21
42.0
 31
0.0
  0
LINE
  5
5AFF
330
A
100
AcDbEntity
  8
0
  6
Continuous
 62
     7
100
AcDbLine
 10
22.00000000000004
 20
28.00000000000001
 30
0.0
 11
22.00000000000004
 21
42.0
 31
0.0
  0
LINE
  5
5B00
330
A
100
AcDbEntity
  8
0
  6
Continuous
 62
     7
100
AcDbLine
 10
28.50000000000006
 20
28.00000000000001
 30
0.0
 11
22.00000000000004
 21
28.00000000000001
 31
0.0
  0
LINE
  5
5B01
330
A
100
AcDbEntity
  8
0
  6
Continuous
 62
     7
100
AcDbLine
 10
28.50000000000006
 20
9.700000000000056
 30
0.0
 11
28.50000000000006
 21
28.00000000000001
 31
0.0
  0
LINE
  5
5B02
330
A
100
AcDbEntity
  8
0
  6
Continuous
 62
     7
100
AcDbLine
 10
49.00000000000005
 20
9.700000000000056
 30
0.0
 11
28.50000000000006
 21
9.700000000000056
 31
0.0
  0
LINE
  5
5B03
330
A
100
AcDbEntity
  8
0
  6
Continuous
 62
     9
100
AcDbLine
 10
49.00000000000005
 20
-7.499999999999992
 30
0.0
 11
49.00000000000005
 21
9.700000000000056
 31
0.0
  0
ARC
  5
5B04
330
A
100
AcDbEntity
  8
0
  6
Continuous
 62
     9
100
AcDbCircle
 10
45.50000000000006
 20
-7.499999999999992
 30
0.0
 40
3.5
100
AcDbArc
 50
270.0
 51
0.0
  0
LINE
  5
5B05
330
A
100
AcDbEntity
  8
0
  6
Continuous
 62
     9
100
AcDbLine
 10
-9.499999999999872
 20
-11.0
 30
0.0
 11
45.50000000000006
 21
-11.0
 31
0.0
  0
LINE
  5
5B06
330
A
100
AcDbEntity
  8
0
  6
Continuous
 62
     9
100
AcDbLine
 10
45.50000000000006
 20
81.0
 30
0.0
 11
-9.499999999999872
 21
81.0
 31
0.0
  0
ARC
  5
5B07
330
A
100
AcDbEntity
  8
0
  6
Continuous
 62
     9
100
AcDbCircle
 10
45.50000000000006
 20
77.5
 30
0.0
 40
3.5
100
AcDbArc
 50
0.0
 51
90.0
  0
LINE
  5
5B08
330
A
100
AcDbEntity
  8
0
  6
Continuous
 62
     9
100
AcDbLine
 10
49.00000000000005
 20
60.29999999999973
 30
0.0
 11
49.00000000000005
 21
77.5
 31
0.0
  0
LINE
  5
5B09
330
A
100
AcDbEntity
  8
0
  6
Continuous
 62
     7
100
AcDbLine
 10
28.50000000000006
 20
60.29999999999973
 30
0.0
 11
49.00000000000005
 21
60.29999999999973
 31
0.0
  0
LINE
  5
5B0A
330
A
100
AcDbEntity
  8
0
  6
Continuous
 62
     7
100
AcDbLine
 10
-9.499999999999872
 20
85.0
 30
0.0
 11
45.50000000000006
 21
85.0
 31
0.0
  0
LINE
  5
5B0B
330
A
100
AcDbEntity
  8
0
  6
Continuous
 62
     9
100
AcDbLine
 10
45.50000000000006
 20
81.0
 30
0.0
 11
45.50000000000006
 21
85.0
 31
0.0
  0
LINE
  5
5B0C
330
A
100
AcDbEntity
  8
0
  6
Continuous
 62
     7
100
AcDbLine
 10
45.50000000000006
 20
-15.0
 30
0.0
 11
-9.499999999999872
 21
-15.0
 31
0.0
  0
LINE
  5
5B0D
330
A
100
AcDbEntity
  8
0
  6
Continuous
 62
     9
100
AcDbLine
 10
45.50000000000006
 20
-15.0
 30
0.0
 11
45.50000000000006
 21
-11.0
 31
0.0
  0
ARC
  5
5B0E
330
A
100
AcDbEntity
  8
0
  6
Continuous
 62
     7
100
AcDbCircle
 10
45.50000000000006
 20
77.5
 30
0.0
 40
7.5
100
AcDbArc
 50
0.0
 51
90.0
  0
LINE
  5
5B0F
330
A
100
AcDbEntity
  8
0
  6
Continuous
 62
     9
100
AcDbLine
 10
49.00000000000005
 20
77.5
 30
0.0
 11
53.00000000000006
 21
77.5
 31
0.0
  0
ARC
  5
5B10
330
A
100
AcDbEntity
  8
0
  6
Continuous
 62
     7
100
AcDbCircle
 10
45.50000000000006
 20
-7.499999999999992
 30
0.0
 40
7.5
100
AcDbArc
 50
270.0
 51
0.0
  0
LINE
  5
5B11
330
A
100
AcDbEntity
  8
0
  6
Continuous
 62
     9
100
AcDbLine
 10
53.00000000000006
 20
-7.499999999999992
 30
0.0
 11
49.00000000000005
 21
-7.499999999999992
 31
0.0
  0
LINE
  5
5B12
330
A
100
AcDbEntity
  8
0
  6
Continuous
 62
     7
100
AcDbLine
 10
53.00000000000006
 20
77.5
 30
0.0
 11
53.00000000000006
 21
60.29999999999973
 31
0.0
  0
LINE
  5
5B13
330
A
100
AcDbEntity
  8
0
  6
Continuous
 62
     7
100
AcDbLine
 10
53.00000000000006
 20
60.29999999999973
 30
0.0
 11
49.00000000000005
 21
60.29999999999973
 31
0.0
  0
LINE
  5
5B14
330
A
100
AcDbEntity
  8
0
  6
Continuous
 62
     7
100
AcDbLine
 10
53.00000000000006
 20
9.700000000000056
 30
0.0
 11
53.00000000000006
 21
-7.499999999999992
 31
0.0
  0
LINE
  5
5B15
330
A
100
AcDbEntity
  8
0
  6
Continuous
 62
     7
100
AcDbLine
 10
49.00000000000005
 20
9.700000000000056
 30
0.0
 11
53.00000000000006
 21
9.700000000000056
 31
0.0
  0
LINE
  5
5B16
330
A
100
AcDbEntity
  8
0
  6
Continuous
 62
     9
100
AcDbLine
 10
48.25000000000006
 20
59.45000000000006
 30
0.0
 11
37.13686000000016
 21
59.45000000000006
 31
0.0
  0
LINE
  5
5B17
330
A
100
AcDbEntity
  8
0
  6
Continuous
 62
     7
100
AcDbLine
 10
47.65000000000014
 20
60.04999999999997
 30
0.0
 11
37.34508900000006
 21
60.04999999999997
 31
0.0
  0
LINE
  5
5B18
330
A
100
AcDbEntity
  8
0
  6
Continuous
 62
     7
100
AcDbLine
 10
37.34508900000006
 20
60.04999999999997
 30
0.0
 11
32.34999999999994
 21
60.04999999999997
 31
0.0
  0
LINE
  5
5B19
330
A
100
AcDbEntity
  8
0
  6
Continuous
 62
     9
100
AcDbLine
 10
37.13686000000016
 20
59.45000000000006
 30
0.0
 11
31.75000000000006
 21
59.45000000000006
 31
0.0
  0
LINE
  5
5B1A
330
A
100
AcDbEntity
  8
0
  6
Continuous
 62
     7
100
AcDbLine
 10
26.65380000000016
 20
41.0
 30
0.0
 11
26.65380000000016
 21
29.00000000000001
 31
0.0
  0
LINE
  5
5B1B
330
A
100
AcDbEntity
  8
0
  6
Continuous
 62
     7
100
AcDbLine
 10
30.00000000000006
 20
59.00000000000001
 30
0.0
 11
30.00000000000006
 21
41.10000000000002
 31
0.0
  0
LINE
  5
5B1C
330
A
100
AcDbEntity
  8
0
  6
Continuous
 62
     7
100
AcDbLine
 10
30.00000000000006
 20
28.89999999999976
 30
0.0
 11
30.00000000000006
 21
11.0
 31
0.0
  0
LINE
  5
5B1D
330
A
100
AcDbEntity
  8
0
  6
Continuous
 62
     7
100
AcDbLine
 10
31.75000000000006
 20
11.0
 30
0.0
 11
31.75000000000006
 21
10.54999999999973
 31
0.0
  0
LINE
  5
5B1E
330
A
100
AcDbEntity
  8
0
  6
Continuous
 62
     7
100
AcDbLine
 10
48.25000000000006
 20
10.54999999999973
 30
0.0
 11
48.25000000000006
 21
11.0
 31
0.0
  0
ARC
  5
5B1F
330
A
100
AcDbEntity
  8
0
  6
Continuous
 62
     7
100
AcDbCircle
 10
32.34999999999994
 20
10.54999999999973
 30
0.0
 40
0.6
100
AcDbArc
 50
180.0
 51
270.0
  0
ARC
  5
5B20
330
A
100
AcDbEntity
  8
0
  6
Continuous
 62
     7
100
AcDbCircle
 10
47.65000000000014
 20
10.54999999999973
 30
0.0
 40
0.6
100
AcDbArc
 50
270.0
 51
0.0
  0
LINE
  5
5B21
330
A
100
AcDbEntity
  8
0
  6
Continuous
 62
     7
100
AcDbLine
 10
35.25000000000006
 20
41.10000000000002
 30
0.0
 11
35.30000000000027
 21
41.04999999999962
 31
0.0
  0
LINE
  5
5B22
330
A
100
AcDbEntity
  8
0
  6
Continuous
 62
     7
100
AcDbLine
 10
44.69999999999996
 20
41.04999999999962
 30
0.0
 11
44.75000000000005
 21
41.10000000000002
 31
0.0
  0
LINE
  5
5B23
330
A
100
AcDbEntity
  8
0
  6
Continuous
 62
     7
100
AcDbLine
 10
44.75000000000005
 20
28.89999999999976
 30
0.0
 11
44.69999999999996
 21
28.95000000000005
 31
0.0
  0
LINE
  5
5B24
330
A
100
AcDbEntity
  8
0
  6
Continuous
 62
     7
100
AcDbLine
 10
35.30000000000027
 20
28.95000000000005
 30
0.0
 11
35.25000000000006
 21
28.89999999999976
 31
0.0
  0
LINE
  5
5B25
330
A
100
AcDbEntity
  8
0
  6
Continuous
 62
     7
100
AcDbLine
 10
44.00000000000005
 20
9.700000000000056
 30
0.0
 11
44.00000000000005
 21
9.950000000000045
 31
0.0
  0
LINE
  5
5B26
330
A
100
AcDbEntity
  8
0
  6
Continuous
 62
     7
100
AcDbLine
 10
44.00000000000005
 20
28.95000000000005
 30
0.0
 11
44.00000000000005
 21
29.00000000000001
 31
0.0
  0
LINE
  5
5B27
330
A
100
AcDbEntity
  8
0
  6
Continuous
 62
     7
100
AcDbLine
 10
44.00000000000005
 20
41.0
 30
0.0
 11
44.00000000000005
 21
41.04999999999962
 31
0.0
  0
LINE
  5
5B28
330
A
100
AcDbEntity
  8
0
  6
Continuous
 62
     7
100
AcDbLine
 10
44.00000000000005
 20
60.04999999999997
 30
0.0
 11
44.00000000000005
 21
60.29999999999973
 31
0.0
  0
LINE
  5
5B29
330
A
100
AcDbEntity
  8
0
  6
Continuous
 62
     7
100
AcDbLine
 10
36.00000000000006
 20
60.29999999999973
 30
0.0
 11
36.00000000000006
 21
60.04999999999997
 31
0.0
  0
LINE
  5
5B2A
330
A
100
AcDbEntity
  8
0
  6
Continuous
 62
     7
100
AcDbLine
 10
36.00000000000006
 20
41.04999999999962
 30
0.0
 11
36.00000000000006
 21
41.0
 31
0.0
  0
LINE
  5
5B2B
330
A
100
AcDbEntity
  8
0
  6
Continuous
 62
     7
100
AcDbLine
 10
36.00000000000006
 20
29.00000000000001
 30
0.0
 11
36.00000000000006
 21
28.95000000000005
 31
0.0
  0
LINE
  5
5B2C
330
A
100
AcDbEntity
  8
0
  6
Continuous
 62
     7
100
AcDbLine
 10
36.00000000000006
 20
9.950000000000045
 30
0.0
 11
36.00000000000006
 21
9.700000000000056
 31
0.0
  0
ARC
  5
5B2D
330
A
100
AcDbEntity
  8
0
  6
Continuous
 62
     7
100
AcDbCircle
 10
47.65000000000014
 20
59.45000000000006
 30
0.0
 40
0.6
100
AcDbArc
 50
0.0
 51
90.0
  0
ARC
  5
5B2E
330
A
100
AcDbEntity
  8
0
  6
Continuous
 62
     7
100
AcDbCircle
 10
32.34999999999994
 20
59.45000000000006
 30
0.0
 40
0.6
100
AcDbArc
 50
90.0
 51
180.0
  0
LINE
  5
5B2F
330
A
100
AcDbEntity
  8
0
  6
Continuous
 62
     7
100
AcDbLine
 10
48.25000000000006
 20
59.00000000000001
 30
0.0
 11
48.25000000000006
 21
59.45000000000006
 31
0.0
  0
LINE
  5
5B30
330
A
100
AcDbEntity
  8
0
  6
Continuous
 62
     7
100
AcDbLine
 10
31.75000000000006
 20
59.45000000000006
 30
0.0
 11
31.75000000000006
 21
59.00000000000001
 31
0.0
  0
TEXT
  5
714C
330
A
100
AcDbEntity
  8
0
  6
Continuous
 62
     7
370
     0
100
AcDbText
 10
143.6306261361638
 20
137.5073206442166
 30
0.0
 40
10.0
  1
8611
100
AcDbText
  0
ARC
  5
714D
330
A
100
AcDbEntity
  8
0
  6
Continuous
 62
     7
100
AcDbCircle
 10
198.0076876219069
 20
-94.34589260760688
 30
0.0
 40
2.48359628078499
100
AcDbArc
 50
283.9699743382439
 51
302.7774943782575
  0
LINE
  5
714E
330
A
100
AcDbEntity
  8
0
  6
Continuous
 62
     7
100
AcDbLine
 10
199.3522520000002
 20
-96.434049
 30
0.0
 11
199.4984129999998
 21
-96.3228929999999
 31
0.0
  0
LINE
  5
714F
330
A
100
AcDbEntity
  8
0
  6
Continuous
 62
     7
100
AcDbLine
 10
199.4984129999998
 20
-96.3228929999999
 30
0.0
 11
199.6143969999999
 21
-96.21192300000011
 31
0.0
  0
LINE
  5
7150
330
A
100
AcDbEntity
  8
0
  6
Continuous
 62
     7
100
AcDbLine
 10
199.6143969999999
 20
-96.21192300000011
 30
0.0
 11
199.7065840000001
 21
-96.1015150000002
 31
0.0
  0
LINE
  5
7151
330
A
100
AcDbEntity
  8
0
  6
Continuous
 62
     7
100
AcDbLine
 10
199.7065840000001
 20
-96.1015150000002
 30
0.0
 11
199.7799410000003
 21
-95.99089000000009
 31
0.0
  0
LINE
  5
7152
330
A
100
AcDbEntity
  8
0
  6
Continuous
 62
     7
100
AcDbLine
 10
199.7799410000003
 20
-95.99089000000009
 30
0.0
 11
199.793702
 21
-95.96677499999998
 31
0.0
  0
ARC
  5
7153
330
A
100
AcDbEntity
  8
0
  6
Continuous
 62
     7
100
AcDbCircle
 10
217.5059447111
 20
-72.75020015071127
 30
0.0
 40
2.261899557221854
100
AcDbArc
 50
342.1820471351406
 51
0.5501471060560214
  0
LINE
  5
7154
330
A
100
AcDbEntity
  8
0
  6
Continuous
 62
     7
100
AcDbLine
 10
219.6593490000001
 20
-73.44232699999998
 30
0.0
 11
219.5864139999999
 21
-73.62227899999999
 31
0.0
  0
ARC
  5
7155
330
A
100
AcDbEntity
  8
0
  6
Continuous
 62
     7
100
AcDbCircle
 10
218.5087626352871
 20
-73.12690229379638
 30
0.0
 40
1.186056720783914
100
AcDbArc
 50
309.7590131266879
 51
335.3126196281618
  0
ARC
  5
7156
330
A
100
AcDbEntity
  8
0
  6
Continuous
 62
     7
100
AcDbCircle
 10
58.99997328602205
 20
11.02212607614355
 30
0.0
 40
1.999973620706835
100
AcDbArc
 50
180.59360490565
 51
214.1451220278867
  0
LINE
  5
7157
330
A
100
AcDbEntity
  8
0
  6
Continuous
 62
     7
100
AcDbLine
 10
57.34475799999987
 20
9.899558999999728
 30
0.0
 11
57.52528200000014
 21
9.671133999999828
 31
0.0
  0
LINE
  5
7158
330
A
100
AcDbEntity
  8
0
  6
Continuous
 62
     7
100
AcDbLine
 10
57.52528200000014
 20
9.671133999999828
 30
0.0
 11
57.66195900000013
 21
9.535648000000045
 31
0.0
  0
LINE
  5
7159
330
A
100
AcDbEntity
  8
0
  6
Continuous
 62
     7
100
AcDbLine
 10
57.66195900000013
 20
9.535648000000045
 30
0.0
 11
57.66666700000005
 21
9.531424000000026
 31
0.0
  0
LINE
  5
7C1C
330
A
100
AcDbEntity
  8
0
  6
CENTER
 62
     1
100
AcDbLine
 10
53.0
 20
73.49999999999977
 30
0.0
 11
12.35920709430775
 21
73.49999999999977
 31
0.0
  0
LINE
  5
7C1D
330
A
100
AcDbEntity
  8
0
  6
CENTER
 62
     1
100
AcDbLine
 10
-10.0
 20
0.0
 30
0.0
 11
-10.0
 21
70.0
 31
0.0
  0
LINE
  5
7C1E
330
A
100
AcDbEntity
  8
0
  6
CENTER
 62
     1
100
AcDbLine
 10
-15.0
 20
70.0
 30
0.0
 11
15.0
 21
70.0
 31
0.0
  0
LINE
  5
7C1F
330
A
100
AcDbEntity
  8
0
  6
CENTER
 62
     1
100
AcDbLine
 10
0.0
 20
55.0
 30
0.0
 11
0.0
 21
84.99999999999976
 31
0.0
  0
LINE
  5
7C20
330
A
100
AcDbEntity
  8
0
  6
CENTER
 62
     1
100
AcDbLine
 10
-15.0
 20
0.0
 30
0.0
 11
15.0
 21
0.0
 31
0.0
  0
LINE
  5
7C21
330
A
100
AcDbEntity
  8
0
  6
CENTER
 62
     1
100
AcDbLine
 10
0.0
 20
-15.00000000000023
 30
0.0
 11
0.0
 21
14.99999999999977
 31
0.0
  0
ARC
  5
7C22
330
A
100
AcDbEntity
  8
0
  6
CENTER
 62
     1
100
AcDbCircle
 10
0.0
 20
70.0
 30
0.0
 40
10.0
100
AcDbArc
 50
34.51810784106677
 51
180.0
  0
ARC
  5
7C23
330
A
100
AcDbEntity
  8
0
  6
CENTER
 62
     1
100
AcDbCircle
 10
12.35920709430775
 20
78.49999999999977
 30
0.0
 40
5.0
100
AcDbArc
 50
214.5181078410668
 51
270.0
  0
LINE
  5
7C24
330
A
100
AcDbEntity
  8
0
  6
CENTER
 62
     1
100
AcDbLine
 10
53.0
 20
-3.5
 30
0.0
 11
12.35920709430775
 21
-3.5
 31
0.0
  0
ARC
  5
7C25
330
A
100
AcDbEntity
  8
0
  6
CENTER
 62
     1
100
AcDbCircle
 10
12.35920709430775
 20
-8.5
 30
0.0
 40
5.0
100
AcDbArc
 50
90.0
 51
145.4818921589332
  0
ARC
  5
7C26
330
A
100
AcDbEntity
  8
0
  6
CENTER
 62
     1
100
AcDbCircle
 10
0.0
 20
0.0
 30
0.0
 40
10.0
100
AcDbArc
 50
180.0
 51
325.481892158933
  0
DIMENSION
  5
7C28
330
A
100
AcDbEntity
  8
0
  6
Continuous
370
     0
100
AcDbDimension
280
     0
  2
*D0
 10
59.00000000000005
 20
104.8959483265001
 30
0.0
 11
64.14183748169845
 21
107.4014388096627
 31
0.0
 70
    32
 71
     5
 42
6.0
 73
     0
 74
     0
 75
     0
  3
Standard
100
AcDbAlignedDimension
 13
53.00000000000006
 23
77.5
 33
0.0
 14
59.00000000000005
 24
77.5
 34
0.0
100
AcDbRotatedDimension
1001
ACAD
1000
DSTYLE
1002
{
1070
   278
1070
     0
1070
   371
1070
     0
1070
   372
1070
     0
1002
}
  0
LINE
  5
7C37
330
A
100
AcDbEntity
  8
0
  6
CENTER
 62
     1
100
AcDbLine
 10
59.00000000000011
 20
73.49999999999977
 30
0.0
 11
99.64079290569236
 21
73.49999999999977
 31
0.0
  0
LINE
  5
7C38
330
A
100
AcDbEntity
  8
0
  6
CENTER
 62
     1
100
AcDbLine
 10
122.0000000000001
 20
0.0
 30
0.0
 11
122.0000000000001
 21
70.0
 31
0.0
  0
LINE
  5
7C39
330
A
100
AcDbEntity
  8
0
  6
CENTER
 62
     1
100
AcDbLine
 10
127.0000000000001
 20
70.0
 30
0.0
 11
97.00000000000011
 21
70.0
 31
0.0
  0
LINE
  5
7C3A
330
A
100
AcDbEntity
  8
0
  6
CENTER
 62
     1
100
AcDbLine
 10
112.0000000000001
 20
55.0
 30
0.0
 11
112.0000000000001
 21
84.99999999999976
 31
0.0
  0
LINE
  5
7C3B
330
A
100
AcDbEntity
  8
0
  6
CENTER
 62
     1
100
AcDbLine
 10
127.0000000000001
 20
0.0
 30
0.0
 11
97.00000000000011
 21
0.0
 31
0.0
  0
LINE
  5
7C3C
330
A
100
AcDbEntity
  8
0
  6
CENTER
 62
     1
100
AcDbLine
 10
112.0000000000001
 20
-15.00000000000023
 30
0.0
 11
112.0000000000001
 21
14.99999999999977
 31
0.0
  0
ARC
  5
7C3D
330
A
100
AcDbEntity
  8
0
  6
CENTER
 62
     1
100
AcDbCircle
 10
112.0000000000001
 20
70.0
 30
0.0
 40
10.0
100
AcDbArc
 50
0.0
 51
145.4818921589324
  0
ARC
  5
7C3E
330
A
100
AcDbEntity
  8
0
  6
CENTER
 62
     1
100
AcDbCircle
 10
99.64079290569236
 20
78.49999999999977
 30
0.0
 40
5.0
100
AcDbArc
 50
270.0
 51
325.4818921589326
  0
LINE
  5
7C3F
330
A
100
AcDbEntity
  8
0
  6
CENTER
 62
     1
100
AcDbLine
 10
59.00000000000011
 20
-3.5
 30
0.0
 11
99.64079290569236
 21
-3.5
 31
0.0
  0
ARC
  5
7C40
330
A
100
AcDbEntity
  8
0
  6
CENTER
 62
     1
100
AcDbCircle
 10
99.64079290569236
 20
-8.5
 30
0.0
 40
5.0
100
AcDbArc
 50
34.51810784106757
 51
90.0
  0
ARC
  5
7C41
330
A
100
AcDbEntity
  8
0
  6
CENTER
 62
     1
100
AcDbCircle
 10
112.0000000000001
 20
0.0
 30
0.0
 40
10.0
100
AcDbArc
 50
214.5181078410676
 51
0.0
  0
ENDSEC
  0
SECTION
  2
OBJECTS
  0
DICTIONARY
  5
19
330
0
100
AcDbDictionary
281
     1
  3
ACAD_COLOR
350
3988
  3
ACAD_GROUP
350
1A
  3
ACAD_IMAGE_VARS
350
7C59
  3
ACAD_LAYOUT
350
1E
  3
ACAD_MATERIAL
350
395E
  3
ACAD_MLEADERSTYLE
350
39AD
  3
ACAD_MLINESTYLE
350
1B
  3
ACAD_PLOTSETTINGS
350
22
  3
ACAD_PLOTSTYLENAME
350
1F
  3
ACAD_SCALELIST
350
398B
  3
ACAD_TABLESTYLE
350
3989
  3
ACAD_VISUALSTYLE
350
3977
  3
ACAD_WIPEOUT_VARS
350
23
  3
ACDB_RECOMPOSE_DATA
350
72EC
  3
AcDbVariableDictionary
350
72CB
  3
APPDATA
350
7C58
  3
ASE_INDEX_DICTIONARY
350
72C6
  0
DICTIONARY
  5
72C9
330
14
100
AcDbDictionary
280
     1
281
     1
  3
ADSK_XREC_LAYER_RECONCILED
360
72CA
  0
DICTIONARY
  5
39B7
330
A
100
AcDbDictionary
280
     1
281
     1
  3
ACAD_SORTENTS
360
39B8
  0
DICTIONARY
  5
3988
102
{ACAD_REACTORS
330
19
102
}
330
19
100
AcDbDictionary
281
     1
  0
DICTIONARY
  5
1A
102
{ACAD_REACTORS
330
19
102
}
330
19
100
AcDbDictionary
281
     1
  0
RASTERVARIABLES
  5
7C59
102
{ACAD_REACTORS
330
19
102
}
330
19
100
AcDbRasterVariables
 90
        0
 70
     1
 71
     1
 72
     0
  0
DICTIONARY
  5
1E
102
{ACAD_REACTORS
330
19
102
}
330
19
100
AcDbDictionary
281
     1
  3
Layout1
350
21
  3
Model
350
20
  0
DICTIONARY
  5
395E
102
{ACAD_REACTORS
330
19
102
}
330
19
100
AcDbDictionary
281
     1
  3
ByBlock
350
3967
  3
ByLayer
350
395F
  3
Global
350
396F
  0
DICTIONARY
  5
39AD
102
{ACAD_REACTORS
330
19
102
}
330
19
100
AcDbDictionary
281
     1
  3
Standard
350
39AE
  0
DICTIONARY
  5
1B
102
{ACAD_REACTORS
330
19
102
}
330
19
100
AcDbDictionary
281
     1
  3
Standard
350
1C
  0
DICTIONARY
  5
22
102
{ACAD_REACTORS
330
19
102
}
330
19
100
AcDbDictionary
281
     1
  0
ACDBDICTIONARYWDFLT
  5
1F
102
{ACAD_REACTORS
330
19
102
}
330
19
100
AcDbDictionary
281
     1
  3
Normal
350
1D
100
AcDbDictionaryWithDefault
340
1D
  0
DICTIONARY
  5
398B
102
{ACAD_REACTORS
330
19
102
}
330
19
100
AcDbDictionary
281
     1
  3
A0
350
398C
  3
A1
350
398D
  3
A2
350
398E
  3
A3
350
398F
  3
A4
350
3990
  3
A5
350
3991
  3
A6
350
3992
  3
A7
350
3993
  3
A8
350
3994
  3
A9
350
3995
  3
B0
350
3996
  3
B1
350
3997
  3
B2
350
3998
  3
B3
350
3999
  3
B4
350
399A
  3
B5
350
399B
  3
B6
350
399C
  3
B7
350
399D
  3
B8
350
399E
  3
B9
350
399F
  3
C0
350
39A0
  3
C1
350
39A1
  3
C2
350
39A2
  3
C3
350
39A3
  3
C4
350
39A4
  3
C5
350
39A5
  3
C6
350
39A6
  3
C7
350
39A7
  3
C8
350
39A8
  3
C9
350
39A9
  3
D0
350
39AA
  3
D1
350
39AB
  3
D2
350
39AC
  0
DICTIONARY
  5
3989
102
{ACAD_REACTORS
330
19
102
}
330
19
100
AcDbDictionary
281
     1
  3
Standard
350
398A
  0
DICTIONARY
  5
3977
102
{ACAD_REACTORS
330
19
102
}
330
19
100
AcDbDictionary
281
     1
  3
2dWireframe
350
397D
  3
3D Hidden
350
397F
  3
3dWireframe
350
397E
  3
Basic
350
397C
  3
Brighten
350
3983
  3
ColorChange
350
3987
  3
Conceptual
350
3980
  3
Dim
350
3982
  3
Facepattern
350
3986
  3
Flat
350
3978
  3
FlatWithEdges
350
3979
  3
Gouraud
350
397A
  3
GouraudWithEdges
350
397B
  3
Linepattern
350
3985
  3
Realistic
350
3981
  3
Thicken
350
3984
  0
WIPEOUTVARIABLES
  5
23
330
19
100
AcDbWipeoutVariables
 70
     1
  0
XRECORD
  5
72EC
102
{ACAD_REACTORS
330
19
102
}
330
19
100
AcDbXrecord
280
     1
 90
        1
330
398A
  0
DICTIONARY
  5
72CB
102
{ACAD_REACTORS
330
19
102
}
330
19
100
AcDbDictionary
281
     1
  3
CANNOSCALE
350
7C5A
  3
CMLEADERSTYLE
350
72CD
  3
CTABLESTYLE
350
72CC
  3
DIMASSOC
350
72D1
  3
INDEXCTL
350
72D0
  3
LIGHTSINBLOCKS
350
7C5D
  3
SORTENTS
350
72CF
  0
DICTIONARY
  5
7C58
102
{ACAD_REACTORS
330
19
102
}
330
19
100
AcDbDictionary
281
     1
  0
DICTIONARY
  5
72C6
102
{ACAD_REACTORS
330
19
102
}
330
19
100
AcDbDictionary
281
     1
  3
ASEBlockHierarchyIndexRecord
350
72C8
1001
DCO15
1040
1687090590.691
  0
XRECORD
  5
72CA
102
{ACAD_REACTORS
330
72C9
102
}
330
72C9
100
AcDbXrecord
280
     1
290
     1
  0
SORTENTSTABLE
  5
39B8
102
{ACAD_REACTORS
330
39B7
102
}
330
39B7
100
AcDbSortentsTable
330
A
331
1FAD
  5
56B3
331
1FAE
  5
56B4
331
1FAF
  5
56B5
331
1FB0
  5
56B6
331
1FB1
  5
56B7
331
562F
  5
50FE
331
5630
  5
50FF
331
5631
  5
5100
331
5632
  5
5101
331
5633
  5
5102
331
5634
  5
5103
331
5635
  5
5104
331
5636
  5
5105
331
5637
  5
5106
331
5638
  5
5107
331
5639
  5
5108
331
563A
  5
5109
331
563B
  5
510A
331
563C
  5
510B
331
563D
  5
510C
331
563E
  5
510D
331
563F
  5
510E
331
5640
  5
510F
331
5641
  5
5110
331
5642
  5
5111
331
5643
  5
5112
331
5644
  5
5113
331
5645
  5
5114
331
5646
  5
5115
331
5647
  5
5116
331
5648
  5
5117
331
5649
  5
5118
331
564A
  5
5119
331
564B
  5
511A
331
564C
  5
511B
331
564D
  5
511C
331
564E
  5
511D
331
564F
  5
511E
331
5650
  5
511F
331
5651
  5
5120
331
5652
  5
5121
331
5653
  5
5122
331
5654
  5
5123
331
5655
  5
5124
331
5656
  5
5125
331
5657
  5
5126
331
5658
  5
5127
331
5659
  5
5128
331
565A
  5
5129
331
565B
  5
512A
331
565C
  5
512B
331
565D
  5
512C
331
565E
  5
512D
331
565F
  5
512E
331
5660
  5
512F
331
5661
  5
5130
331
5662
  5
5131
331
5663
  5
5132
331
5664
  5
5133
331
5665
  5
5134
331
5666
  5
5135
331
5667
  5
5136
331
5668
  5
5137
331
5669
  5
5138
331
566A
  5
5139
331
566B
  5
513A
331
566C
  5
513B
331
566D
  5
513C
331
566E
  5
513D
331
566F
  5
513E
331
5670
  5
513F
331
5671
  5
5140
331
5672
  5
5141
331
5673
  5
5142
331
5674
  5
5143
331
5675
  5
5144
331
5676
  5
5145
331
5677
  5
5146
331
5678
  5
5147
331
5679
  5
5148
331
567A
  5
5149
331
567B
  5
514A
331
567C
  5
514B
331
567D
  5
514C
331
567E
  5
514D
331
567F
  5
514E
331
5680
  5
514F
331
5681
  5
5150
331
5682
  5
5151
331
5683
  5
5152
331
5684
  5
5153
331
5685
  5
5154
331
5686
  5
5155
331
5687
  5
5156
331
5688
  5
5157
331
5689
  5
5158
331
568A
  5
5159
331
568B
  5
515A
331
568C
  5
515B
331
568D
  5
515C
331
568E
  5
515D
331
568F
  5
515E
331
5690
  5
515F
331
5691
  5
5160
331
5692
  5
5161
331
5693
  5
5162
331
5694
  5
5163
331
5695
  5
5164
331
5696
  5
5165
331
5697
  5
5166
331
5698
  5
5167
331
5699
  5
5168
331
569A
  5
5169
331
569B
  5
516A
331
569C
  5
516B
331
569D
  5
516C
331
569E
  5
516D
331
569F
  5
516E
331
56A0
  5
516F
331
56A1
  5
5170
331
56A2
  5
5171
331
56A3
  5
5172
331
56A4
  5
5173
331
56A5
  5
5174
331
56A6
  5
5175
331
56A7
  5
5176
331
56A8
  5
5177
331
56A9
  5
5178
331
56AA
  5
5179
331
56AB
  5
517A
331
56AC
  5
517B
331
56AD
  5
517C
331
56AE
  5
517D
331
56AF
  5
517E
331
56B0
  5
517F
331
56B1
  5
5180
331
56B2
  5
5181
331
56B3
  5
5182
331
56B4
  5
5183
331
56B5
  5
5184
331
56B6
  5
5185
331
56B7
  5
5186
331
56B8
  5
5187
331
56B9
  5
5188
331
56BA
  5
5189
331
56BB
  5
518A
331
56BC
  5
518B
331
56BD
  5
518C
331
56BE
  5
518D
331
56BF
  5
518E
331
56C0
  5
518F
331
56C1
  5
5190
331
56C2
  5
5191
331
56C3
  5
5192
331
56C4
  5
5193
331
56C5
  5
5194
331
56C6
  5
5195
331
56C7
  5
5196
331
56C8
  5
5197
331
56C9
  5
519F
331
56CA
  5
51A0
331
56CB
  5
51A1
331
56CC
  5
51AC
331
56CD
  5
51AD
331
56CE
  5
51AE
331
56CF
  5
51AF
331
56D0
  5
51B0
331
56D1
  5
51B1
331
56D2
  5
51B2
331
56D3
  5
51BD
331
56D4
  5
51BE
331
56D5
  5
51BF
331
56D6
  5
51C0
331
56D7
  5
51C1
331
56D8
  5
51C2
331
56D9
  5
51C3
331
56DA
  5
51C4
331
56DB
  5
51D0
331
56DC
  5
51D1
331
56DD
  5
51D2
331
56DE
  5
51D3
331
56DF
  5
51D4
331
56E0
  5
51D5
331
56E1
  5
51D6
331
56E2
  5
51D7
331
56E3
  5
51D8
331
56E4
  5
51D9
331
56E5
  5
51DA
331
56E6
  5
51DB
331
56E7
  5
51DC
331
56E8
  5
51DD
331
56E9
  5
51DE
331
56EA
  5
51DF
331
56EB
  5
51E0
331
56EC
  5
51E1
331
56ED
  5
51E2
331
56EE
  5
51E3
331
56EF
  5
51E4
331
56F0
  5
51E5
331
56F1
  5
51E6
331
56F2
  5
51E7
331
56F3
  5
51E8
331
56F4
  5
51E9
331
56F5
  5
51EA
331
56F6
  5
51EB
331
56F7
  5
51EC
331
56F8
  5
51ED
331
56F9
  5
51EE
331
56FA
  5
51EF
331
56FB
  5
51F0
331
56FC
  5
51F1
331
56FD
  5
51F2
331
56FE
  5
51F3
331
56FF
  5
51F4
331
5700
  5
51F5
331
5701
  5
51F6
331
5702
  5
51F7
331
5703
  5
51F8
331
5704
  5
51F9
331
5705
  5
51FA
331
5706
  5
51FB
331
5707
  5
51FC
331
5708
  5
51FD
331
5709
  5
51FE
331
570A
  5
51FF
331
570B
  5
5200
331
570C
  5
5201
331
570D
  5
5202
331
570E
  5
5203
331
570F
  5
5204
331
5710
  5
5205
331
5711
  5
5206
331
5712
  5
5207
331
5713
  5
5208
331
5714
  5
5209
331
5715
  5
520A
331
5716
  5
520B
331
5717
  5
520C
331
5718
  5
520D
331
5719
  5
520E
331
571A
  5
520F
331
571B
  5
5210
331
571C
  5
5211
331
571D
  5
5212
331
571E
  5
5213
331
571F
  5
5214
331
5720
  5
5215
331
5721
  5
5216
331
5722
  5
5217
331
5723
  5
5218
331
5724
  5
5219
331
5725
  5
521A
331
5726
  5
521B
331
5727
  5
521C
331
5728
  5
521D
331
5729
  5
521E
331
572A
  5
521F
331
572B
  5
5220
331
572C
  5
5221
331
572D
  5
5222
331
572E
  5
5223
331
572F
  5
5224
331
5730
  5
5225
331
5731
  5
5226
331
5732
  5
5227
331
5733
  5
5228
331
5734
  5
5229
331
5735
  5
522A
331
5736
  5
522B
331
5737
  5
522C
331
5738
  5
522D
331
5739
  5
522E
331
573A
  5
522F
331
573B
  5
5230
331
573C
  5
5231
331
573D
  5
5232
331
573E
  5
5233
331
573F
  5
5234
331
5740
  5
5235
331
5741
  5
5236
331
5742
  5
5237
331
5743
  5
5238
331
5744
  5
5239
331
5745
  5
523A
331
5746
  5
523B
331
5747
  5
523C
331
5748
  5
523D
331
5749
  5
523E
331
574A
  5
523F
331
574B
  5
5240
331
574C
  5
5241
331
574D
  5
5242
331
574E
  5
5243
331
574F
  5
5244
331
5750
  5
5245
331
5751
  5
5246
331
5752
  5
5247
331
5753
  5
5248
331
5754
  5
5249
331
5755
  5
524A
331
5756
  5
524B
331
5757
  5
524C
331
5758
  5
524D
331
5759
  5
524E
331
575A
  5
524F
331
575B
  5
5250
331
575C
  5
5251
331
575D
  5
5252
331
575E
  5
5253
331
575F
  5
5254
331
5760
  5
5255
331
5761
  5
5256
331
5762
  5
5257
331
5763
  5
5258
331
5764
  5
5259
331
5765
  5
525A
331
5766
  5
525B
331
5767
  5
525C
331
5768
  5
525D
331
5769
  5
525E
331
576A
  5
525F
331
576B
  5
5260
331
576C
  5
5261
331
576D
  5
5262
331
576E
  5
5263
331
576F
  5
5264
331
5770
  5
5265
331
5771
  5
5266
331
5778
  5
5268
331
5779
  5
5269
331
577A
  5
526A
331
577B
  5
526B
331
577C
  5
526C
331
577D
  5
526D
331
577E
  5
526E
331
577F
  5
526F
331
5780
  5
5270
331
5781
  5
5271
331
5782
  5
5272
331
5783
  5
5273
331
578D
  5
5275
331
578E
  5
5276
331
578F
  5
5277
331
5790
  5
5278
331
5791
  5
5279
331
5792
  5
527A
331
5793
  5
527B
331
5794
  5
527C
331
5795
  5
527D
331
5796
  5
527E
331
5797
  5
527F
331
5798
  5
5280
331
5799
  5
5281
331
579A
  5
5282
331
579B
  5
5283
331
579C
  5
5284
331
579D
  5
5285
331
579E
  5
5286
331
579F
  5
5287
331
57A0
  5
5288
331
57A1
  5
5289
331
57A2
  5
528A
331
57A3
  5
528B
331
57A4
  5
5033
331
57A5
  5
5034
331
57A6
  5
5035
331
57A7
  5
5036
331
57A8
  5
5037
331
57A9
  5
5038
331
57AA
  5
5039
331
57AB
  5
503A
331
57AC
  5
503B
331
57AD
  5
503C
331
57AE
  5
503D
331
57AF
  5
503E
331
57B0
  5
503F
331
57B1
  5
5040
331
57B2
  5
5041
331
57B3
  5
5042
331
57B4
  5
5043
331
57B5
  5
5044
331
57B6
  5
5045
331
57B7
  5
5046
331
57B8
  5
5047
331
57B9
  5
5048
331
57BA
  5
5049
331
57BB
  5
504A
331
57BC
  5
504B
331
57BD
  5
504C
331
57BE
  5
504D
331
57BF
  5
504E
331
57C0
  5
504F
331
57C1
  5
5050
331
57C2
  5
5051
331
57C3
  5
5052
331
57C4
  5
5053
331
57C5
  5
5054
331
57C6
  5
5055
331
57C7
  5
5056
331
57C8
  5
5057
331
57C9
  5
5058
331
57CA
  5
5059
331
57CB
  5
505A
331
57CC
  5
505B
331
57CD
  5
505C
331
57CE
  5
505D
331
57CF
  5
505E
331
57D0
  5
505F
331
57D1
  5
5060
331
57D2
  5
5061
331
57D3
  5
5062
331
57D4
  5
5063
331
57D5
  5
5064
331
57D6
  5
5065
331
57D7
  5
5066
331
57D8
  5
5067
331
57D9
  5
5068
331
57DA
  5
5069
331
57DB
  5
506A
331
57DC
  5
506B
331
57DD
  5
506C
331
57DE
  5
506D
331
57DF
  5
506E
331
57E0
  5
506F
331
57E1
  5
5070
331
57E2
  5
5071
331
57E3
  5
5072
331
57E4
  5
5073
331
57E5
  5
5074
331
57E6
  5
5075
331
57E7
  5
5076
331
57E8
  5
5077
331
57E9
  5
5078
331
57EA
  5
5079
331
57EB
  5
507A
331
57EC
  5
507B
331
57ED
  5
507C
331
57EE
  5
507D
331
57EF
  5
507E
331
57F0
  5
507F
331
57F1
  5
5080
331
57F2
  5
5081
331
57F3
  5
5082
331
57F4
  5
5083
331
57F5
  5
5084
331
57F6
  5
5085
331
57F7
  5
5086
331
57F8
  5
5087
331
57F9
  5
5088
331
57FA
  5
5089
331
57FB
  5
508A
331
57FC
  5
508B
331
57FD
  5
508C
331
57FE
  5
508D
331
57FF
  5
508E
331
5800
  5
508F
331
5801
  5
5090
331
5802
  5
5091
331
5803
  5
5092
331
5804
  5
5093
331
5805
  5
5094
331
5806
  5
5095
331
5807
  5
5096
331
5808
  5
5097
331
5809
  5
5098
331
580A
  5
5099
331
580B
  5
509A
331
580C
  5
509B
331
580D
  5
509C
331
580E
  5
509D
331
580F
  5
509E
331
5810
  5
509F
331
5811
  5
50A0
331
5812
  5
50A1
331
5813
  5
50A2
331
5814
  5
50A3
331
5815
  5
50A4
331
5816
  5
50A5
331
5817
  5
50A6
331
5818
  5
50A7
331
5819
  5
50A8
331
581A
  5
50A9
331
581B
  5
50AA
331
581C
  5
50AB
331
581D
  5
50AC
331
581E
  5
50AD
331
581F
  5
50AE
331
5820
  5
50AF
331
5821
  5
50B0
331
5822
  5
50B1
331
5823
  5
50B2
331
5824
  5
50B3
331
5825
  5
50B4
331
5826
  5
50B5
331
5827
  5
50B6
331
5828
  5
50B7
331
5829
  5
50B8
331
582A
  5
50B9
331
582B
  5
50BA
331
582C
  5
50BB
331
582D
  5
50BC
331
582E
  5
50BD
331
582F
  5
50BE
331
5830
  5
50BF
331
5831
  5
50C0
331
5832
  5
50C1
331
5833
  5
50C2
331
5834
  5
50C3
331
5835
  5
50C4
331
5836
  5
50C5
331
5837
  5
50C6
331
5838
  5
50C7
331
5839
  5
50C8
331
583A
  5
50C9
331
583B
  5
50CA
331
583C
  5
50CB
331
583D
  5
50CC
331
583E
  5
50CD
331
583F
  5
50CE
331
5840
  5
50CF
331
5841
  5
50D0
331
5842
  5
50D1
331
5843
  5
50D2
331
5844
  5
50D3
331
5845
  5
50D4
331
5846
  5
50D5
331
5847
  5
50D6
331
5848
  5
50D7
331
5849
  5
50D8
331
584A
  5
50D9
331
584B
  5
50DA
331
584C
  5
50DB
331
584D
  5
50DC
331
584E
  5
50DD
331
584F
  5
50DE
331
5850
  5
50DF
331
5851
  5
50E0
331
5852
  5
50E1
331
5853
  5
50E2
331
5854
  5
50E3
331
5855
  5
50E4
331
5856
  5
50E5
331
5857
  5
50E6
331
5858
  5
50E7
331
5859
  5
50E8
331
585A
  5
50E9
331
585B
  5
50EA
331
585C
  5
50EB
331
585D
  5
50EC
331
585E
  5
50ED
331
585F
  5
50EE
331
5860
  5
50EF
331
5861
  5
50F0
331
5862
  5
50F1
331
5863
  5
50F2
331
5864
  5
50F3
331
5865
  5
50F4
331
5866
  5
50F5
331
5867
  5
50F6
331
5868
  5
50F7
331
5869
  5
50F8
331
586A
  5
50F9
331
586B
  5
50FA
331
586C
  5
50FB
331
586D
  5
50FC
331
586E
  5
50FD
331
586F
  5
4FCB
331
5870
  5
4FCC
331
5871
  5
4FCD
331
5872
  5
4FCE
331
5873
  5
4FCF
331
5874
  5
4FD0
331
5875
  5
4FD1
331
5876
  5
4FD2
331
5877
  5
4FD3
331
5878
  5
4FD4
331
5879
  5
4FD5
331
587A
  5
4FD6
331
587B
  5
4FD7
331
587C
  5
4FD8
331
587D
  5
4FD9
331
587E
  5
4FDA
331
587F
  5
4FDB
331
5880
  5
4FDC
331
5881
  5
4FDD
331
5882
  5
4FDE
331
5883
  5
4FDF
331
5884
  5
4FE0
331
5885
  5
4FE1
331
5886
  5
4FE2
331
5887
  5
4FE3
331
5888
  5
4FE4
331
5889
  5
4FE5
331
588A
  5
4FE6
331
588B
  5
4FE7
331
588C
  5
4FE8
331
588D
  5
4FE9
331
588E
  5
4FEA
331
588F
  5
4FEB
331
5890
  5
4FEC
331
5891
  5
4FED
331
5892
  5
4FEE
331
5893
  5
4FEF
331
5894
  5
4FF0
331
5895
  5
4FF1
331
5896
  5
4FF2
331
5897
  5
4FF3
331
5898
  5
4FF4
331
5899
  5
4FF5
331
589A
  5
4FF6
331
589B
  5
4FF7
331
589C
  5
4FF8
331
589D
  5
4FF9
331
589E
  5
4FFA
331
589F
  5
4FFB
331
58A0
  5
4FFC
331
58A1
  5
4FFD
331
58A2
  5
4FFE
331
58A3
  5
4FFF
331
58A4
  5
5000
331
58A5
  5
5001
331
58A6
  5
5002
331
58A7
  5
5003
331
58A8
  5
5004
331
58A9
  5
5005
331
58AA
  5
5006
331
58AB
  5
5007
331
58AC
  5
5008
331
58AD
  5
5009
331
58AE
  5
500A
331
58AF
  5
500B
331
58B0
  5
500C
331
58B1
  5
500D
331
58B2
  5
500E
331
58B3
  5
500F
331
58B4
  5
5010
331
58B5
  5
5011
331
58B6
  5
5012
331
58B7
  5
5013
331
58B8
  5
5014
331
58B9
  5
5015
331
58BA
  5
5016
331
58BB
  5
5017
331
58BC
  5
5018
331
58BD
  5
5019
331
58BE
  5
501A
331
58BF
  5
501B
331
58C0
  5
501C
331
58C1
  5
501D
331
58C2
  5
501E
331
58C3
  5
501F
331
58C4
  5
5020
331
58C5
  5
5021
331
58C6
  5
5022
331
58C7
  5
5023
331
58C8
  5
5024
331
58C9
  5
5025
331
58CA
  5
5026
331
58CB
  5
5027
331
58CC
  5
5028
331
58CD
  5
5029
331
58CE
  5
502A
331
58CF
  5
502B
331
58D0
  5
502C
331
58D1
  5
502D
331
58D2
  5
502E
331
58D3
  5
502F
331
58D4
  5
5030
331
58D5
  5
5031
331
58D6
  5
5032
331
58D7
  5
4F63
331
58D8
  5
4F64
331
58D9
  5
4F65
331
58DA
  5
4F66
331
58DB
  5
4F67
331
58DC
  5
4F68
331
58DD
  5
4F69
331
58DE
  5
4F6A
331
58DF
  5
4F6B
331
58E0
  5
4F6C
331
58E1
  5
4F6D
331
58E2
  5
4F6E
331
58E3
  5
4F6F
331
58E4
  5
4F70
331
58E5
  5
4F71
331
58E6
  5
4F72
331
58E7
  5
4F73
331
58E8
  5
4F74
331
58E9
  5
4F75
331
58EA
  5
4F76
331
58EB
  5
4F77
331
58EC
  5
4F78
331
58ED
  5
4F79
331
58EE
  5
4F7A
331
58EF
  5
4F7B
331
58F0
  5
4F7C
331
58F1
  5
4F7D
331
58F2
  5
4F7E
331
58F3
  5
4F7F
331
58F4
  5
4F80
331
58F5
  5
4F81
331
58F6
  5
4F82
331
58F7
  5
4F83
331
58F8
  5
4F84
331
58F9
  5
4F85
331
58FA
  5
4F86
331
58FB
  5
4F87
331
58FC
  5
4F88
331
58FD
  5
4F89
331
58FE
  5
4F8A
331
58FF
  5
4F8B
331
5900
  5
4F8C
331
5901
  5
4F8D
331
5902
  5
4F8E
331
5903
  5
4F8F
331
5904
  5
4F90
331
5905
  5
4F91
331
5906
  5
4F92
331
5907
  5
4F93
331
5908
  5
4F94
331
5909
  5
4F95
331
590A
  5
4F96
331
590B
  5
4F97
331
590C
  5
4F98
331
590D
  5
4F99
331
590E
  5
4F9A
331
590F
  5
4F9B
331
5910
  5
4F9C
331
5911
  5
4F9D
331
5912
  5
4F9E
331
5913
  5
4F9F
331
5914
  5
4FA0
331
5915
  5
4FA1
331
5916
  5
4FA2
331
5917
  5
4FA3
331
5918
  5
4FA4
331
5919
  5
4FA5
331
591A
  5
4FA6
331
591B
  5
4FA7
331
591C
  5
4FA8
331
591D
  5
4FA9
331
591E
  5
4FAA
331
591F
  5
4FAB
331
5920
  5
4FAC
331
5921
  5
4FAD
331
5922
  5
4FAE
331
5923
  5
4FAF
331
5924
  5
4FB0
331
5925
  5
4FB1
331
5926
  5
4FB2
331
5927
  5
4FB3
331
5928
  5
4FB4
331
5929
  5
4FB5
331
592A
  5
4FB6
331
592B
  5
4FB7
331
592C
  5
4FB8
331
592D
  5
4FB9
331
592E
  5
4FBA
331
592F
  5
4FBB
331
5930
  5
4FBC
331
5931
  5
4FBD
331
5932
  5
4FBE
331
5933
  5
4FBF
331
5934
  5
4FC0
331
5935
  5
4FC1
331
5936
  5
4FC2
331
5937
  5
4FC3
331
5938
  5
4FC4
331
5939
  5
4FC5
331
593A
  5
4FC6
331
593B
  5
4FC7
331
593C
  5
4FC8
331
593D
  5
4FC9
331
593E
  5
4FCA
331
593F
  5
4DB9
331
5940
  5
4DBA
331
5941
  5
4DBB
331
5942
  5
4DBC
331
5943
  5
4DBD
331
5944
  5
4DBE
331
5945
  5
4DBF
331
5946
  5
4DC0
331
5947
  5
4DC1
331
5948
  5
4DC2
331
5949
  5
4DC3
331
594A
  5
4DC4
331
594B
  5
4DC5
331
594C
  5
4DC6
331
594D
  5
4DC7
331
594E
  5
4DC8
331
594F
  5
4DC9
331
5950
  5
4DCA
331
5951
  5
4DCB
331
5952
  5
4DCC
331
5953
  5
4DCD
331
5954
  5
4DCE
331
5955
  5
4DCF
331
5956
  5
4DD0
331
5957
  5
4DD1
331
5958
  5
4DD2
331
5959
  5
4DD3
331
595A
  5
4DD4
331
595B
  5
4DD5
331
595C
  5
4DD6
331
595D
  5
4DD7
331
595E
  5
4DD8
331
595F
  5
4DD9
331
5960
  5
4DDA
331
5961
  5
4DDB
331
5962
  5
4DDC
331
5963
  5
4DDD
331
5964
  5
4DDE
331
5965
  5
4DDF
331
5966
  5
4DE0
331
5967
  5
4DE1
331
5968
  5
4DE2
331
5969
  5
4DE3
331
596A
  5
4DE4
331
596B
  5
4DE5
331
596C
  5
4DE6
331
596D
  5
4DE7
331
596E
  5
4DE8
331
596F
  5
4DE9
331
5970
  5
4DEA
331
5971
  5
4DEB
331
5972
  5
4DEC
331
5973
  5
4DED
331
5974
  5
4DEE
331
5975
  5
4DEF
331
5976
  5
4DF0
331
5977
  5
4DF1
331
5978
  5
4DF2
331
5979
  5
4DF3
331
597A
  5
4DF4
331
597B
  5
4DF5
331
597C
  5
4DF6
331
597D
  5
4DF7
331
597E
  5
4DF8
331
597F
  5
4DF9
331
5980
  5
4DFA
331
5981
  5
4DFB
331
5982
  5
4DFC
331
5983
  5
4DFD
331
5984
  5
4DFE
331
5985
  5
4DFF
331
5986
  5
4E00
331
5987
  5
4E01
331
5988
  5
4E02
331
5989
  5
4E03
331
598A
  5
4E04
331
598B
  5
4E05
331
598C
  5
4E06
331
598D
  5
4E07
331
598E
  5
4E08
331
598F
  5
4E09
331
5990
  5
4E0A
331
5991
  5
4E0B
331
5992
  5
4E0C
331
5993
  5
4E0D
331
5994
  5
4E0E
331
5995
  5
4E0F
331
5996
  5
4E10
331
5997
  5
4E11
331
5998
  5
4E12
331
5999
  5
4E13
331
599A
  5
4E14
331
599B
  5
4E15
331
599C
  5
4E16
331
599D
  5
4E17
331
599E
  5
4E18
331
599F
  5
4E19
331
59A0
  5
4E1A
331
59A1
  5
4E1B
331
59A2
  5
4E1C
331
59A3
  5
4E1D
331
59A4
  5
4E1E
331
59A5
  5
4E1F
331
59A6
  5
4E20
331
59A7
  5
4E21
331
59A8
  5
4E22
331
59A9
  5
4E23
331
59AA
  5
4E24
331
59AB
  5
4E25
331
59AC
  5
4E26
331
59AD
  5
4E27
331
59AE
  5
4E28
331
59AF
  5
4E29
331
59B0
  5
4E2A
331
59B1
  5
4E2B
331
59B2
  5
4E2C
331
59B3
  5
4E2D
331
59B4
  5
4E2E
331
59B5
  5
4E2F
331
59B6
  5
4E30
331
59B7
  5
4E31
331
59B8
  5
4E32
331
59B9
  5
4E33
331
59BA
  5
4E34
331
59BB
  5
4E35
331
59BC
  5
4E36
331
59BD
  5
4E37
331
59BE
  5
4E38
331
59BF
  5
4E39
331
59C0
  5
4E3A
331
59C1
  5
4E3B
331
59C2
  5
4E3C
331
59C3
  5
4E3D
331
59C4
  5
4E3E
331
59C5
  5
4E3F
331
59C6
  5
4E40
331
59C7
  5
4E41
331
59C8
  5
4E42
331
59C9
  5
4E43
331
59CA
  5
4E44
331
59CB
  5
4E45
331
59CC
  5
4E46
331
59CD
  5
4E47
331
59CE
  5
4E48
331
59CF
  5
4E49
331
59D0
  5
4E4A
331
59D1
  5
4E4B
331
59D2
  5
4E4C
331
59D3
  5
4E4D
331
59D4
  5
4E4E
331
59D5
  5
4E4F
331
59D6
  5
4E50
331
59D7
  5
4E51
331
59D8
  5
4E52
331
59D9
  5
4E53
331
59DA
  5
4E54
331
59DB
  5
4E55
331
59DC
  5
4E56
331
59DD
  5
4E57
331
59DE
  5
4E58
331
59DF
  5
4E59
331
59E0
  5
4E5A
331
59E1
  5
4E5B
331
59E2
  5
4E5C
331
59E3
  5
4E5D
331
59E4
  5
4E5E
331
59E5
  5
4E5F
331
59E6
  5
4E60
331
59E7
  5
4E61
331
59E8
  5
4E62
331
59E9
  5
4E63
331
59EA
  5
4E64
331
59EB
  5
4E65
331
59EC
  5
4E66
331
59ED
  5
4E67
331
59EE
  5
4E68
331
59EF
  5
4E69
331
59F0
  5
4E6A
331
59F1
  5
4E6B
331
59F2
  5
4E6C
331
59F3
  5
4E6D
331
59F4
  5
4E6E
331
59F5
  5
4E6F
331
59F6
  5
4E70
331
59F7
  5
4E71
331
59F8
  5
4E72
331
59F9
  5
4E73
331
59FA
  5
4E74
331
59FB
  5
4E75
331
59FC
  5
4E76
331
59FD
  5
4E77
331
59FE
  5
4E78
331
59FF
  5
4E79
331
5A00
  5
4E7A
331
5A01
  5
4E7B
331
5A02
  5
4E7C
331
5A03
  5
4E99
331
5A04
  5
4E9A
331
5A05
  5
4E9B
331
5A06
  5
4E9C
331
5A07
  5
4E9D
331
5A08
  5
4EC2
331
5A09
  5
4EC3
331
5A0A
  5
4EC4
331
5A0B
  5
4EC5
331
5A0C
  5
4EC6
331
5A0D
  5
4EC7
331
5A0E
  5
4EC8
331
5A0F
  5
4EC9
331
5A10
  5
4ECA
331
5A11
  5
4ECB
331
5A12
  5
4ECC
331
5A13
  5
4ECD
331
5A14
  5
4ECE
331
5A15
  5
4ECF
331
5A16
  5
4ED0
331
5A17
  5
4ED1
331
5A18
  5
4ED2
331
5A19
  5
4ED3
331
5A1A
  5
4ED4
331
5A1B
  5
4ED5
331
5A1C
  5
4ED6
331
5A1D
  5
4ED7
331
5A1E
  5
4ED8
331
5A1F
  5
4ED9
331
5A20
  5
4EDA
331
5A21
  5
4EDB
331
5A22
  5
4EDC
331
5A23
  5
4EDD
331
5A24
  5
4EDE
331
5A25
  5
4EDF
331
5A26
  5
4EE0
331
5A27
  5
4EE1
331
5A28
  5
4EE2
331
5A29
  5
4EE3
331
5A2A
  5
4EE4
331
5A2B
  5
4EE5
331
5A2C
  5
4EE6
331
5A2D
  5
4EE7
331
5A2E
  5
4EE8
331
5A2F
  5
4EE9
331
5A30
  5
4EEA
331
5A31
  5
4EEB
331
5A32
  5
4EEC
331
5A33
  5
4EED
331
5A34
  5
4EEE
331
5A35
  5
4EEF
331
5A36
  5
4EF0
331
5A37
  5
4EF1
331
5A38
  5
4EF2
331
5A39
  5
4EF3
331
5A3A
  5
4EF4
331
5A3B
  5
4EF5
331
5A3C
  5
4EF6
331
5A3D
  5
4EF7
331
5A3E
  5
4EF8
331
5A3F
  5
4EF9
331
5A40
  5
4EFA
331
5A41
  5
4EFB
331
5A42
  5
4EFC
331
5A43
  5
4EFD
331
5A44
  5
4EFE
331
5A45
  5
4EFF
331
5A46
  5
4F00
331
5A47
  5
4F01
331
5A48
  5
4F02
331
5A49
  5
4F03
331
5A4A
  5
4F04
331
5A4B
  5
4F05
331
5A4C
  5
4F06
331
5A4D
  5
4F07
331
5A4E
  5
4F08
331
5A4F
  5
4F09
331
5A50
  5
4F0A
331
5A51
  5
4F0B
331
5A52
  5
4F0C
331
5A53
  5
4F0D
331
5A54
  5
4F0E
331
5A55
  5
4F0F
331
5A56
  5
4F10
331
5A57
  5
4F11
331
5A58
  5
4F12
331
5A59
  5
4F13
331
5A5A
  5
4F14
331
5A5B
  5
4F15
331
5A5C
  5
4F16
331
5A5D
  5
4F17
331
5A5E
  5
4F18
331
5A5F
  5
4F19
331
5A60
  5
4F1A
331
5A61
  5
4F1B
331
5A62
  5
4F1C
331
5A63
  5
4F1D
331
5A64
  5
4F1E
331
5A65
  5
4F1F
331
5A66
  5
4F20
331
5A67
  5
4F21
331
5A68
  5
4F22
331
5A69
  5
4F23
331
5A6A
  5
4F24
331
5A6B
  5
4F25
331
5A6C
  5
4F26
331
5A6D
  5
4F27
331
5A6E
  5
4F28
331
5A6F
  5
4F29
331
5A70
  5
4F2A
331
5A71
  5
4F2B
331
5A72
  5
4F2C
331
5A73
  5
4F2D
331
5A74
  5
4F2E
331
5A75
  5
4F2F
331
5A76
  5
4F30
331
5A77
  5
4F31
331
5A78
  5
4F32
331
5A79
  5
4F33
331
5A7A
  5
4F34
331
5A7B
  5
4F35
331
5A7C
  5
4F36
331
5A7D
  5
4F37
331
5A7E
  5
4F38
331
5A7F
  5
4F39
331
5A80
  5
4F3A
331
5A81
  5
4F3B
331
5A82
  5
4F3C
331
5A83
  5
4F3D
331
5A84
  5
4F3E
331
5A85
  5
4F3F
331
5A86
  5
4F40
331
5A87
  5
4F41
331
5A88
  5
4F42
331
5A89
  5
4F43
331
5A8A
  5
4F4D
331
5A8B
  5
4F4E
331
5A8C
  5
4F4F
331
5A8D
  5
4F50
331
5A8E
  5
4F51
331
5A8F
  5
4F52
331
5A90
  5
4F53
331
5A91
  5
4F54
331
5A92
  5
4F55
331
5A93
  5
4F56
331
5A94
  5
4F57
331
5A95
  5
4F58
331
5A96
  5
4F61
331
5A97
  5
4F62
331
5A98
  5
4D26
331
5A99
  5
4D27
331
5A9A
  5
4D28
331
5A9B
  5
4D29
331
5A9C
  5
4D2A
331
5A9D
  5
4D2B
331
5A9E
  5
4D2C
331
5A9F
  5
4D2D
331
5AA0
  5
4D2E
331
5AA8
  5
4D30
331
5AA9
  5
4D31
331
5AAA
  5
4D32
331
5AAB
  5
4D33
331
5AAC
  5
4D34
331
5AAD
  5
4D35
331
5AAE
  5
4D36
331
5AAF
  5
4D37
331
5AB0
  5
4D38
331
5AB1
  5
4D39
331
5AB2
  5
4D3A
331
5AB3
  5
4D3B
331
5AB4
  5
4D3C
331
5AB5
  5
4D3D
331
5AB6
  5
4D3E
331
5AB7
  5
4D3F
331
5AB8
  5
4D40
331
5AB9
  5
4D41
331
5ABA
  5
4D42
331
5ABB
  5
4D43
331
5ABC
  5
4D44
331
5ABD
  5
4D45
331
5ABE
  5
4D46
331
5ABF
  5
4D47
331
5AC0
  5
4D48
331
5AC1
  5
4D49
331
5AC2
  5
4D4A
331
5AC3
  5
4D4B
331
5AC4
  5
4D4C
331
5AC5
  5
4D4D
331
5AC6
  5
4D4E
331
5AC7
  5
4D4F
331
5AC8
  5
4D50
331
5AC9
  5
4D51
331
5ACA
  5
4D52
331
5ACB
  5
4D53
331
5ACC
  5
4D54
331
5ACD
  5
4D55
331
5ACE
  5
4D56
331
5ACF
  5
4D57
331
5AD0
  5
4D58
331
5AD1
  5
4D59
331
5AD2
  5
4D5A
331
5AD3
  5
4D5B
331
5AD4
  5
4D5C
331
5AD5
  5
4D5D
331
5AD6
  5
4D5E
331
5AD7
  5
4D5F
331
5AD8
  5
4D60
331
5AD9
  5
4D61
331
5ADA
  5
4D62
331
5ADB
  5
4D63
331
5ADC
  5
4D64
331
5ADD
  5
4D65
331
5ADE
  5
4D66
331
5ADF
  5
4D67
331
5AE0
  5
4D68
331
5AE1
  5
4D69
331
5AE2
  5
4D6A
331
5AE3
  5
4D6B
331
5AE4
  5
4D6C
331
5AE5
  5
4D6D
331
5AE6
  5
4D6E
331
5AE7
  5
4D6F
331
5AE8
  5
4D70
331
5AE9
  5
4D71
331
5AEA
  5
4D72
331
5AEB
  5
4D73
331
5AEC
  5
4D74
331
5AED
  5
4D75
331
5AEE
  5
4D76
331
5AEF
  5
4D77
331
5AF0
  5
4D78
331
5AF1
  5
4D79
331
5AF2
  5
4D7A
331
5AF3
  5
4D7B
331
5AF4
  5
4D7C
331
5AF5
  5
4D7D
331
5AF6
  5
4D7E
331
5AF7
  5
4D7F
331
5AF8
  5
4D80
331
5AF9
  5
4D81
331
5AFA
  5
4D82
331
5AFB
  5
4D83
331
5AFC
  5
4D84
331
5AFD
  5
4D85
331
5AFE
  5
4D86
331
5AFF
  5
4D87
331
5B00
  5
4D88
331
5B01
  5
4D89
331
5B02
  5
4D8A
331
5B03
  5
4D8B
331
5B04
  5
4D8C
331
5B05
  5
4D8D
331
5B06
  5
4D8E
331
5B07
  5
4D8F
331
5B08
  5
4D90
331
5B09
  5
4D91
331
5B0A
  5
4D92
331
5B0B
  5
4D93
331
5B0C
  5
4D94
331
5B0D
  5
4D95
331
5B0E
  5
4D96
331
5B0F
  5
4D97
331
5B10
  5
4D98
331
5B11
  5
4D99
331
5B12
  5
4D9A
331
5B13
  5
4D9B
331
5B14
  5
4D9C
331
5B15
  5
4D9D
331
5B16
  5
4D9E
331
5B17
  5
4D9F
331
5B18
  5
4DA0
331
5B19
  5
4DA1
331
5B1A
  5
4DA2
331
5B1B
  5
4DA3
331
5B1C
  5
4DA4
331
5B1D
  5
4DA5
331
5B1E
  5
4DA6
331
5B1F
  5
4DA7
331
5B20
  5
4DA8
331
5B21
  5
4DA9
331
5B22
  5
4DAA
331
5B23
  5
4DAB
331
5B24
  5
4DAC
331
5B25
  5
4DAD
331
5B26
  5
4DAE
331
5B27
  5
4DAF
331
5B28
  5
4DB0
331
5B29
  5
4DB1
331
5B2A
  5
4DB2
331
5B2B
  5
4DB3
331
5B2C
  5
4DB4
331
5B2D
  5
4DB5
331
5B2E
  5
4DB6
331
5B2F
  5
4DB7
331
5B30
  5
4DB8
  0
LAYOUT
  5
21
102
{ACAD_REACTORS
330
1E
102
}
330
1E
100
AcDbPlotSettings
  1

  2

  4

  6

 40
0.0
 41
0.0
 42
0.0
 43
0.0
 44
0.0
 45
0.0
 46
0.0
 47
0.0
 48
0.0
 49
0.0
140
0.0
141
0.0
142
1.0
143
1.0
 70
     0
 72
     0
 73
     0
 74
     0
  7

 75
     0
 76
     0
 77
     2
 78
   300
147
1.0
148
0.0
149
0.0
100
AcDbLayout
  1
Layout1
 70
     0
 71
     1
 10
0.0
 20
0.0
 11
12.0
 21
9.0
 12
0.0
 22
0.0
 32
0.0
 14
1.000000000000000E+20
 24
1.000000000000000E+20
 34
1.000000000000000E+20
 15
-1.000000000000000E+20
 25
-1.000000000000000E+20
 35
-1.000000000000000E+20
146
0.0
 13
0.0
 23
0.0
 33
0.0
 16
1.0
 26
0.0
 36
0.0
 17
0.0
 27
1.0
 37
0.0
 76
     0
330
B
  0
LAYOUT
  5
20
102
{ACAD_REACTORS
330
1E
102
}
330
1E
100
AcDbPlotSettings
  1

  2

  4

  6

 40
0.0
 41
0.0
 42
0.0
 43
0.0
 44
0.0
 45
0.0
 46
0.0
 47
0.0
 48
0.0
 49
0.0
140
0.0
141
0.0
142
1.0
143
1.0
 70
  1024
 72
     0
 73
     0
 74
     0
  7

 75
     0
 76
     0
 77
     2
 78
   300
147
1.0
148
0.0
149
0.0
100
AcDbLayout
  1
Model
 70
     0
 71
     0
 10
0.0
 20
0.0
 11
0.0
 21
0.0
 12
0.0
 22
0.0
 32
0.0
 14
0.0
 24
0.0
 34
0.0
 15
0.0
 25
0.0
 35
0.0
146
0.0
 13
0.0
 23
0.0
 33
0.0
 16
0.0
 26
0.0
 36
0.0
 17
0.0
 27
0.0
 37
0.0
 76
     0
330
A
331
15
  0
MATERIAL
  5
3967
102
{ACAD_REACTORS
330
395E
102
}
330
395E
100
AcDbMaterial
  1
ByBlock
 72
     0
 43
0.0208333333333333
 43
0.0
 43
0.0
 43
0.0
 43
0.0
 43
0.0208333333333333
 43
0.0
 43
0.0
 43
0.0
 43
0.0
 43
1.0
 43
0.0
 43
0.0
 43
0.0
 43
0.0
 43
1.0
 77
     0
 47
0.0208333333333333
 47
0.0
 47
0.0
 47
0.0
 47
0.0
 47
0.0208333333333333
 47
0.0
 47
0.0
 47
0.0
 47
0.0
 47
1.0
 47
0.0
 47
0.0
 47
0.0
 47
0.0
 47
1.0
171
     0
 49
0.0208333333333333
 49
0.0
 49
0.0
 49
0.0
 49
0.0
 49
0.0208333333333333
 49
0.0
 49
0.0
 49
0.0
 49
0.0
 49
1.0
 49
0.0
 49
0.0
 49
0.0
 49
0.0
 49
1.0
175
     0
142
0.0208333333333333
142
0.0
142
0.0
142
0.0
142
0.0
142
0.0208333333333333
142
0.0
142
0.0
142
0.0
142
0.0
142
1.0
142
0.0
142
0.0
142
0.0
142
0.0
142
1.0
179
     0
144
0.0208333333333333
144
0.0
144
0.0
144
0.0
144
0.0
144
0.0208333333333333
144
0.0
144
0.0
144
0.0
144
0.0
144
1.0
144
0.0
144
0.0
144
0.0
144
0.0
144
1.0
147
0.0208333333333333
147
0.0
147
0.0
147
0.0
147
0.0
147
0.0208333333333333
147
0.0
147
0.0
147
0.0
147
0.0
147
1.0
147
0.0
147
0.0
147
0.0
147
0.0
147
1.0
 94
      127
  0
MATERIAL
  5
395F
102
{ACAD_REACTORS
330
395E
102
}
330
395E
100
AcDbMaterial
  1
ByLayer
 72
     0
 43
0.0208333333333333
 43
0.0
 43
0.0
 43
0.0
 43
0.0
 43
0.0208333333333333
 43
0.0
 43
0.0
 43
0.0
 43
0.0
 43
1.0
 43
0.0
 43
0.0
 43
0.0
 43
0.0
 43
1.0
 77
     0
 47
0.0208333333333333
 47
0.0
 47
0.0
 47
0.0
 47
0.0
 47
0.0208333333333333
 47
0.0
 47
0.0
 47
0.0
 47
0.0
 47
1.0
 47
0.0
 47
0.0
 47
0.0
 47
0.0
 47
1.0
171
     0
 49
0.0208333333333333
 49
0.0
 49
0.0
 49
0.0
 49
0.0
 49
0.0208333333333333
 49
0.0
 49
0.0
 49
0.0
 49
0.0
 49
1.0
 49
0.0
 49
0.0
 49
0.0
 49
0.0
 49
1.0
175
     0
142
0.0208333333333333
142
0.0
142
0.0
142
0.0
142
0.0
142
0.0208333333333333
142
0.0
142
0.0
142
0.0
142
0.0
142
1.0
142
0.0
142
0.0
142
0.0
142
0.0
142
1.0
179
     0
144
0.0208333333333333
144
0.0
144
0.0
144
0.0
144
0.0
144
0.0208333333333333
144
0.0
144
0.0
144
0.0
144
0.0
144
1.0
144
0.0
144
0.0
144
0.0
144
0.0
144
1.0
147
0.0208333333333333
147
0.0
147
0.0
147
0.0
147
0.0
147
0.0208333333333333
147
0.0
147
0.0
147
0.0
147
0.0
147
1.0
147
0.0
147
0.0
147
0.0
147
0.0
147
1.0
 94
      127
  0
MATERIAL
  5
396F
102
{ACAD_REACTORS
330
395E
102
}
330
395E
100
AcDbMaterial
  1
Global
 72
     0
 43
0.0208333333333333
 43
0.0
 43
0.0
 43
0.0
 43
0.0
 43
0.0208333333333333
 43
0.0
 43
0.0
 43
0.0
 43
0.0
 43
1.0
 43
0.0
 43
0.0
 43
0.0
 43
0.0
 43
1.0
 77
     0
 47
0.0208333333333333
 47
0.0
 47
0.0
 47
0.0
 47
0.0
 47
0.0208333333333333
 47
0.0
 47
0.0
 47
0.0
 47
0.0
 47
1.0
 47
0.0
 47
0.0
 47
0.0
 47
0.0
 47
1.0
171
     0
 49
0.0208333333333333
 49
0.0
 49
0.0
 49
0.0
 49
0.0
 49
0.0208333333333333
 49
0.0
 49
0.0
 49
0.0
 49
0.0
 49
1.0
 49
0.0
 49
0.0
 49
0.0
 49
0.0
 49
1.0
175
     0
142
0.0208333333333333
142
0.0
142
0.0
142
0.0
142
0.0
142
0.0208333333333333
142
0.0
142
0.0
142
0.0
142
0.0
142
1.0
142
0.0
142
0.0
142
0.0
142
0.0
142
1.0
179
     0
144
0.0208333333333333
144
0.0
144
0.0
144
0.0
144
0.0
144
0.0208333333333333
144
0.0
144
0.0
144
0.0
144
0.0
144
1.0
144
0.0
144
0.0
144
0.0
144
0.0
144
1.0
147
0.0208333333333333
147
0.0
147
0.0
147
0.0
147
0.0
147
0.0208333333333333
147
0.0
147
0.0
147
0.0
147
0.0
147
1.0
147
0.0
147
0.0
147
0.0
147
0.0
147
1.0
 94
      127
  0
MLEADERSTYLE
  5
39AE
102
{ACAD_REACTORS
330
39AD
102
}
330
39AD
100
AcDbMLeaderStyle
179
     2
170
     2
171
     1
172
     0
 90
        2
 40
0.0
 41
0.0
173
     1
 91
-1056964608
340
11
 92
       -2
290
     1
 42
2.0
291
     1
 43
0.36
  3
Standard
341
0
 44
4.0
300

342
17
174
     1
178
     6
175
     1
176
     0
 93
-1056964608
 45
4.0
292
     0
297
     0
 46
4.0
343
0
 94
-1056964608
 47
1.0
 49
1.0
140
1.0
293
     1
141
0.0
294
     1
177
     0
142
1.0
295
     0
296
     0
143
0.125
271
     0
272
     9
273
     9
1001
ACAD_MLEADERVER
1070
     2
  0
MLINESTYLE
  5
1C
102
{ACAD_REACTORS
330
1B
102
}
330
1B
100
AcDbMlineStyle
  2
STANDARD
 70
     0
  3

 62
     0
 51
90.0
 52
90.0
 71
     2
 49
0.5
 62
   256
  6
BYLAYER
 49
-0.5
 62
   256
  6
BYLAYER
  0
ACDBPLACEHOLDER
  5
1D
102
{ACAD_REACTORS
330
1F
102
}
330
1F
  0
SCALE
  5
398C
102
{ACAD_REACTORS
330
398B
102
}
330
398B
100
AcDbScale
 70
     0
300
1:1
140
1.0
141
1.0
290
     1
  0
SCALE
  5
398D
102
{ACAD_REACTORS
330
398B
102
}
330
398B
100
AcDbScale
 70
     0
300
1:2
140
1.0
141
2.0
290
     0
  0
SCALE
  5
398E
102
{ACAD_REACTORS
330
398B
102
}
330
398B
100
AcDbScale
 70
     0
300
1:4
140
1.0
141
4.0
290
     0
  0
SCALE
  5
398F
102
{ACAD_REACTORS
330
398B
102
}
330
398B
100
AcDbScale
 70
     0
300
1:5
140
1.0
141
5.0
290
     0
  0
SCALE
  5
3990
102
{ACAD_REACTORS
330
398B
102
}
330
398B
100
AcDbScale
 70
     0
300
1:8
140
1.0
141
8.0
290
     0
  0
SCALE
  5
3991
102
{ACAD_REACTORS
330
398B
102
}
330
398B
100
AcDbScale
 70
     0
300
1:10
140
1.0
141
10.0
290
     0
  0
SCALE
  5
3992
102
{ACAD_REACTORS
330
398B
102
}
330
398B
100
AcDbScale
 70
     0
300
1:16
140
1.0
141
16.0
290
     0
  0
SCALE
  5
3993
102
{ACAD_REACTORS
330
398B
102
}
330
398B
100
AcDbScale
 70
     0
300
1:20
140
1.0
141
20.0
290
     0
  0
SCALE
  5
3994
102
{ACAD_REACTORS
330
398B
102
}
330
398B
100
AcDbScale
 70
     0
300
1:30
140
1.0
141
30.0
290
     0
  0
SCALE
  5
3995
102
{ACAD_REACTORS
330
398B
102
}
330
398B
100
AcDbScale
 70
     0
300
1:40
140
1.0
141
40.0
290
     0
  0
SCALE
  5
3996
102
{ACAD_REACTORS
330
398B
102
}
330
398B
100
AcDbScale
 70
     0
300
1:50
140
1.0
141
50.0
290
     0
  0
SCALE
  5
3997
102
{ACAD_REACTORS
330
398B
102
}
330
398B
100
AcDbScale
 70
     0
300
1:100
140
1.0
141
100.0
290
     0
  0
SCALE
  5
3998
102
{ACAD_REACTORS
330
398B
102
}
330
398B
100
AcDbScale
 70
     0
300
2:1
140
2.0
141
1.0
290
     0
  0
SCALE
  5
3999
102
{ACAD_REACTORS
330
398B
102
}
330
398B
100
AcDbScale
 70
     0
300
4:1
140
4.0
141
1.0
290
     0
  0
SCALE
  5
399A
102
{ACAD_REACTORS
330
398B
102
}
330
398B
100
AcDbScale
 70
     0
300
8:1
140
8.0
141
1.0
290
     0
  0
SCALE
  5
399B
102
{ACAD_REACTORS
330
398B
102
}
330
398B
100
AcDbScale
 70
     0
300
10:1
140
10.0
141
1.0
290
     0
  0
SCALE
  5
399C
102
{ACAD_REACTORS
330
398B
102
}
330
398B
100
AcDbScale
 70
     0
300
100:1
140
100.0
141
1.0
290
     0
  0
SCALE
  5
399D
102
{ACAD_REACTORS
330
398B
102
}
330
398B
100
AcDbScale
 70
     0
300
1/128" = 1'-0"
140
0.0078125
141
12.0
290
     0
  0
SCALE
  5
399E
102
{ACAD_REACTORS
330
398B
102
}
330
398B
100
AcDbScale
 70
     0
300
1/64" = 1'-0"
140
0.015625
141
12.0
290
     0
  0
SCALE
  5
399F
102
{ACAD_REACTORS
330
398B
102
}
330
398B
100
AcDbScale
 70
     0
300
1/32" = 1'-0"
140
0.03125
141
12.0
290
     0
  0
SCALE
  5
39A0
102
{ACAD_REACTORS
330
398B
102
}
330
398B
100
AcDbScale
 70
     0
300
1/16" = 1'-0"
140
0.0625
141
12.0
290
     0
  0
SCALE
  5
39A1
102
{ACAD_REACTORS
330
398B
102
}
330
398B
100
AcDbScale
 70
     0
300
3/32" = 1'-0"
140
0.09375
141
12.0
290
     0
  0
SCALE
  5
39A2
102
{ACAD_REACTORS
330
398B
102
}
330
398B
100
AcDbScale
 70
     0
300
1/8" = 1'-0"
140
0.125
141
12.0
290
     0
  0
SCALE
  5
39A3
102
{ACAD_REACTORS
330
398B
102
}
330
398B
100
AcDbScale
 70
     0
300
3/16" = 1'-0"
140
0.1875
141
12.0
290
     0
  0
SCALE
  5
39A4
102
{ACAD_REACTORS
330
398B
102
}
330
398B
100
AcDbScale
 70
     0
300
1/4" = 1'-0"
140
0.25
141
12.0
290
     0
  0
SCALE
  5
39A5
102
{ACAD_REACTORS
330
398B
102
}
330
398B
100
AcDbScale
 70
     0
300
3/8" = 1'-0"
140
0.375
141
12.0
290
     0
  0
SCALE
  5
39A6
102
{ACAD_REACTORS
330
398B
102
}
330
398B
100
AcDbScale
 70
     0
300
1/2" = 1'-0"
140
0.5
141
12.0
290
     0
  0
SCALE
  5
39A7
102
{ACAD_REACTORS
330
398B
102
}
330
398B
100
AcDbScale
 70
     0
300
3/4" = 1'-0"
140
0.75
141
12.0
290
     0
  0
SCALE
  5
39A8
102
{ACAD_REACTORS
330
398B
102
}
330
398B
100
AcDbScale
 70
     0
300
1" = 1'-0"
140
1.0
141
12.0
290
     0
  0
SCALE
  5
39A9
102
{ACAD_REACTORS
330
398B
102
}
330
398B
100
AcDbScale
 70
     0
300
1-1/2" = 1'-0"
140
1.5
141
12.0
290
     0
  0
SCALE
  5
39AA
102
{ACAD_REACTORS
330
398B
102
}
330
398B
100
AcDbScale
 70
     0
300
3" = 1'-0"
140
3.0
141
12.0
290
     0
  0
SCALE
  5
39AB
102
{ACAD_REACTORS
330
398B
102
}
330
398B
100
AcDbScale
 70
     0
300
6" = 1'-0"
140
6.0
141
12.0
290
     0
  0
SCALE
  5
39AC
102
{ACAD_REACTORS
330
398B
102
}
330
398B
100
AcDbScale
 70
     0
300
1'-0" = 1'-0"
140
12.0
141
12.0
290
     0
  0
TABLESTYLE
  5
398A
102
{ACAD_REACTORS
330
3989
102
}
102
{ACAD_XDICTIONARY
360
7C5B
102
}
330
3989
100
AcDbTableStyle
  3
Standard
 70
     0
 71
     0
 40
1.5
 41
1.5
280
     0
281
     0
  7
Standard
140
4.5
170
     2
 62
     0
 63
   257
283
     0
 90
      512
 91
        0
  1

274
    -2
284
     1
 64
     0
275
    -2
285
     1
 65
     0
276
    -2
286
     1
 66
     0
277
    -2
287
     1
 67
     0
278
    -2
288
     1
 68
     0
279
    -2
289
     1
 69
     0
  7
Standard
140
6.0
170
     5
 62
     0
 63
   257
283
     0
 90
      512
 91
        0
  1

274
    -2
284
     1
 64
     0
275
    -2
285
     1
 65
     0
276
    -2
286
     1
 66
     0
277
    -2
287
     1
 67
     0
278
    -2
288
     1
 68
     0
279
    -2
289
     1
 69
     0
  7
Standard
140
4.5
170
     5
 62
     0
 63
   257
283
     0
 90
      512
 91
        0
  1

274
    -2
284
     1
 64
     0
275
    -2
285
     1
 65
     0
276
    -2
286
     1
 66
     0
277
    -2
287
     1
 67
     0
278
    -2
288
     1
 68
     0
279
    -2
289
     1
 69
     0
  0
VISUALSTYLE
  5
397D
102
{ACAD_REACTORS
330
3977
102
}
330
3977
100
AcDbVisualStyle
  2
2dWireframe
 70
     4
177
     2
291
     0
 71
     0
176
     1
 72
     2
176
     1
 73
     0
176
     1
 90
        0
176
     1
 40
-0.6
176
     1
 41
-30.0
176
     1
 62
     5
 63
     7
176
     1
 74
     1
176
     1
 91
        4
176
     1
 64
     7
176
     1
 65
   257
176
     1
 75
     1
176
     1
175
     1
176
     1
 42
1.0
176
     1
 92
        0
176
     1
 66
   257
176
     1
 43
1.0
176
     1
 76
     1
176
     1
 77
     6
176
     1
 78
     2
176
     1
 67
     7
176
     1
 79
     5
176
     1
170
     0
176
     1
171
     0
176
     1
290
     0
176
     1
 93
        1
176
     1
 44
0.0
176
     1
173
     0
176
     1
1001
ACAD
1000
AcDbSavedByObjectVersion
1070
     0
1000
AcDbSavedByObjectVersion
1070
     0
1000
AcDbSavedByObjectVersion
1070
     0
1000
AcDbSavedByObjectVersion
1070
     0
  0
VISUALSTYLE
  5
397F
102
{ACAD_REACTORS
330
3977
102
}
330
3977
100
AcDbVisualStyle
  2
3D Hidden
 70
     6
177
     2
291
     0
 71
     1
176
     1
 72
     2
176
     1
 73
     2
176
     1
 90
        0
176
     1
 40
-0.6
176
     1
 41
-30.0
176
     1
 62
     5
 63
     7
176
     1
 74
     2
176
     1
 91
        2
176
     1
 64
     7
176
     1
 65
   257
176
     1
 75
     2
176
     1
175
     1
176
     1
 42
40.0
176
     1
 92
        0
176
     1
 66
   257
176
     1
 43
1.0
176
     1
 76
     1
176
     1
 77
     6
176
     1
 78
     2
176
     1
 67
     7
176
     1
 79
     3
176
     1
170
     0
176
     1
171
     0
176
     1
290
     0
176
     1
 93
        1
176
     1
 44
0.0
176
     1
173
     0
176
     1
1001
ACAD
1000
AcDbSavedByObjectVersion
1070
     0
1000
AcDbSavedByObjectVersion
1070
     0
1000
AcDbSavedByObjectVersion
1070
     0
1000
AcDbSavedByObjectVersion
1070
     0
  0
VISUALSTYLE
  5
397E
102
{ACAD_REACTORS
330
3977
102
}
330
3977
100
AcDbVisualStyle
  2
3dWireframe
 70
     5
177
     2
291
     0
 71
     0
176
     1
 72
     2
176
     1
 73
     0
176
     1
 90
        0
176
     1
 40
-0.6
176
     1
 41
-30.0
176
     1
 62
     5
 63
     7
176
     1
 74
     1
176
     1
 91
        4
176
     1
 64
     7
176
     1
 65
   257
176
     1
 75
     1
176
     1
175
     1
176
     1
 42
1.0
176
     1
 92
        0
176
     1
 66
   257
176
     1
 43
1.0
176
     1
 76
     1
176
     1
 77
     6
176
     1
 78
     2
176
     1
 67
     7
176
     1
 79
     5
176
     1
170
     0
176
     1
171
     0
176
     1
290
     0
176
     1
 93
        1
176
     1
 44
0.0
176
     1
173
     0
176
     1
1001
ACAD
1000
AcDbSavedByObjectVersion
1070
     0
1000
AcDbSavedByObjectVersion
1070
     0
1000
AcDbSavedByObjectVersion
1070
     0
1000
AcDbSavedByObjectVersion
1070
     0
  0
VISUALSTYLE
  5
397C
102
{ACAD_REACTORS
330
3977
102
}
330
3977
100
AcDbVisualStyle
  2
Basic
 70
     7
177
     2
291
     1
 71
     1
176
     1
 72
     0
176
     1
 73
     1
176
     1
 90
        0
176
     1
 40
-0.6
176
     1
 41
-30.0
176
     1
 62
     5
 63
     7
176
     1
 74
     0
176
     1
 91
        4
176
     1
 64
     7
176
     1
 65
   257
176
     1
 75
     1
176
     1
175
     1
176
     1
 42
1.0
176
     1
 92
        8
176
     1
 66
     7
176
     1
 43
1.0
176
     1
 76
     1
176
     1
 77
     6
176
     1
 78
     2
176
     1
 67
     7
176
     1
 79
     5
176
     1
170
     0
176
     1
171
     0
176
     1
290
     0
176
     1
 93
        1
176
     1
 44
0.0
176
     1
173
     0
176
     1
1001
ACAD
1000
AcDbSavedByObjectVersion
1070
     0
1000
AcDbSavedByObjectVersion
1070
     0
1000
AcDbSavedByObjectVersion
1070
     0
1000
AcDbSavedByObjectVersion
1070
     0
  0
VISUALSTYLE
  5
3983
102
{ACAD_REACTORS
330
3977
102
}
330
3977
100
AcDbVisualStyle
  2
Brighten
 70
    12
177
     2
291
     1
 71
     2
176
     1
 72
     2
176
     1
 73
     0
176
     1
 90
        0
176
     1
 40
-0.6
176
     1
 41
-30.0
176
     1
 62
     5
 63
     7
176
     1
 74
     1
176
     1
 91
        4
176
     1
 64
     7
176
     1
 65
   257
176
     1
 75
     1
176
     1
175
     1
176
     1
 42
1.0
176
     1
 92
        8
176
     1
 66
     7
176
     1
 43
1.0
176
     1
 76
     1
176
     1
 77
     6
176
     1
 78
     2
176
     1
 67
     7
176
     1
 79
     5
176
     1
170
     0
176
     1
171
     0
176
     1
290
     0
176
     1
 93
        1
176
     1
 44
50.0
176
     1
173
     0
176
     1
1001
ACAD
1000
AcDbSavedByObjectVersion
1070
     0
1000
AcDbSavedByObjectVersion
1070
     0
1000
AcDbSavedByObjectVersion
1070
     0
1000
AcDbSavedByObjectVersion
1070
     0
  0
VISUALSTYLE
  5
3987
102
{ACAD_REACTORS
330
3977
102
}
330
3977
100
AcDbVisualStyle
  2
ColorChange
 70
    16
177
     2
291
     1
 71
     2
176
     1
 72
     2
176
     1
 73
     3
176
     1
 90
        0
176
     1
 40
-0.6
176
     1
 41
-30.0
176
     1
 62
     5
 63
     8
176
     1
 74
     1
176
     1
 91
        4
176
     1
 64
     7
176
     1
 65
   257
176
     1
 75
     1
176
     1
175
     1
176
     1
 42
1.0
176
     1
 92
        8
176
     1
 66
     8
176
     1
 43
1.0
176
     1
 76
     1
176
     1
 77
     6
176
     1
 78
     2
176
     1
 67
     7
176
     1
 79
     5
176
     1
170
     0
176
     1
171
     0
176
     1
290
     0
176
     1
 93
        1
176
     1
 44
0.0
176
     1
173
     0
176
     1
1001
ACAD
1000
AcDbSavedByObjectVersion
1070
     0
1000
AcDbSavedByObjectVersion
1070
     0
1000
AcDbSavedByObjectVersion
1070
     0
1000
AcDbSavedByObjectVersion
1070
     0
  0
VISUALSTYLE
  5
3980
102
{ACAD_REACTORS
330
3977
102
}
330
3977
100
AcDbVisualStyle
  2
Conceptual
 70
     9
177
     2
291
     0
 71
     3
176
     1
 72
     2
176
     1
 73
     0
176
     1
 90
        0
176
     1
 40
-0.6
176
     1
 41
-30.0
176
     1
 62
     5
 63
     7
176
     1
 74
     2
176
     1
 91
        2
176
     1
 64
     7
176
     1
 65
   257
176
     1
 75
     1
176
     1
175
     1
176
     1
 42
40.0
176
     1
 92
        8
176
     1
 66
     7
176
     1
 43
1.0
176
     1
 76
     1
176
     1
 77
     6
176
     1
 78
     2
176
     1
 67
     7
176
     1
 79
     3
176
     1
170
     0
176
     1
171
     0
176
     1
290
     0
176
     1
 93
        1
176
     1
 44
0.0
176
     1
173
     0
176
     1
1001
ACAD
1000
AcDbSavedByObjectVersion
1070
     0
1000
AcDbSavedByObjectVersion
1070
     0
1000
AcDbSavedByObjectVersion
1070
     0
1000
AcDbSavedByObjectVersion
1070
     0
  0
VISUALSTYLE
  5
3982
102
{ACAD_REACTORS
330
3977
102
}
330
3977
100
AcDbVisualStyle
  2
Dim
 70
    11
177
     2
291
     1
 71
     2
176
     1
 72
     2
176
     1
 73
     0
176
     1
 90
        0
176
     1
 40
-0.6
176
     1
 41
-30.0
176
     1
 62
     5
 63
     7
176
     1
 74
     1
176
     1
 91
        4
176
     1
 64
     7
176
     1
 65
   257
176
     1
 75
     1
176
     1
175
     1
176
     1
 42
1.0
176
     1
 92
        8
176
     1
 66
     7
176
     1
 43
1.0
176
     1
 76
     1
176
     1
 77
     6
176
     1
 78
     2
176
     1
 67
     7
176
     1
 79
     5
176
     1
170
     0
176
     1
171
     0
176
     1
290
     0
176
     1
 93
        1
176
     1
 44
-50.0
176
     1
173
     0
176
     1
1001
ACAD
1000
AcDbSavedByObjectVersion
1070
     0
1000
AcDbSavedByObjectVersion
1070
     0
1000
AcDbSavedByObjectVersion
1070
     0
1000
AcDbSavedByObjectVersion
1070
     0
  0
VISUALSTYLE
  5
3986
102
{ACAD_REACTORS
330
3977
102
}
330
3977
100
AcDbVisualStyle
  2
Facepattern
 70
    15
177
     2
291
     1
 71
     2
176
     1
 72
     2
176
     1
 73
     0
176
     1
 90
        0
176
     1
 40
-0.6
176
     1
 41
-30.0
176
     1
 62
     5
 63
     7
176
     1
 74
     1
176
     1
 91
        4
176
     1
 64
     7
176
     1
 65
   257
176
     1
 75
     1
176
     1
175
     1
176
     1
 42
1.0
176
     1
 92
        8
176
     1
 66
     7
176
     1
 43
1.0
176
     1
 76
     1
176
     1
 77
     6
176
     1
 78
     2
176
     1
 67
     7
176
     1
 79
     5
176
     1
170
     0
176
     1
171
     0
176
     1
290
     0
176
     1
 93
        1
176
     1
 44
0.0
176
     1
173
     0
176
     1
1001
ACAD
1000
AcDbSavedByObjectVersion
1070
     0
1000
AcDbSavedByObjectVersion
1070
     0
1000
AcDbSavedByObjectVersion
1070
     0
1000
AcDbSavedByObjectVersion
1070
     0
  0
VISUALSTYLE
  5
3978
102
{ACAD_REACTORS
330
3977
102
}
330
3977
100
AcDbVisualStyle
  2
Flat
 70
     0
177
     2
291
     1
 71
     2
176
     1
 72
     1
176
     1
 73
     1
176
     1
 90
        2
176
     1
 40
-0.6
176
     1
 41
30.0
176
     1
 62
     5
 63
     7
176
     1
 74
     0
176
     1
 91
        4
176
     1
 64
     7
176
     1
 65
   257
176
     1
 75
     1
176
     1
175
     1
176
     1
 42
1.0
176
     1
 92
        8
176
     1
 66
     7
176
     1
 43
1.0
176
     1
 76
     1
176
     1
 77
     6
176
     1
 78
     2
176
     1
 67
     7
176
     1
 79
     5
176
     1
170
     0
176
     1
171
     0
176
     1
290
     0
176
     1
 93
       13
176
     1
 44
0.0
176
     1
173
     0
176
     1
1001
ACAD
1000
AcDbSavedByObjectVersion
1070
     0
1000
AcDbSavedByObjectVersion
1070
     0
1000
AcDbSavedByObjectVersion
1070
     0
1000
AcDbSavedByObjectVersion
1070
     0
  0
VISUALSTYLE
  5
3979
102
{ACAD_REACTORS
330
3977
102
}
330
3977
100
AcDbVisualStyle
  2
FlatWithEdges
 70
     1
177
     2
291
     1
 71
     2
176
     1
 72
     1
176
     1
 73
     1
176
     1
 90
        2
176
     1
 40
-0.6
176
     1
 41
30.0
176
     1
 62
     5
 63
     7
176
     1
 74
     1
176
     1
 91
        4
176
     1
 64
     7
176
     1
 65
   257
176
     1
 75
     1
176
     1
175
     1
176
     1
 42
1.0
176
     1
 92
        0
176
     1
 66
   257
176
     1
 43
1.0
176
     1
 76
     1
176
     1
 77
     6
176
     1
 78
     2
176
     1
 67
     7
176
     1
 79
     5
176
     1
170
     0
176
     1
171
     0
176
     1
290
     0
176
     1
 93
       13
176
     1
 44
0.0
176
     1
173
     0
176
     1
1001
ACAD
1000
AcDbSavedByObjectVersion
1070
     0
1000
AcDbSavedByObjectVersion
1070
     0
1000
AcDbSavedByObjectVersion
1070
     0
1000
AcDbSavedByObjectVersion
1070
     0
  0
VISUALSTYLE
  5
397A
102
{ACAD_REACTORS
330
3977
102
}
330
3977
100
AcDbVisualStyle
  2
Gouraud
 70
     2
177
     2
291
     1
 71
     2
176
     1
 72
     2
176
     1
 73
     1
176
     1
 90
        2
176
     1
 40
-0.6
176
     1
 41
30.0
176
     1
 62
     5
 63
     7
176
     1
 74
     0
176
     1
 91
        4
176
     1
 64
     7
176
     1
 65
   257
176
     1
 75
     1
176
     1
175
     1
176
     1
 42
1.0
176
     1
 92
        0
176
     1
 66
     7
176
     1
 43
1.0
176
     1
 76
     1
176
     1
 77
     6
176
     1
 78
     2
176
     1
 67
     7
176
     1
 79
     5
176
     1
170
     0
176
     1
171
     0
176
     1
290
     0
176
     1
 93
       13
176
     1
 44
0.0
176
     1
173
     0
176
     1
1001
ACAD
1000
AcDbSavedByObjectVersion
1070
     0
1000
AcDbSavedByObjectVersion
1070
     0
1000
AcDbSavedByObjectVersion
1070
     0
1000
AcDbSavedByObjectVersion
1070
     0
  0
VISUALSTYLE
  5
397B
102
{ACAD_REACTORS
330
3977
102
}
330
3977
100
AcDbVisualStyle
  2
GouraudWithEdges
 70
     3
177
     2
291
     1
 71
     2
176
     1
 72
     2
176
     1
 73
     1
176
     1
 90
        2
176
     1
 40
-0.6
176
     1
 41
30.0
176
     1
 62
     5
 63
     7
176
     1
 74
     1
176
     1
 91
        4
176
     1
 64
     7
176
     1
 65
   257
176
     1
 75
     1
176
     1
175
     1
176
     1
 42
1.0
176
     1
 92
        0
176
     1
 66
   257
176
     1
 43
1.0
176
     1
 76
     1
176
     1
 77
     6
176
     1
 78
     2
176
     1
 67
     7
176
     1
 79
     5
176
     1
170
     0
176
     1
171
     0
176
     1
290
     0
176
     1
 93
       13
176
     1
 44
0.0
176
     1
173
     0
176
     1
1001
ACAD
1000
AcDbSavedByObjectVersion
1070
     0
1000
AcDbSavedByObjectVersion
1070
     0
1000
AcDbSavedByObjectVersion
1070
     0
1000
AcDbSavedByObjectVersion
1070
     0
  0
VISUALSTYLE
  5
3985
102
{ACAD_REACTORS
330
3977
102
}
330
3977
100
AcDbVisualStyle
  2
Linepattern
 70
    14
177
     2
291
     1
 71
     2
176
     1
 72
     2
176
     1
 73
     0
176
     1
 90
        0
176
     1
 40
-0.6
176
     1
 41
-30.0
176
     1
 62
     5
 63
     7
176
     1
 74
     1
176
     1
 91
        4
176
     1
 64
     7
176
     1
 65
   257
176
     1
 75
     7
176
     1
175
     7
176
     1
 42
1.0
176
     1
 92
        8
176
     1
 66
     7
176
     1
 43
1.0
176
     1
 76
     1
176
     1
 77
     6
176
     1
 78
     2
176
     1
 67
     7
176
     1
 79
     5
176
     1
170
     0
176
     1
171
     0
176
     1
290
     0
176
     1
 93
        1
176
     1
 44
0.0
176
     1
173
     0
176
     1
1001
ACAD
1000
AcDbSavedByObjectVersion
1070
     0
1000
AcDbSavedByObjectVersion
1070
     0
1000
AcDbSavedByObjectVersion
1070
     0
1000
AcDbSavedByObjectVersion
1070
     0
  0
VISUALSTYLE
  5
3981
102
{ACAD_REACTORS
330
3977
102
}
330
3977
100
AcDbVisualStyle
  2
Realistic
 70
     8
177
     2
291
     0
 71
     2
176
     1
 72
     2
176
     1
 73
     0
176
     1
 90
        0
176
     1
 40
-0.6
176
     1
 41
-30.0
176
     1
 62
     5
 63
     7
176
     1
 74
     1
176
     1
 91
        0
176
     1
 64
     7
176
     1
 65
   257
176
     1
 75
     1
176
     1
175
     1
176
     1
 42
1.0
176
     1
 92
        8
176
     1
 66
     8
176
     1
 43
1.0
176
     1
 76
     1
176
     1
 77
     6
176
     1
 78
     2
176
     1
 67
     7
176
     1
 79
     5
176
     1
170
     0
176
     1
171
     0
176
     1
290
     0
176
     1
 93
       13
176
     1
 44
0.0
176
     1
173
     0
176
     1
1001
ACAD
1000
AcDbSavedByObjectVersion
1070
     0
1000
AcDbSavedByObjectVersion
1070
     0
1000
AcDbSavedByObjectVersion
1070
     0
1000
AcDbSavedByObjectVersion
1070
     0
  0
VISUALSTYLE
  5
3984
102
{ACAD_REACTORS
330
3977
102
}
330
3977
100
AcDbVisualStyle
  2
Thicken
 70
    13
177
     2
291
     1
 71
     2
176
     1
 72
     2
176
     1
 73
     0
176
     1
 90
        0
176
     1
 40
-0.6
176
     1
 41
-30.0
176
     1
 62
     5
 63
     7
176
     1
 74
     1
176
     1
 91
        4
176
     1
 64
     7
176
     1
 65
   257
176
     1
 75
     1
176
     1
175
     1
176
     1
 42
1.0
176
     1
 92
       12
176
     1
 66
     7
176
     1
 43
1.0
176
     1
 76
     1
176
     1
 77
     6
176
     1
 78
     2
176
     1
 67
     7
176
     1
 79
     5
176
     1
170
     0
176
     1
171
     0
176
     1
290
     0
176
     1
 93
        1
176
     1
 44
0.0
176
     1
173
     0
176
     1
1001
ACAD
1000
AcDbSavedByObjectVersion
1070
     0
1000
AcDbSavedByObjectVersion
1070
     0
1000
AcDbSavedByObjectVersion
1070
     0
1000
AcDbSavedByObjectVersion
1070
     0
  0
DICTIONARYVAR
  5
7C5A
102
{ACAD_REACTORS
330
72CB
102
}
330
72CB
100
DictionaryVariables
280
     0
  1
1:1
  0
DICTIONARYVAR
  5
72CD
102
{ACAD_REACTORS
330
72CB
102
}
330
72CB
100
DictionaryVariables
280
     0
  1
Standard
  0
DICTIONARYVAR
  5
72CC
102
{ACAD_REACTORS
330
72CB
102
}
330
72CB
100
DictionaryVariables
280
     0
  1
Standard
  0
DICTIONARYVAR
  5
72D1
102
{ACAD_REACTORS
330
72CB
102
}
330
72CB
100
DictionaryVariables
280
     0
  1
1
  0
DICTIONARYVAR
  5
72D0
102
{ACAD_REACTORS
330
72CB
102
}
330
72CB
100
DictionaryVariables
280
     0
  1
0
  0
DICTIONARYVAR
  5
7C5D
102
{ACAD_REACTORS
330
72CB
102
}
330
72CB
100
DictionaryVariables
280
     0
  1
0
  0
DICTIONARYVAR
  5
72CF
102
{ACAD_REACTORS
330
72CB
102
}
330
72CB
100
DictionaryVariables
280
     0
  1
127
  0
XRECORD
  5
72C8
102
{ACAD_REACTORS
330
72C6
102
}
330
72C6
100
AcDbXrecord
280
     1
  0
DICTIONARY
  5
7C5B
330
398A
100
AcDbDictionary
280
     1
281
     1
  3
ACAD_ROUNDTRIP_2008_TABLESTYLE_CELLSTYLEMAP
360
7C5C
  0
CELLSTYLEMAP
  5
7C5C
102
{ACAD_REACTORS
330
7C5B
102
}
330
7C5B
100
AcDbCellStyleMap
 90
        3
300
CELLSTYLE
  1
TABLEFORMAT_BEGIN
 90
        5
170
     1
 91
        0
 92
    32768
 62
   257
 93
        1
300
CONTENTFORMAT
  1
CONTENTFORMAT_BEGIN
 90
        0
 91
        0
 92
      512
 93
        0
300

 40
0.0
140
1.0
 94
        5
 62
     0
340
17
144
6.0
309
CONTENTFORMAT_END
171
     1
301
MARGIN
  1
CELLMARGIN_BEGIN
 40
1.5
 40
1.5
 40
1.5
 40
1.5
 40
0.18
 40
0.18
309
CELLMARGIN_END
 94
        6
 95
        1
302
GRIDFORMAT
  1
GRIDFORMAT_BEGIN
 90
        0
 91
        1
 62
     0
 92
       -2
340
0
 93
        0
 40
1.125
309
GRIDFORMAT_END
 95
        2
302
GRIDFORMAT
  1
GRIDFORMAT_BEGIN
 90
        0
 91
        1
 62
     0
 92
       -2
340
0
 93
        0
 40
1.125
309
GRIDFORMAT_END
 95
        4
302
GRIDFORMAT
  1
GRIDFORMAT_BEGIN
 90
        0
 91
        1
 62
     0
 92
       -2
340
0
 93
        0
 40
1.125
309
GRIDFORMAT_END
 95
        8
302
GRIDFORMAT
  1
GRIDFORMAT_BEGIN
 90
        0
 91
        1
 62
     0
 92
       -2
340
0
 93
        0
 40
1.125
309
GRIDFORMAT_END
 95
       16
302
GRIDFORMAT
  1
GRIDFORMAT_BEGIN
 90
        0
 91
        1
 62
     0
 92
       -2
340
0
 93
        0
 40
1.125
309
GRIDFORMAT_END
 95
       32
302
GRIDFORMAT
  1
GRIDFORMAT_BEGIN
 90
        0
 91
        1
 62
     0
 92
       -2
340
0
 93
        0
 40
1.125
309
GRIDFORMAT_END
309
TABLEFORMAT_END
  1
CELLSTYLE_BEGIN
 90
        1
 91
        1
300
_TITLE
309
CELLSTYLE_END
300
CELLSTYLE
  1
TABLEFORMAT_BEGIN
 90
        5
170
     1
 91
        0
 92
        0
 62
   257
 93
        1
300
CONTENTFORMAT
  1
CONTENTFORMAT_BEGIN
 90
        0
 91
        0
 92
      512
 93
        0
300

 40
0.0
140
1.0
 94
        5
 62
     0
340
17
144
4.5
309
CONTENTFORMAT_END
171
     1
301
MARGIN
  1
CELLMARGIN_BEGIN
 40
1.5
 40
1.5
 40
1.5
 40
1.5
 40
0.18
 40
0.18
309
CELLMARGIN_END
 94
        6
 95
        1
302
GRIDFORMAT
  1
GRIDFORMAT_BEGIN
 90
        0
 91
        1
 62
     0
 92
       -2
340
0
 93
        0
 40
1.125
309
GRIDFORMAT_END
 95
        2
302
GRIDFORMAT
  1
GRIDFORMAT_BEGIN
 90
        0
 91
        1
 62
     0
 92
       -2
340
0
 93
        0
 40
1.125
309
GRIDFORMAT_END
 95
        4
302
GRIDFORMAT
  1
GRIDFORMAT_BEGIN
 90
        0
 91
        1
 62
     0
 92
       -2
340
0
 93
        0
 40
1.125
309
GRIDFORMAT_END
 95
        8
302
GRIDFORMAT
  1
GRIDFORMAT_BEGIN
 90
        0
 91
        1
 62
     0
 92
       -2
340
0
 93
        0
 40
1.125
309
GRIDFORMAT_END
 95
       16
302
GRIDFORMAT
  1
GRIDFORMAT_BEGIN
 90
        0
 91
        1
 62
     0
 92
       -2
340
0
 93
        0
 40
1.125
309
GRIDFORMAT_END
 95
       32
302
GRIDFORMAT
  1
GRIDFORMAT_BEGIN
 90
        0
 91
        1
 62
     0
 92
       -2
340
0
 93
        0
 40
1.125
309
GRIDFORMAT_END
309
TABLEFORMAT_END
  1
CELLSTYLE_BEGIN
 90
        2
 91
        1
300
_HEADER
309
CELLSTYLE_END
300
CELLSTYLE
  1
TABLEFORMAT_BEGIN
 90
        5
170
     1
 91
        0
 92
        0
 62
   257
 93
        1
300
CONTENTFORMAT
  1
CONTENTFORMAT_BEGIN
 90
        0
 91
        0
 92
      512
 93
        0
300

 40
0.0
140
1.0
 94
        2
 62
     0
340
17
144
4.5
309
CONTENTFORMAT_END
171
     1
301
MARGIN
  1
CELLMARGIN_BEGIN
 40
1.5
 40
1.5
 40
1.5
 40
1.5
 40
0.18
 40
0.18
309
CELLMARGIN_END
 94
        6
 95
        1
302
GRIDFORMAT
  1
GRIDFORMAT_BEGIN
 90
        0
 91
        1
 62
     0
 92
       -2
340
0
 93
        0
 40
1.125
309
GRIDFORMAT_END
 95
        2
302
GRIDFORMAT
  1
GRIDFORMAT_BEGIN
 90
        0
 91
        1
 62
     0
 92
       -2
340
0
 93
        0
 40
1.125
309
GRIDFORMAT_END
 95
        4
302
GRIDFORMAT
  1
GRIDFORMAT_BEGIN
 90
        0
 91
        1
 62
     0
 92
       -2
340
0
 93
        0
 40
1.125
309
GRIDFORMAT_END
 95
        8
302
GRIDFORMAT
  1
GRIDFORMAT_BEGIN
 90
        0
 91
        1
 62
     0
 92
       -2
340
0
 93
        0
 40
1.125
309
GRIDFORMAT_END
 95
       16
302
GRIDFORMAT
  1
GRIDFORMAT_BEGIN
 90
        0
 91
        1
 62
     0
 92
       -2
340
0
 93
        0
 40
1.125
309
GRIDFORMAT_END
 95
       32
302
GRIDFORMAT
  1
GRIDFORMAT_BEGIN
 90
        0
 91
        1
 62
     0
 92
       -2
340
0
 93
        0
 40
1.125
309
GRIDFORMAT_END
309
TABLEFORMAT_END
  1
CELLSTYLE_BEGIN
 90
        3
 91
        2
300
_DATA
309
CELLSTYLE_END
  0
ENDSEC
  0
EOF
