  0
SECTION
  2
HEADER
  9
$ACADVER
  1
AC1027
  9
$ACADMAINTVER
 70
     8
  9
$DWGCODEPAGE
  3
ANSI_1252
  9
$REQUIREDVERSIONS
160
                 0
  9
$LASTSAVEDBY
  1
cesare
  9
$INSBASE
 10
0.0
 20
0.0
 30
0.0
  9
$EXTMIN
 10
203.9565149619739
 20
-3.277119440701313
 30
0.0
  9
$EXTMAX
 10
659.8695350973813
 20
577.3423368348292
 30
0.0
  9
$LIMMIN
 10
0.0
 20
0.0
  9
$LIMMAX
 10
840.0
 20
594.0
  9
$ORTHOMODE
 70
     1
  9
$REGENMODE
 70
     1
  9
$FILLMODE
 70
     1
  9
$QTEXTMODE
 70
     0
  9
$MIRRTEXT
 70
     1
  9
$LTSCALE
 40
20.0
  9
$ATTMODE
 70
     1
  9
$TEXTSIZE
 40
2.8
  9
$TRACEWID
 40
1.0
  9
$TEXTSTYLE
  7
Standard
  9
$CLAYER
  8
0
  9
$CELTYPE
  6
ByLayer
  9
$CECOLOR
 62
   256
  9
$CELTSCALE
 40
1.0
  9
$DISPSILH
 70
     0
  9
$DIMSCALE
 40
1.0
  9
$DIMASZ
 40
3.2
  9
$DIMEXO
 40
0.1
  9
$DIMDLI
 40
3.75
  9
$DIMRND
 40
0.0
  9
$DIMDLE
 40
0.0
  9
$DIMEXE
 40
1.0
  9
$DIMTP
 40
0.0
  9
$DIMTM
 40
0.0
  9
$DIMTXT
 40
3.2
  9
$DIMCEN
 40
2.5
  9
$DIMTSZ
 40
0.0
  9
$DIMTOL
 70
     0
  9
$DIMLIM
 70
     0
  9
$DIMTIH
 70
     1
  9
$DIMTOH
 70
     1
  9
$DIMSE1
 70
     0
  9
$DIMSE2
 70
     0
  9
$DIMTAD
 70
     1
  9
$DIMZIN
 70
     0
  9
$DIMBLK
  1

  9
$DIMASO
 70
     1
  9
$DIMSHO
 70
     1
  9
$DIMPOST
  1

  9
$DIMAPOST
  1

  9
$DIMALT
 70
     0
  9
$DIMALTD
 70
     3
  9
$DIMALTF
 40
0.0393700787401575
  9
$DIMLFAC
 40
1.0
  9
$DIMTOFL
 70
     1
  9
$DIMTVP
 40
0.0
  9
$DIMTIX
 70
     0
  9
$DIMSOXD
 70
     0
  9
$DIMSAH
 70
     0
  9
$DIMBLK1
  1

  9
$DIMBLK2
  1

  9
$DIMSTYLE
  2
ISO-25
  9
$DIMCLRD
 70
     0
  9
$DIMCLRE
 70
     0
  9
$DIMCLRT
 70
     0
  9
$DIMTFAC
 40
1.0
  9
$DIMGAP
 40
2.0
  9
$DIMJUST
 70
     0
  9
$DIMSD1
 70
     0
  9
$DIMSD2
 70
     0
  9
$DIMTOLJ
 70
     0
  9
$DIMTZIN
 70
     0
  9
$DIMALTZ
 70
     0
  9
$DIMALTTZ
 70
     0
  9
$DIMUPT
 70
     0
  9
$DIMDEC
 70
     2
  9
$DIMTDEC
 70
     2
  9
$DIMALTU
 70
     2
  9
$DIMALTTD
 70
     3
  9
$DIMTXSTY
  7
Standard
  9
$DIMAUNIT
 70
     0
  9
$DIMADEC
 70
     2
  9
$DIMALTRND
 40
0.0
  9
$DIMAZIN
 70
     0
  9
$DIMDSEP
 70
    44
  9
$DIMATFIT
 70
     3
  9
$DIMFRAC
 70
     0
  9
$DIMLDRBLK
  1

  9
$DIMLUNIT
 70
     2
  9
$DIMLWD
 70
    -2
  9
$DIMLWE
 70
    -2
  9
$DIMTMOVE
 70
     0
  9
$DIMFXL
 40
1.0
  9
$DIMFXLON
 70
     0
  9
$DIMJOGANG
 40
0.7853981633974483
  9
$DIMTFILL
 70
     0
  9
$DIMTFILLCLR
 70
     0
  9
$DIMARCSYM
 70
     0
  9
$DIMLTYPE
  6

  9
$DIMLTEX1
  6

  9
$DIMLTEX2
  6

  9
$DIMTXTDIRECTION
 70
     0
  9
$LUNITS
 70
     2
  9
$LUPREC
 70
     2
  9
$SKETCHINC
 40
1.0
  9
$FILLETRAD
 40
10.0
  9
$AUNITS
 70
     0
  9
$AUPREC
 70
     2
  9
$MENU
  1
.
  9
$ELEVATION
 40
0.0
  9
$PELEVATION
 40
0.0
  9
$THICKNESS
 40
0.0
  9
$LIMCHECK
 70
     0
  9
$CHAMFERA
 40
0.0
  9
$CHAMFERB
 40
0.0
  9
$CHAMFERC
 40
0.0
  9
$CHAMFERD
 40
0.0
  9
$SKPOLY
 70
     0
  9
$TDCREATE
 40
2457807.538543762
  9
$TDUCREATE
 40
2457807.496877095
  9
$TDUPDATE
 40
2457807.549176921
  9
$TDUUPDATE
 40
2457807.507510255
  9
$TDINDWG
 40
0.0078067014
  9
$TDUSRTIMER
 40
2457807.499550208
  9
$USRTIMER
 70
     1
  9
$ANGBASE
 50
0.0
  9
$ANGDIR
 70
     0
  9
$PDMODE
 70
     0
  9
$PDSIZE
 40
-1.0
  9
$PLINEWID
 40
0.0
  9
$SPLFRAME
 70
     0
  9
$SPLINETYPE
 70
     6
  9
$SPLINESEGS
 70
     8
  9
$HANDSEED
  5
419
  9
$SURFTAB1
 70
     6
  9
$SURFTAB2
 70
     6
  9
$SURFTYPE
 70
     6
  9
$SURFU
 70
     6
  9
$SURFV
 70
     6
  9
$UCSBASE
  2

  9
$UCSNAME
  2

  9
$UCSORG
 10
0.0
 20
0.0
 30
0.0
  9
$UCSXDIR
 10
1.0
 20
0.0
 30
0.0
  9
$UCSYDIR
 10
0.0
 20
1.0
 30
0.0
  9
$UCSORTHOREF
  2

  9
$UCSORTHOVIEW
 70
     0
  9
$UCSORGTOP
 10
0.0
 20
0.0
 30
0.0
  9
$UCSORGBOTTOM
 10
0.0
 20
0.0
 30
0.0
  9
$UCSORGLEFT
 10
0.0
 20
0.0
 30
0.0
  9
$UCSORGRIGHT
 10
0.0
 20
0.0
 30
0.0
  9
$UCSORGFRONT
 10
0.0
 20
0.0
 30
0.0
  9
$UCSORGBACK
 10
0.0
 20
0.0
 30
0.0
  9
$PUCSBASE
  2

  9
$PUCSNAME
  2

  9
$PUCSORG
 10
0.0
 20
0.0
 30
0.0
  9
$PUCSXDIR
 10
1.0
 20
0.0
 30
0.0
  9
$PUCSYDIR
 10
0.0
 20
1.0
 30
0.0
  9
$PUCSORTHOREF
  2

  9
$PUCSORTHOVIEW
 70
     0
  9
$PUCSORGTOP
 10
0.0
 20
0.0
 30
0.0
  9
$PUCSORGBOTTOM
 10
0.0
 20
0.0
 30
0.0
  9
$PUCSORGLEFT
 10
0.0
 20
0.0
 30
0.0
  9
$PUCSORGRIGHT
 10
0.0
 20
0.0
 30
0.0
  9
$PUCSORGFRONT
 10
0.0
 20
0.0
 30
0.0
  9
$PUCSORGBACK
 10
0.0
 20
0.0
 30
0.0
  9
$USERI1
 70
     0
  9
$USERI2
 70
     0
  9
$USERI3
 70
     0
  9
$USERI4
 70
     0
  9
$USERI5
 70
     0
  9
$USERR1
 40
0.0
  9
$USERR2
 40
0.0
  9
$USERR3
 40
0.0
  9
$USERR4
 40
0.0
  9
$USERR5
 40
0.0
  9
$WORLDVIEW
 70
     1
  9
$SHADEDGE
 70
     3
  9
$SHADEDIF
 70
    70
  9
$TILEMODE
 70
     1
  9
$MAXACTVP
 70
    64
  9
$PINSBASE
 10
0.0
 20
0.0
 30
0.0
  9
$PLIMCHECK
 70
     0
  9
$PEXTMIN
 10
1.000000000000000E+20
 20
1.000000000000000E+20
 30
1.000000000000000E+20
  9
$PEXTMAX
 10
-1.000000000000000E+20
 20
-1.000000000000000E+20
 30
-1.000000000000000E+20
  9
$PLIMMIN
 10
0.0
 20
0.0
  9
$PLIMMAX
 10
0.0
 20
0.0
  9
$UNITMODE
 70
     0
  9
$VISRETAIN
 70
     1
  9
$PLINEGEN
 70
     0
  9
$PSLTSCALE
 70
     1
  9
$TREEDEPTH
 70
  3020
  9
$CMLSTYLE
  2
Standard
  9
$CMLJUST
 70
     0
  9
$CMLSCALE
 40
20.0
  9
$PROXYGRAPHICS
 70
     1
  9
$MEASUREMENT
 70
     1
  9
$CELWEIGHT
370
    -1
  9
$ENDCAPS
280
     0
  9
$JOINSTYLE
280
     0
  9
$LWDISPLAY
290
     1
  9
$INSUNITS
 70
     4
  9
$HYPERLINKBASE
  1

  9
$STYLESHEET
  1

  9
$XEDIT
290
     1
  9
$CEPSNTYPE
380
     0
  9
$PSTYLEMODE
290
     1
  9
$FINGERPRINTGUID
  2
{A6286274-7738-44C9-82B2-F28CA891AB26}
  9
$VERSIONGUID
  2
{FAEB1C32-E019-11D5-929B-00C0DF256EC4}
  9
$EXTNAMES
290
     1
  9
$PSVPSCALE
 40
0.0
  9
$OLESTARTUP
290
     0
  9
$SORTENTS
280
   127
  9
$INDEXCTL
280
     0
  9
$HIDETEXT
280
     1
  9
$XCLIPFRAME
280
     2
  9
$HALOGAP
280
     0
  9
$OBSCOLOR
 70
   257
  9
$OBSLTYPE
280
     0
  9
$INTERSECTIONDISPLAY
280
     0
  9
$INTERSECTIONCOLOR
 70
   257
  9
$DIMASSOC
280
     2
  9
$PROJECTNAME
  1

  9
$CAMERADISPLAY
290
     0
  9
$LENSLENGTH
 40
50.0
  9
$CAMERAHEIGHT
 40
0.0
  9
$STEPSPERSEC
 40
2.0
  9
$STEPSIZE
 40
6.0
  9
$3DDWFPREC
 40
2.0
  9
$PSOLWIDTH
 40
0.25
  9
$PSOLHEIGHT
 40
4.0
  9
$LOFTANG1
 40
1.570796326794897
  9
$LOFTANG2
 40
1.570796326794897
  9
$LOFTMAG1
 40
0.0
  9
$LOFTMAG2
 40
0.0
  9
$LOFTPARAM
 70
     7
  9
$LOFTNORMALS
280
     1
  9
$LATITUDE
 40
37.795
  9
$LONGITUDE
 40
-122.394
  9
$NORTHDIRECTION
 40
0.0
  9
$TIMEZONE
 70
 -8000
  9
$LIGHTGLYPHDISPLAY
280
     1
  9
$TILEMODELIGHTSYNCH
280
     1
  9
$SOLIDHIST
280
     0
  9
$SHOWHIST
280
     1
  9
$DWFFRAME
280
     2
  9
$DGNFRAME
280
     2
  9
$REALWORLDSCALE
290
     1
  9
$INTERFERECOLOR
 62
   256
  9
$CSHADOW
280
     0
  9
$SHADOWPLANELOCATION
 40
0.0
  0
ENDSEC
  0
SECTION
  2
CLASSES
  0
CLASS
  1
ACDBDICTIONARYWDFLT
  2
AcDbDictionaryWithDefault
  3
ObjectDBX Classes
 90
        0
 91
        5
280
     0
281
     0
  0
CLASS
  1
VISUALSTYLE
  2
AcDbVisualStyle
  3
ObjectDBX Classes
 90
     4095
 91
        5
280
     0
281
     0
  0
CLASS
  1
MATERIAL
  2
AcDbMaterial
  3
ObjectDBX Classes
 90
     1153
 91
        5
280
     0
281
     0
  0
CLASS
  1
SCALE
  2
AcDbScale
  3
ObjectDBX Classes
 90
     1153
 91
        5
280
     0
281
     0
  0
CLASS
  1
TABLESTYLE
  2
AcDbTableStyle
  3
ObjectDBX Classes
 90
     4095
 91
        5
280
     0
281
     0
  0
CLASS
  1
MLEADERSTYLE
  2
AcDbMLeaderStyle
  3
ACDB_MLEADERSTYLE_CLASS
 90
     4095
 91
        5
280
     0
281
     0
  0
CLASS
  1
SUN
  2
AcDbSun
  3
SCENEOE
 90
     1153
 91
        5
280
     0
281
     0
  0
CLASS
  1
ACDBPLACEHOLDER
  2
AcDbPlaceHolder
  3
ObjectDBX Classes
 90
        0
 91
        1
280
     0
281
     0
  0
CLASS
  1
LAYOUT
  2
AcDbLayout
  3
ObjectDBX Classes
 90
        0
 91
        1
280
     0
281
     0
  0
CLASS
  1
RASTERVARIABLES
  2
AcDbRasterVariables
  3
ISM
 90
        0
 91
        5
280
     0
281
     0
  0
CLASS
  1
DIMASSOC
  2
AcDbDimAssoc
  3
"AcDbDimAssoc|Product Desc:     AcDim ARX App For Dimension|Company:          Autodesk, Inc.|WEB Address:      www.autodesk.com"
 90
        0
 91
        5
280
     0
281
     0
  0
CLASS
  1
DICTIONARYVAR
  2
AcDbDictionaryVar
  3
ObjectDBX Classes
 90
        0
 91
        5
280
     0
281
     0
  0
CLASS
  1
CELLSTYLEMAP
  2
AcDbCellStyleMap
  3
ObjectDBX Classes
 90
     1152
 91
        5
280
     0
281
     0
  0
ENDSEC
  0
SECTION
  2
TABLES
  0
TABLE
  2
VPORT
  5
8
330
0
100
AcDbSymbolTable
 70
     1
  0
VPORT
  5
29
330
8
100
AcDbSymbolTableRecord
100
AcDbViewportTableRecord
  2
*Active
 70
     0
 10
0.0
 20
0.0
 11
1.0
 21
1.0
 12
434.5338660892464
 22
275.3561750212244
 13
0.0
 23
0.0
 14
10.0
 24
10.0
 15
10.0
 25
10.0
 16
0.0
 26
0.0
 36
1.0
 17
0.0
 27
0.0
 37
0.0
 40
740.2898067513014
 41
2.100396301188904
 42
50.0
 43
0.0
 44
0.0
 50
0.0
 51
0.0
 71
    16
 72
  2000
 73
     1
 74
     3
 75
     0
 76
     0
 77
     0
 78
     0
281
     0
 65
     1
110
0.0
120
0.0
130
0.0
111
1.0
121
0.0
131
0.0
112
0.0
122
1.0
132
0.0
 79
     0
146
0.0
348
358
 60
     3
 61
     5
292
     1
282
     1
141
0.0
142
0.0
 63
   256
361
375
  0
ENDTAB
  0
TABLE
  2
LTYPE
  5
5
330
0
100
AcDbSymbolTable
 70
     6
  0
LTYPE
  5
14
330
5
100
AcDbSymbolTableRecord
100
AcDbLinetypeTableRecord
  2
ByBlock
 70
     0
  3

 72
    65
 73
     0
 40
0.0
  0
LTYPE
  5
15
330
5
100
AcDbSymbolTableRecord
100
AcDbLinetypeTableRecord
  2
ByLayer
 70
     0
  3

 72
    65
 73
     0
 40
0.0
  0
LTYPE
  5
16
330
5
100
AcDbSymbolTableRecord
100
AcDbLinetypeTableRecord
  2
Continuous
 70
     0
  3
Solid line
 72
    65
 73
     0
 40
0.0
  0
LTYPE
  5
6E
330
5
100
AcDbSymbolTableRecord
100
AcDbLinetypeTableRecord
  2
HIDDEN
 70
     0
  3
Hidden __ __ __ __ __ __ __ __ __ __ __ __ __ __
 72
    65
 73
     2
 40
1.905
 49
1.27
 74
     0
 49
-0.635
 74
     0
  0
LTYPE
  5
6F
330
5
100
AcDbSymbolTableRecord
100
AcDbLinetypeTableRecord
  2
PHANTOM
 70
     0
  3
Phantom ______  __  __  ______  __  __  ______
 72
    65
 73
     6
 40
12.7
 49
6.35
 74
     0
 49
-1.27
 74
     0
 49
1.27
 74
     0
 49
-1.27
 74
     0
 49
1.27
 74
     0
 49
-1.27
 74
     0
  0
LTYPE
  5
70
330
5
100
AcDbSymbolTableRecord
100
AcDbLinetypeTableRecord
  2
CENTER
 70
     0
  3
Center ____ _ ____ _ ____ _ ____ _ ____ _ ____
 72
    65
 73
     4
 40
10.16
 49
6.35
 74
     0
 49
-1.27
 74
     0
 49
1.27
 74
     0
 49
-1.27
 74
     0
  0
LTYPE
  5
71
330
5
100
AcDbSymbolTableRecord
100
AcDbLinetypeTableRecord
  2
CENTERX2
 70
     0
  3
Center (2x) ________  __  ________  __  _____
 72
    65
 73
     4
 40
20.32
 49
12.7
 74
     0
 49
-2.54
 74
     0
 49
2.54
 74
     0
 49
-2.54
 74
     0
  0
LTYPE
  5
72
330
5
100
AcDbSymbolTableRecord
100
AcDbLinetypeTableRecord
  2
DOT2
 70
     0
  3
Dot (.5x) ........................................
 72
    65
 73
     2
 40
0.635
 49
0.0
 74
     0
 49
-0.635
 74
     0
  0
ENDTAB
  0
TABLE
  2
LAYER
  5
2
330
0
100
AcDbSymbolTable
 70
     3
  0
LAYER
  5
10
330
2
100
AcDbSymbolTableRecord
100
AcDbLayerTableRecord
  2
0
 70
     0
 62
     7
  6
Continuous
370
    -3
390
F
347
36F
348
0
  0
LAYER
  5
73
330
2
100
AcDbSymbolTableRecord
100
AcDbLayerTableRecord
  2
FORMAT
 70
     0
 62
     7
  6
Continuous
370
    -3
390
F
347
36F
348
0
  0
LAYER
  5
3A3
330
2
100
AcDbSymbolTableRecord
100
AcDbLayerTableRecord
  2
Defpoints
 70
     0
 62
     7
  6
Continuous
290
     0
370
    -3
390
F
347
36F
348
0
  0
ENDTAB
  0
TABLE
  2
STYLE
  5
3
330
0
100
AcDbSymbolTable
 70
     1
  0
STYLE
  5
11
330
3
100
AcDbSymbolTableRecord
100
AcDbTextStyleTableRecord
  2
Standard
 70
     0
 40
0.0
 41
1.0
 50
0.0
 71
     0
 42
2.8
  3
txt
  4

  0
ENDTAB
  0
TABLE
  2
VIEW
  5
6
330
0
100
AcDbSymbolTable
 70
     0
  0
ENDTAB
  0
TABLE
  2
UCS
  5
7
330
0
100
AcDbSymbolTable
 70
     0
  0
ENDTAB
  0
TABLE
  2
APPID
  5
9
330
0
100
AcDbSymbolTable
 70
     1
  0
APPID
  5
12
330
9
100
AcDbSymbolTableRecord
100
AcDbRegAppTableRecord
  2
ACAD
 70
     0
  0
ENDTAB
  0
TABLE
  2
DIMSTYLE
  5
A
330
0
100
AcDbSymbolTable
 70
     1
100
AcDbDimStyleTable
  0
DIMSTYLE
105
27
102
{ACAD_REACTORS
330
3C5
330
3D6
330
3EA
330
3ED
102
}
330
A
100
AcDbSymbolTableRecord
100
AcDbDimStyleTableRecord
  2
ISO-25
 70
     0
 41
2.5
 42
0.625
 43
3.75
 44
1.25
 73
     0
 74
     0
 77
     1
 78
     8
140
2.5
141
2.5
143
0.03937007874016
147
0.625
171
     3
172
     1
178
     0
271
     2
272
     2
274
     3
278
    44
283
     0
284
     8
340
11
  0
ENDTAB
  0
TABLE
  2
BLOCK_RECORD
  5
1
330
0
100
AcDbSymbolTable
 70
     7
  0
BLOCK_RECORD
  5
1F
330
1
100
AcDbSymbolTableRecord
100
AcDbBlockTableRecord
  2
*Model_Space
340
22
 70
     0
280
     1
281
     0
  0
BLOCK_RECORD
  5
1B
330
1
100
AcDbSymbolTableRecord
100
AcDbBlockTableRecord
  2
*Paper_Space
340
1E
 70
     0
280
     1
281
     0
  0
BLOCK_RECORD
  5
23
330
1
100
AcDbSymbolTableRecord
100
AcDbBlockTableRecord
  2
*Paper_Space0
340
26
 70
     0
280
     1
281
     0
  0
BLOCK_RECORD
  5
3C8
330
1
100
AcDbSymbolTableRecord
100
AcDbBlockTableRecord
  2
*D3
340
0
 70
     0
280
     1
281
     0
  0
BLOCK_RECORD
  5
3D9
330
1
100
AcDbSymbolTableRecord
100
AcDbBlockTableRecord
  2
*D4
340
0
 70
     0
280
     1
281
     0
  0
BLOCK_RECORD
  5
3F0
330
1
100
AcDbSymbolTableRecord
100
AcDbBlockTableRecord
  2
*D5
340
0
 70
     0
280
     1
281
     0
  0
BLOCK_RECORD
  5
3FE
330
1
100
AcDbSymbolTableRecord
100
AcDbBlockTableRecord
  2
*D6
340
0
 70
     0
280
     1
281
     0
  0
ENDTAB
  0
ENDSEC
  0
SECTION
  2
BLOCKS
  0
BLOCK
  5
20
330
1F
100
AcDbEntity
  8
0
100
AcDbBlockBegin
  2
*Model_Space
 70
     0
 10
0.0
 20
0.0
 30
0.0
  3
*Model_Space
  1
*Model_Space
  0
ENDBLK
  5
21
330
1F
100
AcDbEntity
  8
0
100
AcDbBlockEnd
  0
BLOCK
  5
1C
330
1B
100
AcDbEntity
 67
     1
  8
0
100
AcDbBlockBegin
  2
*Paper_Space
 70
     0
 10
0.0
 20
0.0
 30
0.0
  3
*Paper_Space
  1
*Paper_Space
  0
ENDBLK
  5
1D
330
1B
100
AcDbEntity
 67
     1
  8
0
100
AcDbBlockEnd
  0
BLOCK
  5
24
330
23
100
AcDbEntity
  8
0
100
AcDbBlockBegin
  2
*Paper_Space0
 70
     0
 10
0.0
 20
0.0
 30
0.0
  3
*Paper_Space0
  1
*Paper_Space0
  0
ENDBLK
  5
25
330
23
100
AcDbEntity
  8
0
100
AcDbBlockEnd
  0
BLOCK
  5
3C9
330
3C8
100
AcDbEntity
  8
0
100
AcDbBlockBegin
  2
*D3
 70
     1
 10
0.0
 20
0.0
 30
0.0
  3
*D3
  1
*D3
  0
LINE
  5
3CA
330
3C8
100
AcDbEntity
  8
0
 62
     1
370
    -2
100
AcDbLine
 10
-0.8999983012676239
 20
-10.00000037311111
 30
0.0
 11
16.24073553923569
 21
-10.00000037311111
 31
0.0
  0
LINE
  5
3CB
330
3C8
100
AcDbEntity
  8
0
 62
     1
370
    -2
100
AcDbLine
 10
0.1
 20
0.0
 30
0.0
 11
16.24073553923569
 21
-0.000000000000001
 31
0.0
  0
LINE
  5
3CC
330
3C8
100
AcDbEntity
  8
0
 62
     1
370
    -2
100
AcDbLine
 10
15.24073553923569
 20
-10.00000037311111
 30
0.0
 11
15.24073553923569
 21
-0.0000000000000009
 31
0.0
  0
LINE
  5
3CD
330
3C8
100
AcDbEntity
  8
0
 62
     1
370
    -2
100
AcDbLine
 10
15.24073553923569
 20
-13.20000037311111
 30
0.0
 11
15.24073553923569
 21
-16.40000037311111
 31
0.0
  0
LINE
  5
3CE
330
3C8
100
AcDbEntity
  8
0
 62
     1
370
    -2
100
AcDbLine
 10
15.24073553923569
 20
3.199999999999999
 30
0.0
 11
15.24073553923569
 21
6.399999999999999
 31
0.0
  0
SOLID
  5
3CF
330
3C8
100
AcDbEntity
  8
0
 62
     1
100
AcDbTrace
 10
15.77406887256902
 20
-13.20000037311111
 30
0.0
 11
14.70740220590235
 21
-13.20000037311111
 31
0.0
 12
15.24073553923569
 22
-10.00000037311111
 32
0.0
 13
15.24073553923569
 23
-10.00000037311111
 33
0.0
  0
SOLID
  5
3D0
330
3C8
100
AcDbEntity
  8
0
 62
     1
100
AcDbTrace
 10
14.70740220590235
 20
3.199999999999999
 30
0.0
 11
15.77406887256902
 21
3.199999999999999
 31
0.0
 12
15.24073553923569
 22
-0.0000000000000009
 32
0.0
 13
15.24073553923569
 23
-0.0000000000000009
 33
0.0
  0
MTEXT
  5
3D1
330
3C8
100
AcDbEntity
  8
0
 62
     0
100
AcDbMText
 10
11.64073553923569
 20
-5.000000186555555
 30
0.0
 40
3.2
 41
0.0
 46
0.0
 71
     5
 72
     1
  1
10
 11
0.0
 21
1.0
 31
0.0
 73
     1
 44
1.0
  0
POINT
  5
3D2
330
3C8
100
AcDbEntity
  8
Defpoints
 62
     0
100
AcDbPoint
 10
-0.9999983012676239
 20
-10.00000037311111
 30
0.0
  0
POINT
  5
3D3
330
3C8
100
AcDbEntity
  8
Defpoints
 62
     0
100
AcDbPoint
 10
0.0
 20
0.0
 30
0.0
  0
POINT
  5
3D4
330
3C8
100
AcDbEntity
  8
Defpoints
 62
     0
100
AcDbPoint
 10
15.24073553923569
 20
-0.0000000000000009
 30
0.0
  0
ENDBLK
  5
3D5
330
3C8
100
AcDbEntity
  8
0
100
AcDbBlockEnd
  0
BLOCK
  5
3DA
330
3D9
100
AcDbEntity
  8
0
100
AcDbBlockBegin
  2
*D4
 70
     1
 10
0.0
 20
0.0
 30
0.0
  3
*D4
  1
*D4
  0
LINE
  5
3DB
330
3D9
100
AcDbEntity
  8
0
 62
     1
370
    -2
100
AcDbLine
 10
0.1
 20
0.0
 30
0.0
 11
26.73845183742168
 21
-0.0000000000000018
 31
0.0
  0
LINE
  5
3DC
330
3D9
100
AcDbEntity
  8
0
 62
     1
370
    -2
100
AcDbLine
 10
-0.8999983012676239
 20
-12.00000033713877
 30
0.0
 11
26.73845183742168
 21
-12.00000033713877
 31
0.0
  0
LINE
  5
3DD
330
3D9
100
AcDbEntity
  8
0
 62
     1
370
    -2
100
AcDbLine
 10
25.73845183742168
 20
-0.0000000000000018
 30
0.0
 11
25.73845183742168
 21
-12.00000033713877
 31
0.0
  0
LINE
  5
3DE
330
3D9
100
AcDbEntity
  8
0
 62
     1
370
    -2
100
AcDbLine
 10
25.73845183742168
 20
3.199999999999998
 30
0.0
 11
25.73845183742168
 21
6.399999999999999
 31
0.0
  0
LINE
  5
3DF
330
3D9
100
AcDbEntity
  8
0
 62
     1
370
    -2
100
AcDbLine
 10
25.73845183742168
 20
-15.20000033713877
 30
0.0
 11
25.73845183742168
 21
-18.40000033713877
 31
0.0
  0
SOLID
  5
3E0
330
3D9
100
AcDbEntity
  8
0
 62
     1
100
AcDbTrace
 10
25.20511850408834
 20
3.199999999999998
 30
0.0
 11
26.27178517075501
 21
3.199999999999998
 31
0.0
 12
25.73845183742168
 22
-0.0000000000000018
 32
0.0
 13
25.73845183742168
 23
-0.0000000000000018
 33
0.0
  0
SOLID
  5
3E1
330
3D9
100
AcDbEntity
  8
0
 62
     1
100
AcDbTrace
 10
26.27178517075501
 20
-15.20000033713877
 30
0.0
 11
25.20511850408834
 21
-15.20000033713877
 31
0.0
 12
25.73845183742168
 22
-12.00000033713877
 32
0.0
 13
25.73845183742168
 23
-12.00000033713877
 33
0.0
  0
MTEXT
  5
3E2
330
3D9
100
AcDbEntity
  8
0
 62
     0
100
AcDbMText
 10
22.13845183742168
 20
-6.000000168569388
 30
0.0
 40
3.2
 41
0.0
 46
0.0
 71
     5
 72
     1
  1
12
 11
0.0
 21
1.0
 31
0.0
 73
     1
 44
1.0
  0
POINT
  5
3E3
330
3D9
100
AcDbEntity
  8
Defpoints
 62
     0
100
AcDbPoint
 10
0.0
 20
0.0
 30
0.0
  0
POINT
  5
3E4
330
3D9
100
AcDbEntity
  8
Defpoints
 62
     0
100
AcDbPoint
 10
-0.9999983012676239
 20
-12.00000033713877
 30
0.0
  0
POINT
  5
3E5
330
3D9
100
AcDbEntity
  8
Defpoints
 62
     0
100
AcDbPoint
 10
25.73845183742168
 20
-12.00000033713877
 30
0.0
  0
ENDBLK
  5
3E6
330
3D9
100
AcDbEntity
  8
0
100
AcDbBlockEnd
  0
BLOCK
  5
3F1
330
3F0
100
AcDbEntity
  8
0
100
AcDbBlockBegin
  2
*D5
 70
     1
 10
0.0
 20
0.0
 30
0.0
  3
*D5
  1
*D5
  0
LINE
  5
3F3
330
3F0
100
AcDbEntity
  8
0
 62
     1
370
    -2
100
AcDbLine
 10
294.0565148129623
 20
171.6633154395968
 30
0.0
 11
311.0972486534656
 21
171.6633154395968
 31
0.0
  0
LINE
  5
3F4
330
3F0
100
AcDbEntity
  8
0
 62
     1
370
    -2
100
AcDbLine
 10
294.9565131142299
 20
181.7633157446981
 30
0.0
 11
311.0972486534656
 21
181.7633157446981
 31
0.0
  0
LINE
  5
3F5
330
3F0
100
AcDbEntity
  8
0
 62
     1
370
    -2
100
AcDbLine
 10
310.0972486534656
 20
171.6633154395968
 30
0.0
 11
310.0972486534656
 21
181.7633157446981
 31
0.0
  0
LINE
  5
3F6
330
3F0
100
AcDbEntity
  8
0
 62
     1
370
    -2
100
AcDbLine
 10
310.0972486534656
 20
168.4633154395968
 30
0.0
 11
310.0972486534656
 21
165.2633154395968
 31
0.0
  0
LINE
  5
3F7
330
3F0
100
AcDbEntity
  8
0
 62
     1
370
    -2
100
AcDbLine
 10
310.0972486534656
 20
184.9633157446981
 30
0.0
 11
310.0972486534656
 21
188.1633157446981
 31
0.0
  0
SOLID
  5
3F8
330
3F0
100
AcDbEntity
  8
0
 62
     1
100
AcDbTrace
 10
310.630581986799
 20
168.4633154395968
 30
0.0
 11
309.5639153201323
 21
168.4633154395968
 31
0.0
 12
310.0972486534656
 22
171.6633154395968
 32
0.0
 13
310.0972486534656
 23
171.6633154395968
 33
0.0
  0
SOLID
  5
3F9
330
3F0
100
AcDbEntity
  8
0
 62
     1
100
AcDbTrace
 10
309.5639153201323
 20
184.9633157446981
 30
0.0
 11
310.630581986799
 21
184.9633157446981
 31
0.0
 12
310.0972486534656
 22
181.7633157446981
 32
0.0
 13
310.0972486534656
 23
181.7633157446981
 33
0.0
  0
MTEXT
  5
3FA
330
3F0
100
AcDbEntity
  8
0
 62
     0
100
AcDbMText
 10
306.4972486534656
 20
176.7133155921474
 30
0.0
 40
3.2
 41
0.0
 46
0.0
 71
     5
 72
     1
  1
10
 11
0.0
 21
1.0
 31
0.0
 73
     1
 44
1.0
  0
POINT
  5
3FB
330
3F0
100
AcDbEntity
  8
Defpoints
 62
     0
100
AcDbPoint
 10
293.9565148129623
 20
171.6633154395968
 30
0.0
  0
POINT
  5
3FC
330
3F0
100
AcDbEntity
  8
Defpoints
 62
     0
100
AcDbPoint
 10
294.8565131142299
 20
181.7633157446981
 30
0.0
  0
POINT
  5
3FD
330
3F0
100
AcDbEntity
  8
Defpoints
 62
     0
100
AcDbPoint
 10
310.0972486534656
 20
181.7633157446981
 30
0.0
  0
ENDBLK
  5
3F2
330
3F0
100
AcDbEntity
  8
0
100
AcDbBlockEnd
  0
BLOCK
  5
3FF
330
3FE
100
AcDbEntity
  8
0
100
AcDbBlockBegin
  2
*D6
 70
     1
 10
0.0
 20
0.0
 30
0.0
  3
*D6
  1
*D6
  0
LINE
  5
401
330
3FE
100
AcDbEntity
  8
0
 62
     1
370
    -2
100
AcDbLine
 10
294.9565131142299
 20
181.7633157446981
 30
0.0
 11
321.5949649516516
 21
181.7633157446981
 31
0.0
  0
LINE
  5
402
330
3FE
100
AcDbEntity
  8
0
 62
     1
370
    -2
100
AcDbLine
 10
293.9565148129623
 20
169.7633154075593
 30
0.0
 11
321.5949649516516
 21
169.7633154075593
 31
0.0
  0
LINE
  5
403
330
3FE
100
AcDbEntity
  8
0
 62
     1
370
    -2
100
AcDbLine
 10
320.5949649516516
 20
181.7633157446981
 30
0.0
 11
320.5949649516516
 21
169.7633154075593
 31
0.0
  0
LINE
  5
404
330
3FE
100
AcDbEntity
  8
0
 62
     1
370
    -2
100
AcDbLine
 10
320.5949649516516
 20
184.9633157446981
 30
0.0
 11
320.5949649516516
 21
188.1633157446981
 31
0.0
  0
LINE
  5
405
330
3FE
100
AcDbEntity
  8
0
 62
     1
370
    -2
100
AcDbLine
 10
320.5949649516516
 20
166.5633154075593
 30
0.0
 11
320.5949649516516
 21
163.3633154075593
 31
0.0
  0
SOLID
  5
406
330
3FE
100
AcDbEntity
  8
0
 62
     1
100
AcDbTrace
 10
320.0616316183182
 20
184.9633157446981
 30
0.0
 11
321.128298284985
 21
184.9633157446981
 31
0.0
 12
320.5949649516516
 22
181.7633157446981
 32
0.0
 13
320.5949649516516
 23
181.7633157446981
 33
0.0
  0
SOLID
  5
407
330
3FE
100
AcDbEntity
  8
0
 62
     1
100
AcDbTrace
 10
321.128298284985
 20
166.5633154075593
 30
0.0
 11
320.0616316183182
 21
166.5633154075593
 31
0.0
 12
320.5949649516516
 22
169.7633154075593
 32
0.0
 13
320.5949649516516
 23
169.7633154075593
 33
0.0
  0
MTEXT
  5
408
330
3FE
100
AcDbEntity
  8
0
 62
     0
100
AcDbMText
 10
316.9949649516516
 20
175.7633155761287
 30
0.0
 40
3.2
 41
0.0
 46
0.0
 71
     5
 72
     1
  1
12
 11
0.0
 21
1.0
 31
0.0
 73
     1
 44
1.0
  0
POINT
  5
409
330
3FE
100
AcDbEntity
  8
Defpoints
 62
     0
100
AcDbPoint
 10
294.8565131142299
 20
181.7633157446981
 30
0.0
  0
POINT
  5
40A
330
3FE
100
AcDbEntity
  8
Defpoints
 62
     0
100
AcDbPoint
 10
293.8565148129623
 20
169.7633154075593
 30
0.0
  0
POINT
  5
40B
330
3FE
100
AcDbEntity
  8
Defpoints
 62
     0
100
AcDbPoint
 10
320.5949649516516
 20
169.7633154075593
 30
0.0
  0
ENDBLK
  5
400
330
3FE
100
AcDbEntity
  8
0
100
AcDbBlockEnd
  0
ENDSEC
  0
SECTION
  2
ENTITIES
  0
LINE
  5
74
330
1F
100
AcDbEntity
  8
0
100
AcDbLine
 10
440.6399480102421
 20
312.3077875159747
 30
0.0
 11
438.7399475125433
 21
312.3077875159747
 31
0.0
  0
LINE
  5
75
330
1F
100
AcDbEntity
  8
0
100
AcDbLine
 10
429.7399478999735
 20
312.3077875159747
 30
0.0
 11
429.6399480698467
 21
312.3077875159747
 31
0.0
  0
LINE
  5
76
330
1F
100
AcDbEntity
  8
0
100
AcDbLine
 10
406.8399476853967
 20
312.3077875159747
 30
0.0
 11
400.6399470416666
 21
312.3077875159747
 31
0.0
  0
LINE
  5
77
330
1F
100
AcDbEntity
  8
0
100
AcDbLine
 10
429.7399478999735
 20
419.8077855788238
 30
0.0
 11
429.6399480698467
 21
419.8077855788238
 31
0.0
  0
LINE
  5
78
330
1F
100
AcDbEntity
  8
0
100
AcDbLine
 10
429.6399480698467
 20
413.8077883206374
 30
0.0
 11
429.7399478999735
 21
413.8077883206374
 31
0.0
  0
LINE
  5
79
330
1F
100
AcDbEntity
  8
0
100
AcDbLine
 10
429.7399478999735
 20
273.807787724591
 30
0.0
 11
429.6399480698467
 21
273.807787724591
 31
0.0
  0
LINE
  5
7A
330
1F
100
AcDbEntity
  8
0
100
AcDbLine
 10
429.6399480698467
 20
267.8077867411143
 30
0.0
 11
429.7399478999735
 21
267.8077867411143
 31
0.0
  0
LINE
  5
7B
330
1F
100
AcDbEntity
  8
0
100
AcDbLine
 10
429.7399478999735
 20
346.8077866517074
 30
0.0
 11
429.6399480698467
 21
346.8077866517074
 31
0.0
  0
LINE
  5
7C
330
1F
100
AcDbEntity
  8
0
100
AcDbLine
 10
429.6399480698467
 20
340.8077875308759
 30
0.0
 11
429.7399478999735
 21
340.8077875308759
 31
0.0
  0
LINE
  5
7D
330
1F
100
AcDbEntity
  8
0
100
AcDbLine
 10
406.8399476853967
 20
400.3077907644279
 30
0.0
 11
405.5399480311037
 21
400.3077907644279
 31
0.0
  0
LINE
  5
7E
330
1F
100
AcDbEntity
  8
0
100
AcDbLine
 10
405.5399480311037
 20
377.3077888570792
 30
0.0
 11
406.8399476853967
 21
377.3077888570792
 31
0.0
  0
LINE
  5
7F
330
1F
100
AcDbEntity
  8
0
100
AcDbLine
 10
438.7399475125433
 20
377.3077888570792
 30
0.0
 11
440.0399471668363
 21
377.3077888570792
 31
0.0
  0
LINE
  5
80
330
1F
100
AcDbEntity
  8
0
100
AcDbLine
 10
440.0399471668363
 20
400.3077907644279
 30
0.0
 11
438.7399475125433
 21
400.3077907644279
 31
0.0
  0
LINE
  5
81
330
1F
100
AcDbEntity
  8
0
100
AcDbLine
 10
419.3065817270265
 20
286.981408872462
 30
0.0
 11
420.663106084133
 21
285.5357391916282
 31
0.0
  0
ARC
  5
82
330
1F
100
AcDbEntity
  8
0
100
AcDbCircle
 10
420.6399476986934
 20
284.8077873918417
 30
0.0
 40
2.54999999998569
100
AcDbArc
 50
121.5262150355884
 51
144.8295027010655
  0
LINE
  5
83
330
1F
100
AcDbEntity
  8
0
100
AcDbLine
 10
419.9119959993125
 20
284.8309440694816
 30
0.0
 11
418.5554715839983
 21
286.2766174756057
 31
0.0
  0
LINE
  5
84
330
1F
100
AcDbEntity
  8
0
100
AcDbLine
 10
418.4663251543254
 20
283.47442058549
 30
0.0
 11
419.9119959993125
 21
284.8309440694816
 31
0.0
  0
ARC
  5
85
330
1F
100
AcDbEntity
  8
0
100
AcDbCircle
 10
420.6399476986934
 20
284.8077873918417
 30
0.0
 40
2.54999999998569
100
AcDbArc
 50
211.5262150355884
 51
234.8295027010665
  0
LINE
  5
86
330
1F
100
AcDbEntity
  8
0
100
AcDbLine
 10
420.6167893170216
 20
284.0798361383445
 30
0.0
 11
419.1711184138269
 21
282.7233126543529
 31
0.0
  0
LINE
  5
87
330
1F
100
AcDbEntity
  8
0
100
AcDbLine
 10
421.9733136741281
 20
282.6341664575107
 30
0.0
 11
420.6167893170216
 21
284.0798361383445
 31
0.0
  0
ARC
  5
88
330
1F
100
AcDbEntity
  8
0
100
AcDbCircle
 10
420.6399476986934
 20
284.8077873918417
 30
0.0
 40
2.549999999985726
100
AcDbArc
 50
301.5262150355878
 51
324.8295027010645
  0
LINE
  5
89
330
1F
100
AcDbEntity
  8
0
100
AcDbLine
 10
421.3678994018421
 20
284.7846275352008
 30
0.0
 11
422.7244238171563
 21
283.338957854367
 31
0.0
  0
LINE
  5
8A
330
1F
100
AcDbEntity
  8
0
100
AcDbLine
 10
422.8135702468292
 20
286.1411547444827
 30
0.0
 11
421.3678994018421
 21
284.7846275352008
 31
0.0
  0
ARC
  5
8B
330
1F
100
AcDbEntity
  8
0
100
AcDbCircle
 10
420.6399476986934
 20
284.8077873918417
 30
0.0
 40
2.549999999985726
100
AcDbArc
 50
31.52621503558666
 51
54.82950270106446
  0
LINE
  5
8C
330
1F
100
AcDbEntity
  8
0
100
AcDbLine
 10
420.663106084133
 20
285.5357391916282
 30
0.0
 11
422.1087769873277
 21
286.8922626756198
 31
0.0
  0
CIRCLE
  5
8D
330
1F
100
AcDbEntity
  8
0
100
AcDbCircle
 10
420.6399476986934
 20
284.8077873918417
 30
0.0
 40
4.650000000000025
  0
ARC
  5
8E
330
1F
100
AcDbEntity
  8
0
100
AcDbCircle
 10
420.6399476986934
 20
284.8077873918417
 30
0.0
 40
1.062415604855683
100
AcDbArc
 50
194.1821322371306
 51
252.1735854995189
  0
ARC
  5
8F
330
1F
100
AcDbEntity
  8
0
100
AcDbCircle
 10
420.6399476986934
 20
284.8077873918417
 30
0.0
 40
1.062415604855647
100
AcDbArc
 50
284.1821322371314
 51
342.173585499518
  0
ARC
  5
90
330
1F
100
AcDbEntity
  8
0
100
AcDbCircle
 10
420.6399476986934
 20
284.8077873918417
 30
0.0
 40
1.062415604855611
100
AcDbArc
 50
104.1821322371321
 51
162.1735854995209
  0
ARC
  5
91
330
1F
100
AcDbEntity
  8
0
100
AcDbCircle
 10
420.6399476986934
 20
284.8077873918417
 30
0.0
 40
1.062415604855647
100
AcDbArc
 50
14.18213223713136
 51
72.17358549952185
  0
LINE
  5
92
330
1F
100
AcDbEntity
  8
0
100
AcDbLine
 10
440.6399480102421
 20
296.9339242361552
 30
0.0
 11
440.6399480102421
 21
312.3077875159747
 31
0.0
  0
LINE
  5
93
330
1F
100
AcDbEntity
  8
0
100
AcDbLine
 10
429.6399480698467
 20
296.9339242361552
 30
0.0
 11
429.7399478999735
 21
296.9339242361552
 31
0.0
  0
LINE
  5
94
330
1F
100
AcDbEntity
  8
0
100
AcDbLine
 10
438.7399475125433
 20
296.9339242361552
 30
0.0
 11
440.6399480102421
 21
296.9339242361552
 31
0.0
  0
LINE
  5
95
330
1F
100
AcDbEntity
  8
0
100
AcDbLine
 10
400.6399470416666
 20
312.3077875159747
 30
0.0
 11
400.6399470416666
 21
296.9339242361552
 31
0.0
  0
LINE
  5
96
330
1F
100
AcDbEntity
  8
0
100
AcDbLine
 10
400.6399470416666
 20
296.9339242361552
 30
0.0
 11
406.8399476853967
 21
296.9339242361552
 31
0.0
  0
LINE
  5
97
330
1F
100
AcDbEntity
  8
0
100
AcDbLine
 10
440.6399480102421
 20
279.4577865086562
 30
0.0
 11
438.7399475125433
 21
279.4577865086562
 31
0.0
  0
LINE
  5
98
330
1F
100
AcDbEntity
  8
0
100
AcDbLine
 10
429.7399478999735
 20
279.4577865086562
 30
0.0
 11
429.6399480698467
 21
279.4577865086562
 31
0.0
  0
LINE
  5
99
330
1F
100
AcDbEntity
  8
0
100
AcDbLine
 10
406.8399476853967
 20
279.4577865086562
 30
0.0
 11
400.6399470416666
 21
279.4577865086562
 31
0.0
  0
LINE
  5
9A
330
1F
100
AcDbEntity
  8
0
100
AcDbLine
 10
440.6399480102421
 20
284.6077880047328
 30
0.0
 11
440.6399480102421
 21
279.4577865086562
 31
0.0
  0
LINE
  5
9B
330
1F
100
AcDbEntity
  8
0
100
AcDbLine
 10
400.6399470416666
 20
279.4577865086562
 30
0.0
 11
400.6399470416666
 21
284.6077880047328
 31
0.0
  0
LINE
  5
9C
330
1F
100
AcDbEntity
  8
0
100
AcDbLine
 10
440.6399480102421
 20
296.9339242361552
 30
0.0
 11
440.6399480102421
 21
284.6077880047328
 31
0.0
  0
LINE
  5
9D
330
1F
100
AcDbEntity
  8
0
100
AcDbLine
 10
400.6399470416666
 20
296.9339242361552
 30
0.0
 11
400.6399470416666
 21
284.6077880047328
 31
0.0
  0
LINE
  5
9E
330
1F
100
AcDbEntity
  8
0
100
AcDbLine
 10
422.3197845311672
 20
275.3788208745486
 30
0.0
 11
421.354832815153
 21
273.9470316253669
 31
0.0
  0
ARC
  5
9F
330
1F
100
AcDbEntity
  8
0
100
AcDbCircle
 10
420.6399476986934
 20
273.8077873918417
 30
0.0
 40
2.299999999991065
100
AcDbArc
 50
43.08309625583793
 51
68.96103515577968
  0
LINE
  5
A0
330
1F
100
AcDbEntity
  8
0
100
AcDbLine
 10
420.5007023446099
 20
274.5226709328658
 30
0.0
 11
421.4656540460721
 21
275.9544601820476
 31
0.0
  0
LINE
  5
A1
330
1F
100
AcDbEntity
  8
0
100
AcDbLine
 10
419.0689134446741
 20
275.4876254282958
 30
0.0
 11
420.5007023446099
 21
274.5226709328658
 31
0.0
  0
ARC
  5
A2
330
1F
100
AcDbEntity
  8
0
100
AcDbCircle
 10
420.6399476986934
 20
273.8077873918417
 30
0.0
 40
2.299999999991145
100
AcDbArc
 50
133.083096255838
 51
158.961035155782
  0
LINE
  5
A3
330
1F
100
AcDbEntity
  8
0
100
AcDbLine
 10
419.9250625714496
 20
273.6685438238151
 30
0.0
 11
418.4932736715139
 21
274.6334945939548
 31
0.0
  0
LINE
  5
A4
330
1F
100
AcDbEntity
  8
0
100
AcDbLine
 10
418.9601109864027
 20
272.2367545746333
 30
0.0
 11
419.9250625714496
 21
273.6685438238151
 31
0.0
  0
ARC
  5
A5
330
1F
100
AcDbEntity
  8
0
100
AcDbCircle
 10
420.6399476986934
 20
273.8077873918417
 30
0.0
 40
2.299999999990106
100
AcDbArc
 50
223.0830962558331
 51
248.9610351557813
  0
LINE
  5
A6
330
1F
100
AcDbEntity
  8
0
100
AcDbLine
 10
420.7791930274409
 20
273.0929007910258
 30
0.0
 11
419.8142413550825
 21
271.6611152671344
 31
0.0
  0
LINE
  5
A7
330
1F
100
AcDbEntity
  8
0
100
AcDbLine
 10
422.2109818400652
 20
272.1279500208861
 30
0.0
 11
420.7791930274409
 21
273.0929007910258
 31
0.0
  0
ARC
  5
A8
330
1F
100
AcDbEntity
  8
0
100
AcDbCircle
 10
420.6399476986934
 20
273.8077873918417
 30
0.0
 40
2.299999999990109
100
AcDbArc
 50
313.0830962558311
 51
338.9610351557787
  0
LINE
  5
A9
330
1F
100
AcDbEntity
  8
0
100
AcDbLine
 10
421.354832815153
 20
273.9470316253669
 30
0.0
 11
422.7866216132254
 21
272.9820808552272
 31
0.0
  0
CIRCLE
  5
AA
330
1F
100
AcDbEntity
  8
0
100
AcDbCircle
 10
420.6399476986934
 20
273.8077873918417
 30
0.0
 40
4.200000000000044
  0
ARC
  5
AB
330
1F
100
AcDbEntity
  8
0
100
AcDbCircle
 10
420.6399476986934
 20
273.8077873918417
 30
0.0
 40
1.08066852857437
100
AcDbArc
 50
27.56130023239936
 51
84.4828311792597
  0
ARC
  5
AC
330
1F
100
AcDbEntity
  8
0
100
AcDbCircle
 10
420.6399476986934
 20
273.8077873918417
 30
0.0
 40
1.080668528574415
100
AcDbArc
 50
117.5613002323535
 51
174.4828311792114
  0
ARC
  5
AD
330
1F
100
AcDbEntity
  8
0
100
AcDbCircle
 10
420.6399476986934
 20
273.8077873918417
 30
0.0
 40
1.080668528574497
100
AcDbArc
 50
297.5613002323992
 51
354.4828311792573
  0
ARC
  5
AE
330
1F
100
AcDbEntity
  8
0
100
AcDbCircle
 10
420.6399476986934
 20
273.8077873918417
 30
0.0
 40
1.080668528574415
100
AcDbArc
 50
207.5613002323535
 51
264.4828311792114
  0
LINE
  5
AF
330
1F
100
AcDbEntity
  8
0
100
AcDbLine
 10
419.0259929781616
 20
412.169144877053
 30
0.0
 11
419.9313786847354
 21
413.6393232427604
 31
0.0
  0
ARC
  5
B0
330
1F
100
AcDbEntity
  8
0
100
AcDbCircle
 10
420.6399476986934
 20
413.8077873918417
 30
0.0
 40
2.299999999991111
100
AcDbArc
 50
225.4348820293712
 51
251.3128209293147
  0
LINE
  5
B1
330
1F
100
AcDbEntity
  8
0
100
AcDbLine
 10
420.8084109740169
 20
413.0992157541282
 30
0.0
 11
419.9030253838584
 21
411.6290373884208
 31
0.0
  0
LINE
  5
B2
330
1F
100
AcDbEntity
  8
0
100
AcDbLine
 10
422.2785905038775
 20
412.1938361011512
 30
0.0
 11
420.8084109740169
 21
413.0992157541282
 31
0.0
  0
ARC
  5
B3
330
1F
100
AcDbEntity
  8
0
100
AcDbCircle
 10
420.6399476986934
 20
413.8077873918417
 30
0.0
 40
2.299999999991151
100
AcDbArc
 50
315.4348820293722
 51
341.3128209293151
  0
LINE
  5
B4
330
1F
100
AcDbEntity
  8
0
100
AcDbLine
 10
421.3485167746269
 20
413.9762533985145
 30
0.0
 11
422.8186962462798
 21
413.0708662949569
 31
0.0
  0
LINE
  5
B5
330
1F
100
AcDbEntity
  8
0
100
AcDbLine
 10
422.253902422993
 20
415.4464317642219
 30
0.0
 11
421.3485167746269
 21
413.9762533985145
 31
0.0
  0
ARC
  5
B6
330
1F
100
AcDbEntity
  8
0
100
AcDbCircle
 10
420.6399476986934
 20
413.8077873918417
 30
0.0
 40
2.299999999990065
100
AcDbArc
 50
45.43488202936743
 51
71.31282092931502
  0
LINE
  5
B7
330
1F
100
AcDbEntity
  8
0
100
AcDbLine
 10
420.4714844271377
 20
414.5163534365661
 30
0.0
 11
421.3768700609519
 21
415.9865392528541
 31
0.0
  0
LINE
  5
B8
330
1F
100
AcDbEntity
  8
0
100
AcDbLine
 10
419.0013050136924
 20
415.4217405401237
 30
0.0
 11
420.4714844271377
 21
414.5163534365661
 31
0.0
  0
ARC
  5
B9
330
1F
100
AcDbEntity
  8
0
100
AcDbCircle
 10
420.6399476986934
 20
413.8077873918417
 30
0.0
 40
2.299999999990104
100
AcDbArc
 50
135.4348820293664
 51
161.3128209293137
  0
LINE
  5
BA
330
1F
100
AcDbEntity
  8
0
100
AcDbLine
 10
419.9313786847354
 20
413.6393232427604
 30
0.0
 11
418.4611991548747
 21
414.544710346318
 31
0.0
  0
CIRCLE
  5
BB
330
1F
100
AcDbEntity
  8
0
100
AcDbCircle
 10
420.6399476986934
 20
413.8077873918417
 30
0.0
 40
4.199999999999982
  0
ARC
  5
BC
330
1F
100
AcDbEntity
  8
0
100
AcDbCircle
 10
420.6399476986934
 20
413.8077873918417
 30
0.0
 40
1.080668528574347
100
AcDbArc
 50
209.9130860059362
 51
266.8346169527966
  0
ARC
  5
BD
330
1F
100
AcDbEntity
  8
0
100
AcDbCircle
 10
420.6399476986934
 20
413.8077873918417
 30
0.0
 40
1.080668528574394
100
AcDbArc
 50
299.9130860058835
 51
356.8346169527424
  0
ARC
  5
BE
330
1F
100
AcDbEntity
  8
0
100
AcDbCircle
 10
420.6399476986934
 20
413.8077873918417
 30
0.0
 40
1.080668528574474
100
AcDbArc
 50
119.9130860059358
 51
176.8346169527909
  0
ARC
  5
BF
330
1F
100
AcDbEntity
  8
0
100
AcDbCircle
 10
420.6399476986934
 20
413.8077873918417
 30
0.0
 40
1.080668528574391
100
AcDbArc
 50
29.9130860058902
 51
86.83461695274542
  0
LINE
  5
C0
330
1F
100
AcDbEntity
  8
0
100
AcDbLine
 10
405.5399480311037
 20
400.3077907644279
 30
0.0
 11
405.5399480311037
 21
377.3077888570792
 31
0.0
  0
LINE
  5
C1
330
1F
100
AcDbEntity
  8
0
100
AcDbLine
 10
440.0399471668363
 20
380.7079954229362
 30
0.0
 11
440.0399471668363
 21
400.3077907644279
 31
0.0
  0
LINE
  5
C2
330
1F
100
AcDbEntity
  8
0
100
AcDbLine
 10
440.0399471668363
 20
377.3077888570792
 30
0.0
 11
440.0399471668363
 21
380.7079954229362
 31
0.0
  0
LINE
  5
C3
330
1F
100
AcDbEntity
  8
0
100
AcDbLine
 10
417.021582372284
 20
356.8077882908351
 30
0.0
 11
417.021582372284
 21
330.8077877543933
 31
0.0
  0
LINE
  5
C4
330
1F
100
AcDbEntity
  8
0
100
AcDbLine
 10
417.021582372284
 20
330.8077877543933
 30
0.0
 11
416.1399477196694
 21
330.8077877543933
 31
0.0
  0
LINE
  5
C5
330
1F
100
AcDbEntity
  8
0
100
AcDbLine
 10
416.1399477196694
 20
330.8077877543933
 30
0.0
 11
416.1399477196694
 21
356.8077882908351
 31
0.0
  0
LINE
  5
C6
330
1F
100
AcDbEntity
  8
0
100
AcDbLine
 10
416.1399477196694
 20
356.8077882908351
 30
0.0
 11
417.021582372284
 21
356.8077882908351
 31
0.0
  0
LINE
  5
C7
330
1F
100
AcDbEntity
  8
0
100
AcDbLine
 10
424.2583126796246
 20
330.8077877543933
 30
0.0
 11
424.2583126796246
 21
356.8077882908351
 31
0.0
  0
LINE
  5
C8
330
1F
100
AcDbEntity
  8
0
100
AcDbLine
 10
417.021582372284
 20
330.8077877543933
 30
0.0
 11
424.2583126796246
 21
330.8077877543933
 31
0.0
  0
LINE
  5
C9
330
1F
100
AcDbEntity
  8
0
100
AcDbLine
 10
424.2583126796246
 20
356.8077882908351
 30
0.0
 11
417.021582372284
 21
356.8077882908351
 31
0.0
  0
LINE
  5
CA
330
1F
100
AcDbEntity
  8
0
100
AcDbLine
 10
425.1399477979005
 20
356.8077882908351
 30
0.0
 11
425.1399477979005
 21
330.8077877543933
 31
0.0
  0
LINE
  5
CB
330
1F
100
AcDbEntity
  8
0
100
AcDbLine
 10
425.1399477979005
 20
330.8077877543933
 30
0.0
 11
424.2583126796246
 21
330.8077877543933
 31
0.0
  0
LINE
  5
CC
330
1F
100
AcDbEntity
  8
0
100
AcDbLine
 10
424.2583126796246
 20
356.8077882908351
 30
0.0
 11
425.1399477979005
 21
356.8077882908351
 31
0.0
  0
LINE
  5
CD
330
1F
100
AcDbEntity
  8
0
100
AcDbLine
 10
411.6399479133845
 20
419.8077855788238
 30
0.0
 11
429.6399480698467
 21
419.8077855788238
 31
0.0
  0
LINE
  5
CE
330
1F
100
AcDbEntity
  8
0
100
AcDbLine
 10
429.6399480698467
 20
267.8077867411143
 30
0.0
 11
429.6399480698467
 21
419.8077855788238
 31
0.0
  0
LINE
  5
CF
330
1F
100
AcDbEntity
  8
0
100
AcDbLine
 10
429.6399480698467
 20
267.8077867411143
 30
0.0
 11
411.6399479133845
 21
267.8077867411143
 31
0.0
  0
LINE
  5
D0
330
1F
100
AcDbEntity
  8
0
100
AcDbLine
 10
411.6399479133845
 20
419.8077855788238
 30
0.0
 11
411.6399479133845
 21
267.8077867411143
 31
0.0
  0
CIRCLE
  5
D1
330
1F
100
AcDbEntity
  8
0
100
AcDbCircle
 10
420.6399476986934
 20
284.8077873918417
 30
0.0
 40
5.199999999999989
  0
LINE
  5
D2
330
1F
100
AcDbEntity
  8
0
100
AcDbLine
 10
427.839947867936
 20
435.3077871881492
 30
0.0
 11
429.7399478999735
 21
435.3077871881492
 31
0.0
  0
LINE
  5
D3
330
1F
100
AcDbEntity
  8
0
100
AcDbLine
 10
427.839947867936
 20
433.3077905856139
 30
0.0
 11
427.839947867936
 21
435.3077871881492
 31
0.0
  0
LINE
  5
D4
330
1F
100
AcDbEntity
  8
0
100
AcDbLine
 10
427.839947867936
 20
433.3077905856139
 30
0.0
 11
427.839947867936
 21
424.8077882610328
 31
0.0
  0
LINE
  5
D5
330
1F
100
AcDbEntity
  8
0
100
AcDbLine
 10
429.7399478999735
 20
422.8077842079169
 30
0.0
 11
429.6399480698467
 21
422.8077842079169
 31
0.0
  0
LINE
  5
D6
330
1F
100
AcDbEntity
  8
0
100
AcDbLine
 10
427.839947867936
 20
422.8077842079169
 30
0.0
 11
427.839947867936
 21
424.8077882610328
 31
0.0
  0
LINE
  5
D7
330
1F
100
AcDbEntity
  8
0
100
AcDbLine
 10
429.6399480698467
 20
264.8077881120212
 30
0.0
 11
429.7399478999735
 21
264.8077881120212
 31
0.0
  0
LINE
  5
D8
330
1F
100
AcDbEntity
  8
0
100
AcDbLine
 10
427.839947867936
 20
262.8077877841956
 30
0.0
 11
427.839947867936
 21
264.8077881120212
 31
0.0
  0
LINE
  5
D9
330
1F
100
AcDbEntity
  8
0
100
AcDbLine
 10
427.839947867936
 20
262.8077877841956
 30
0.0
 11
427.839947867936
 21
254.3077854596145
 31
0.0
  0
LINE
  5
DA
330
1F
100
AcDbEntity
  8
0
100
AcDbLine
 10
429.7399478999735
 20
252.3077888570792
 30
0.0
 11
427.839947867936
 21
252.3077888570792
 31
0.0
  0
LINE
  5
DB
330
1F
100
AcDbEntity
  8
0
100
AcDbLine
 10
427.839947867936
 20
252.3077888570792
 30
0.0
 11
427.839947867936
 21
254.3077854596145
 31
0.0
  0
LINE
  5
DC
330
1F
100
AcDbEntity
  8
0
100
AcDbLine
 10
417.8399476257921
 20
433.3077905856139
 30
0.0
 11
417.8399476257921
 21
424.8077882610328
 31
0.0
  0
LINE
  5
DD
330
1F
100
AcDbEntity
  8
0
100
AcDbLine
 10
417.4399476067931
 20
435.3077871881492
 30
0.0
 11
417.8399476257921
 21
435.3077871881492
 31
0.0
  0
LINE
  5
DE
330
1F
100
AcDbEntity
  8
0
100
AcDbLine
 10
417.8399476257921
 20
435.3077871881492
 30
0.0
 11
417.8399476257921
 21
433.3077905856139
 31
0.0
  0
LINE
  5
DF
330
1F
100
AcDbEntity
  8
0
100
AcDbLine
 10
417.8399476257921
 20
424.8077882610328
 30
0.0
 11
417.8399476257921
 21
422.8077842079169
 31
0.0
  0
LINE
  5
E0
330
1F
100
AcDbEntity
  8
0
100
AcDbLine
 10
417.8399476257921
 20
264.8077881120212
 30
0.0
 11
417.8399476257921
 21
262.8077877841956
 31
0.0
  0
LINE
  5
E1
330
1F
100
AcDbEntity
  8
0
100
AcDbLine
 10
417.8399476257921
 20
262.8077877841956
 30
0.0
 11
417.8399476257921
 21
254.3077854596145
 31
0.0
  0
LINE
  5
E2
330
1F
100
AcDbEntity
  8
0
100
AcDbLine
 10
417.8399476257921
 20
252.3077888570792
 30
0.0
 11
417.4399476067931
 21
252.3077888570792
 31
0.0
  0
LINE
  5
E3
330
1F
100
AcDbEntity
  8
0
100
AcDbLine
 10
417.8399476257921
 20
254.3077854596145
 30
0.0
 11
417.8399476257921
 21
252.3077888570792
 31
0.0
  0
LINE
  5
E4
330
1F
100
AcDbEntity
  8
0
100
AcDbLine
 10
429.6399480698467
 20
422.8077842079169
 30
0.0
 11
417.4399476067931
 21
422.8077842079169
 31
0.0
  0
LINE
  5
E5
330
1F
100
AcDbEntity
  8
0
100
AcDbLine
 10
429.6399480698467
 20
422.8077842079169
 30
0.0
 11
429.6399480698467
 21
419.8077855788238
 31
0.0
  0
LINE
  5
E6
330
1F
100
AcDbEntity
  8
0
100
AcDbLine
 10
429.6399480698467
 20
267.8077867411143
 30
0.0
 11
429.6399480698467
 21
264.8077881120212
 31
0.0
  0
LINE
  5
E7
330
1F
100
AcDbEntity
  8
0
100
AcDbLine
 10
429.6399480698467
 20
264.8077881120212
 30
0.0
 11
417.4399476067931
 21
264.8077881120212
 31
0.0
  0
LINE
  5
E8
330
1F
100
AcDbEntity
  8
0
100
AcDbLine
 10
417.4399476067931
 20
264.8077881120212
 30
0.0
 11
417.4399476067931
 21
253.3077908836372
 31
0.0
  0
LINE
  5
E9
330
1F
100
AcDbEntity
  8
0
100
AcDbLine
 10
417.4399476067931
 20
434.3077851615913
 30
0.0
 11
417.4399476067931
 21
422.8077842079169
 31
0.0
  0
LINE
  5
EA
330
1F
100
AcDbEntity
  8
0
100
AcDbLine
 10
408.3399479312659
 20
436.3077892147071
 30
0.0
 11
417.4399476067931
 21
436.3077892147071
 31
0.0
  0
LINE
  5
EB
330
1F
100
AcDbEntity
  8
0
100
AcDbLine
 10
417.4399476067931
 20
436.3077892147071
 30
0.0
 11
417.4399476067931
 21
434.3077851615913
 31
0.0
  0
LINE
  5
EC
330
1F
100
AcDbEntity
  8
0
100
AcDbLine
 10
406.8399476853967
 20
253.3077908836372
 30
0.0
 11
406.8399476853967
 21
434.3077851615913
 31
0.0
  0
LINE
  5
ED
330
1F
100
AcDbEntity
  8
0
100
AcDbLine
 10
406.8399476853967
 20
434.8077861748702
 30
0.0
 11
406.8399476853967
 21
434.3077851615913
 31
0.0
  0
ARC
  5
EE
330
1F
100
AcDbEntity
  8
0
100
AcDbCircle
 10
408.3399476986934
 20
434.8077873918417
 30
0.0
 40
1.5
100
AcDbArc
 50
90.0
 51
180.0
  0
LINE
  5
EF
330
1F
100
AcDbEntity
  8
0
100
AcDbLine
 10
406.8399476853967
 20
253.3077908836372
 30
0.0
 11
406.8399476853967
 21
252.8077898703582
 31
0.0
  0
ARC
  5
F0
330
1F
100
AcDbEntity
  8
0
100
AcDbCircle
 10
408.3399476986934
 20
252.8077873918416
 30
0.0
 40
1.5
100
AcDbArc
 50
180.0
 51
270.0
  0
LINE
  5
F1
330
1F
100
AcDbEntity
  8
0
100
AcDbLine
 10
417.4399476067931
 20
251.3077868305213
 30
0.0
 11
408.3399479312659
 21
251.3077868305213
 31
0.0
  0
LINE
  5
F2
330
1F
100
AcDbEntity
  8
0
100
AcDbLine
 10
417.4399476067931
 20
253.3077908836372
 30
0.0
 11
417.4399476067931
 21
251.3077868305213
 31
0.0
  0
LINE
  5
F3
330
1F
100
AcDbEntity
  8
0
100
AcDbLine
 10
437.2399481979967
 20
251.3077868305213
 30
0.0
 11
429.7399478999735
 21
251.3077868305213
 31
0.0
  0
LINE
  5
F4
330
1F
100
AcDbEntity
  8
0
100
AcDbLine
 10
429.7399478999735
 20
251.3077868305213
 30
0.0
 11
429.7399478999735
 21
253.3077908836372
 31
0.0
  0
LINE
  5
F5
330
1F
100
AcDbEntity
  8
0
100
AcDbLine
 10
438.7399475125433
 20
252.8077898703582
 30
0.0
 11
438.7399475125433
 21
253.3077908836372
 31
0.0
  0
ARC
  5
F6
330
1F
100
AcDbEntity
  8
0
100
AcDbCircle
 10
437.2399476986934
 20
252.8077873918416
 30
0.0
 40
1.5
100
AcDbArc
 50
270.0
 51
0.0
  0
LINE
  5
F7
330
1F
100
AcDbEntity
  8
0
100
AcDbLine
 10
438.7399475125433
 20
434.3077851615913
 30
0.0
 11
438.7399475125433
 21
253.3077908836372
 31
0.0
  0
LINE
  5
F8
330
1F
100
AcDbEntity
  8
0
100
AcDbLine
 10
429.7399478999735
 20
253.3077908836372
 30
0.0
 11
429.7399478999735
 21
434.3077851615913
 31
0.0
  0
LINE
  5
F9
330
1F
100
AcDbEntity
  8
0
100
AcDbLine
 10
438.7399475125433
 20
434.3077851615913
 30
0.0
 11
438.7399475125433
 21
434.8077861748702
 31
0.0
  0
ARC
  5
FA
330
1F
100
AcDbEntity
  8
0
100
AcDbCircle
 10
437.2399476986935
 20
434.8077873918417
 30
0.0
 40
1.5
100
AcDbArc
 50
0.0
 51
90.0
  0
LINE
  5
FB
330
1F
100
AcDbEntity
  8
0
100
AcDbLine
 10
429.7399478999735
 20
436.3077892147071
 30
0.0
 11
437.2399481979967
 21
436.3077892147071
 31
0.0
  0
LINE
  5
FC
330
1F
100
AcDbEntity
  8
0
100
AcDbLine
 10
429.7399478999735
 20
434.3077851615913
 30
0.0
 11
429.7399478999735
 21
436.3077892147071
 31
0.0
  0
LINE
  5
FD
330
1F
100
AcDbEntity
  8
0
  6
Continuous
 62
     8
370
     0
100
AcDbLine
 10
400.6399470416666
 20
284.6077880047328
 30
0.0
 11
406.8399476853967
 21
284.6077880047328
 31
0.0
  0
LINE
  5
FE
330
1F
100
AcDbEntity
  8
0
  6
Continuous
 62
     8
370
     0
100
AcDbLine
 10
429.6399480698467
 20
284.6077880047328
 30
0.0
 11
429.7399478999735
 21
284.6077880047328
 31
0.0
  0
LINE
  5
FF
330
1F
100
AcDbEntity
  8
0
  6
Continuous
 62
     8
370
     0
100
AcDbLine
 10
438.7399475125433
 20
284.6077880047328
 30
0.0
 11
440.6399480102421
 21
284.6077880047328
 31
0.0
  0
LINE
  5
100
330
1F
100
AcDbEntity
  8
0
  6
Continuous
 62
     8
370
     0
100
AcDbLine
 10
429.7399478999735
 20
433.3077905856139
 30
0.0
 11
427.839947867936
 21
433.3077905856139
 31
0.0
  0
LINE
  5
101
330
1F
100
AcDbEntity
  8
0
  6
Continuous
 62
     8
370
     0
100
AcDbLine
 10
427.839947867936
 20
424.8077882610328
 30
0.0
 11
429.7399478999735
 21
424.8077882610328
 31
0.0
  0
LINE
  5
102
330
1F
100
AcDbEntity
  8
0
  6
Continuous
 62
     8
370
     0
100
AcDbLine
 10
429.7399478999735
 20
262.8077877841956
 30
0.0
 11
427.839947867936
 21
262.8077877841956
 31
0.0
  0
LINE
  5
103
330
1F
100
AcDbEntity
  8
0
  6
Continuous
 62
     8
370
     0
100
AcDbLine
 10
427.839947867936
 20
254.3077854596145
 30
0.0
 11
429.7399478999735
 21
254.3077854596145
 31
0.0
  0
LINE
  5
104
330
1F
100
AcDbEntity
  8
0
  6
Continuous
 62
     8
370
     0
100
AcDbLine
 10
417.8399476257921
 20
433.3077905856139
 30
0.0
 11
417.4399476067931
 21
433.3077905856139
 31
0.0
  0
LINE
  5
105
330
1F
100
AcDbEntity
  8
0
  6
Continuous
 62
     8
370
     0
100
AcDbLine
 10
417.4399476067931
 20
424.8077882610328
 30
0.0
 11
417.8399476257921
 21
424.8077882610328
 31
0.0
  0
LINE
  5
106
330
1F
100
AcDbEntity
  8
0
  6
Continuous
 62
     8
370
     0
100
AcDbLine
 10
417.8399476257921
 20
262.8077877841956
 30
0.0
 11
417.4399476067931
 21
262.8077877841956
 31
0.0
  0
LINE
  5
107
330
1F
100
AcDbEntity
  8
0
  6
Continuous
 62
     8
370
     0
100
AcDbLine
 10
417.4399476067931
 20
254.3077854596145
 30
0.0
 11
417.8399476257921
 21
254.3077854596145
 31
0.0
  0
LINE
  5
108
330
1F
100
AcDbEntity
  8
0
  6
Continuous
 62
     8
370
     0
100
AcDbLine
 10
408.3399479312659
 20
253.3077908836372
 30
0.0
 11
417.4399476067931
 21
253.3077908836372
 31
0.0
  0
LINE
  5
109
330
1F
100
AcDbEntity
  8
0
  6
Continuous
 62
     8
370
     0
100
AcDbLine
 10
408.3399479312659
 20
434.3077851615913
 30
0.0
 11
408.3399479312659
 21
253.3077908836372
 31
0.0
  0
LINE
  5
10A
330
1F
100
AcDbEntity
  8
0
  6
Continuous
 62
     8
370
     0
100
AcDbLine
 10
417.4399476067931
 20
434.3077851615913
 30
0.0
 11
408.3399479312659
 21
434.3077851615913
 31
0.0
  0
LINE
  5
10B
330
1F
100
AcDbEntity
  8
0
  6
Continuous
 62
     8
370
     0
100
AcDbLine
 10
408.3399479312659
 20
434.3077851615913
 30
0.0
 11
408.3399479312659
 21
436.3077892147071
 31
0.0
  0
LINE
  5
10C
330
1F
100
AcDbEntity
  8
0
  6
Continuous
 62
     8
370
     0
100
AcDbLine
 10
406.8399476853967
 20
253.3077908836372
 30
0.0
 11
408.3399479312659
 21
253.3077908836372
 31
0.0
  0
LINE
  5
10D
330
1F
100
AcDbEntity
  8
0
  6
Continuous
 62
     8
370
     0
100
AcDbLine
 10
408.3399479312659
 20
434.3077851615913
 30
0.0
 11
406.8399476853967
 21
434.3077851615913
 31
0.0
  0
LINE
  5
10E
330
1F
100
AcDbEntity
  8
0
  6
Continuous
 62
     8
370
     0
100
AcDbLine
 10
408.3399479312659
 20
251.3077868305213
 30
0.0
 11
408.3399479312659
 21
253.3077908836372
 31
0.0
  0
LINE
  5
10F
330
1F
100
AcDbEntity
  8
0
  6
Continuous
 62
     8
370
     0
100
AcDbLine
 10
429.7399478999735
 20
253.3077908836372
 30
0.0
 11
437.2399481979967
 21
253.3077908836372
 31
0.0
  0
LINE
  5
110
330
1F
100
AcDbEntity
  8
0
  6
Continuous
 62
     8
370
     0
100
AcDbLine
 10
437.2399481979967
 20
253.3077908836372
 30
0.0
 11
437.2399481979967
 21
251.3077868305213
 31
0.0
  0
LINE
  5
111
330
1F
100
AcDbEntity
  8
0
  6
Continuous
 62
     8
370
     0
100
AcDbLine
 10
437.2399481979967
 20
253.3077908836372
 30
0.0
 11
438.7399475125433
 21
253.3077908836372
 31
0.0
  0
LINE
  5
112
330
1F
100
AcDbEntity
  8
0
  6
Continuous
 62
     8
370
     0
100
AcDbLine
 10
438.7399475125433
 20
434.3077851615913
 30
0.0
 11
437.2399481979967
 21
434.3077851615913
 31
0.0
  0
LINE
  5
113
330
1F
100
AcDbEntity
  8
0
  6
Continuous
 62
     8
370
     0
100
AcDbLine
 10
437.2399481979967
 20
253.3077908836372
 30
0.0
 11
437.2399481979967
 21
434.3077851615913
 31
0.0
  0
LINE
  5
114
330
1F
100
AcDbEntity
  8
0
  6
Continuous
 62
     8
370
     0
100
AcDbLine
 10
437.2399481979967
 20
434.3077851615913
 30
0.0
 11
429.7399478999735
 21
434.3077851615913
 31
0.0
  0
LINE
  5
115
330
1F
100
AcDbEntity
  8
0
  6
Continuous
 62
     8
370
     0
100
AcDbLine
 10
437.2399481979967
 20
436.3077892147071
 30
0.0
 11
437.2399481979967
 21
434.3077851615913
 31
0.0
  0
LINE
  5
116
330
1F
100
AcDbEntity
  8
0
100
AcDbLine
 10
245.6023910939257
 20
282.3077863238818
 30
0.0
 11
245.9605153575104
 21
282.3077863238818
 31
0.0
  0
LINE
  5
117
330
1F
100
AcDbEntity
  8
0
100
AcDbLine
 10
254.9525111838739
 20
282.3077863238818
 30
0.0
 11
255.310634516136
 21
282.3077863238818
 31
0.0
  0
LINE
  5
118
330
1F
100
AcDbEntity
  8
0
100
AcDbLine
 10
255.7065136655729
 20
287.3077890060908
 30
0.0
 11
255.4565131589334
 21
287.3077890060908
 31
0.0
  0
LINE
  5
119
330
1F
100
AcDbEntity
  8
0
100
AcDbLine
 10
245.4565133824509
 20
287.3077890060908
 30
0.0
 11
245.2065133414727
 21
287.3077890060908
 31
0.0
  0
LINE
  5
11A
330
1F
100
AcDbEntity
  8
0
100
AcDbLine
 10
251.4565134346049
 20
301.8077867262132
 30
0.0
 11
251.4565134346049
 21
299.8077882610328
 31
0.0
  0
LINE
  5
11B
330
1F
100
AcDbEntity
  8
0
100
AcDbLine
 10
250.4565132706921
 20
303.8077870540387
 30
0.0
 11
251.4565134346049
 21
301.8077867262132
 31
0.0
  0
LINE
  5
11C
330
1F
100
AcDbEntity
  8
0
100
AcDbLine
 10
251.4565134346049
 20
306.807787545777
 30
0.0
 11
250.4565132706921
 21
303.8077870540387
 31
0.0
  0
LINE
  5
11D
330
1F
100
AcDbEntity
  8
0
100
AcDbLine
 10
250.4565132706921
 20
306.807787545777
 30
0.0
 11
251.4565134346049
 21
306.807787545777
 31
0.0
  0
LINE
  5
11E
330
1F
100
AcDbEntity
  8
0
100
AcDbLine
 10
249.1065137013357
 20
303.8077870540387
 30
0.0
 11
250.4565132706921
 21
306.807787545777
 31
0.0
  0
LINE
  5
11F
330
1F
100
AcDbEntity
  8
0
100
AcDbLine
 10
249.1065137013357
 20
302.807786890126
 30
0.0
 11
249.1065137013357
 21
303.8077870540387
 31
0.0
  0
LINE
  5
120
330
1F
100
AcDbEntity
  8
0
100
AcDbLine
 10
250.4565132706921
 20
300.8077865623004
 30
0.0
 11
249.1065137013357
 21
302.807786890126
 31
0.0
  0
ARC
  5
121
330
1F
100
AcDbEntity
  8
0
100
AcDbCircle
 10
250.4565134721177
 20
303.8077873918417
 30
0.0
 40
6.500000000000029
100
AcDbArc
 50
281.9871497638235
 51
258.0128502361777
  0
LINE
  5
122
330
1F
100
AcDbEntity
  8
0
100
AcDbLine
 10
249.1065137013357
 20
298.80778809712
 30
0.0
 11
250.4565132706921
 21
300.8077865623004
 31
0.0
  0
LINE
  5
123
330
1F
100
AcDbEntity
  8
0
100
AcDbLine
 10
250.4565132706921
 20
298.80778809712
 30
0.0
 11
250.4565132706921
 21
297.8077879332072
 31
0.0
  0
LINE
  5
124
330
1F
100
AcDbEntity
  8
0
100
AcDbLine
 10
249.1065137013357
 20
297.449524902559
 30
0.0
 11
249.1065137013357
 21
298.80778809712
 31
0.0
  0
LINE
  5
125
330
1F
100
AcDbEntity
  8
0
100
AcDbLine
 10
250.4565132706921
 20
297.8077879332072
 30
0.0
 11
251.8065137713712
 21
297.8077879332072
 31
0.0
  0
LINE
  5
126
330
1F
100
AcDbEntity
  8
0
100
AcDbLine
 10
251.8065137713712
 20
297.8077879332072
 30
0.0
 11
251.8065137713712
 21
297.449524902559
 31
0.0
  0
LINE
  5
127
330
1F
100
AcDbEntity
  8
0
100
AcDbLine
 10
251.4565134346049
 20
299.8077882610328
 30
0.0
 11
250.4565132706921
 21
298.80778809712
 31
0.0
  0
ARC
  5
128
330
1F
100
AcDbEntity
  8
0
100
AcDbCircle
 10
250.4565134721177
 20
303.8077873918417
 30
0.0
 40
8.500000000000012
100
AcDbArc
 50
306.0318790724714
 51
233.96812092753
  0
LINE
  5
129
330
1F
100
AcDbEntity
  8
0
100
AcDbLine
 10
251.8871867954295
 20
279.4577865086562
 30
0.0
 11
249.0258397459548
 21
279.4577865086562
 31
0.0
  0
CIRCLE
  5
12A
330
1F
100
AcDbEntity
  8
0
100
AcDbCircle
 10
250.4565134721177
 20
303.8077873918417
 30
0.0
 40
7.250000000000028
  0
ARC
  5
12B
330
1F
100
AcDbEntity
  8
0
100
AcDbCircle
 10
249.9565134721177
 20
284.6077873918417
 30
0.0
 40
5.499999999999976
100
AcDbArc
 50
290.5504215508678
 51
0.0
  0
ARC
  5
12C
330
1F
100
AcDbEntity
  8
0
100
AcDbCircle
 10
250.9565134721177
 20
284.6077873918417
 30
0.0
 40
5.500000000000028
100
AcDbArc
 50
180.0
 51
249.449578449133
  0
LINE
  5
12D
330
1F
100
AcDbEntity
  8
0
100
AcDbLine
 10
245.4565133824509
 20
296.9339242361552
 30
0.0
 11
245.4565133824509
 21
284.6077880047328
 31
0.0
  0
LINE
  5
12E
330
1F
100
AcDbEntity
  8
0
100
AcDbLine
 10
255.4565131589334
 20
284.6077880047328
 30
0.0
 11
255.4565131589334
 21
296.9339242361552
 31
0.0
  0
ARC
  5
12F
330
1F
100
AcDbEntity
  8
0
100
AcDbCircle
 10
250.4565134721177
 20
303.8077873918417
 30
0.0
 40
6.500000000000029
100
AcDbArc
 50
258.0128502361777
 51
281.9871497638235
  0
LINE
  5
130
330
1F
100
AcDbEntity
  8
0
100
AcDbLine
 10
251.2624835520547
 20
299.6137583784825
 30
0.0
 11
250.4565132706921
 21
300.8077865623004
 31
0.0
  0
LINE
  5
131
330
1F
100
AcDbEntity
  8
0
100
AcDbLine
 10
250.4565132706921
 20
300.8077865623004
 30
0.0
 11
251.3182157575648
 21
302.0843839429385
 31
0.0
  0
LINE
  5
132
330
1F
100
AcDbEntity
  8
0
100
AcDbLine
 10
251.0309819057148
 20
305.5311920277841
 30
0.0
 11
250.4565132706921
 21
306.807787545777
 31
0.0
  0
LINE
  5
133
330
1F
100
AcDbEntity
  8
0
100
AcDbLine
 10
249.8820455669921
 20
305.5311920277841
 30
0.0
 11
250.4565132706921
 21
303.8077870540387
 31
0.0
  0
LINE
  5
134
330
1F
100
AcDbEntity
  8
0
100
AcDbLine
 10
250.4565132706921
 20
303.8077870540387
 30
0.0
 11
249.594811715142
 21
302.0843839429385
 31
0.0
  0
LINE
  5
135
330
1F
100
AcDbEntity
  8
0
100
AcDbLine
 10
249.6505429893296
 20
299.6137583784825
 30
0.0
 11
250.4565132706921
 21
298.80778809712
 31
0.0
  0
LINE
  5
136
330
1F
100
AcDbEntity
  8
0
100
AcDbLine
 10
250.4565132706921
 20
297.8077879332072
 30
0.0
 11
249.1065137013357
 21
297.8077879332072
 31
0.0
  0
ARC
  5
137
330
1F
100
AcDbEntity
  8
0
100
AcDbCircle
 10
250.4565134721177
 20
303.8077873918417
 30
0.0
 40
7.000000000000002
100
AcDbArc
 50
281.11957095345
 51
258.8804290465478
  0
LINE
  5
138
330
1F
100
AcDbEntity
  8
0
100
AcDbLine
 10
251.8065137713712
 20
297.8077879332072
 30
0.0
 11
251.8065137713712
 21
296.9391992472179
 31
0.0
  0
LINE
  5
139
330
1F
100
AcDbEntity
  8
0
100
AcDbLine
 10
249.1065137013357
 20
296.9391992472179
 30
0.0
 11
249.1065137013357
 21
298.80778809712
 31
0.0
  0
CIRCLE
  5
13A
330
1F
100
AcDbEntity
  8
0
100
AcDbCircle
 10
250.4565134721175
 20
388.8077873918416
 30
0.0
 40
9.100000000000021
  0
CIRCLE
  5
13B
330
1F
100
AcDbEntity
  8
0
100
AcDbCircle
 10
250.4565134721175
 20
388.8077873918416
 30
0.0
 40
11.50000000000004
  0
CIRCLE
  5
13C
330
1F
100
AcDbEntity
  8
0
100
AcDbCircle
 10
250.4565134721176
 20
388.8077873918417
 30
0.0
 40
9.0
  0
LINE
  5
13D
330
1F
100
AcDbEntity
  8
0
100
AcDbLine
 10
246.4565135463636
 20
392.8077904664046
 30
0.0
 11
246.4565135463636
 21
384.8077891551025
 31
0.0
  0
LINE
  5
13E
330
1F
100
AcDbEntity
  8
0
100
AcDbLine
 10
254.4565129950207
 20
384.8077891551025
 30
0.0
 11
254.4565129950207
 21
392.8077904664046
 31
0.0
  0
LINE
  5
13F
330
1F
100
AcDbEntity
  8
0
100
AcDbLine
 10
246.4565135463636
 20
384.8077891551025
 30
0.0
 11
254.4565129950207
 21
384.8077891551025
 31
0.0
  0
LINE
  5
140
330
1F
100
AcDbEntity
  8
0
100
AcDbLine
 10
254.4565129950207
 20
392.8077904664046
 30
0.0
 11
246.4565135463636
 21
392.8077904664046
 31
0.0
  0
LINE
  5
141
330
1F
100
AcDbEntity
  8
0
100
AcDbLine
 10
255.7065136655729
 20
284.3077866517074
 30
0.0
 11
255.7065136655729
 21
296.4976908795602
 31
0.0
  0
ARC
  5
142
330
1F
100
AcDbEntity
  8
0
100
AcDbCircle
 10
250.4565134721176
 20
284.3077873918417
 30
0.0
 40
5.25
100
AcDbArc
 50
180.0
 51
270.0000000000009
  0
LINE
  5
143
330
1F
100
AcDbEntity
  8
0
100
AcDbLine
 10
255.7065136655729
 20
296.4976908795602
 30
0.0
 11
255.9565141722124
 21
296.6838846139676
 31
0.0
  0
LINE
  5
144
330
1F
100
AcDbEntity
  8
0
100
AcDbLine
 10
244.9565133004945
 20
296.6838846139676
 30
0.0
 11
245.2065133414727
 21
296.4976908795602
 31
0.0
  0
LINE
  5
145
330
1F
100
AcDbEntity
  8
0
100
AcDbLine
 10
245.2065133414727
 20
296.4976908795602
 30
0.0
 11
245.2065133414727
 21
284.3077866517074
 31
0.0
  0
ARC
  5
146
330
1F
100
AcDbEntity
  8
0
100
AcDbCircle
 10
250.4565134721176
 20
284.3077873918417
 30
0.0
 40
5.25
100
AcDbArc
 50
270.0000000000009
 51
0.0
  0
LINE
  5
147
330
1F
100
AcDbEntity
  8
0
100
AcDbLine
 10
208.9565139188927
 20
330.8077877543933
 30
0.0
 11
214.9565130397241
 21
330.8077877543933
 31
0.0
  0
LINE
  5
148
330
1F
100
AcDbEntity
  8
0
100
AcDbLine
 10
208.9565139188927
 20
356.8077882908351
 30
0.0
 11
208.9565139188927
 21
330.8077877543933
 31
0.0
  0
LINE
  5
149
330
1F
100
AcDbEntity
  8
0
100
AcDbLine
 10
208.9565139188927
 20
356.8077882908351
 30
0.0
 11
214.9565130397241
 21
356.8077882908351
 31
0.0
  0
LINE
  5
14A
330
1F
100
AcDbEntity
  8
0
100
AcDbLine
 10
203.9565149619739
 20
330.8077877543933
 30
0.0
 11
203.9565149619739
 21
356.8077882908351
 31
0.0
  0
LINE
  5
14B
330
1F
100
AcDbEntity
  8
0
100
AcDbLine
 10
208.9565139188927
 20
330.8077877543933
 30
0.0
 11
203.9565149619739
 21
330.8077877543933
 31
0.0
  0
LINE
  5
14C
330
1F
100
AcDbEntity
  8
0
100
AcDbLine
 10
203.9565149619739
 20
356.8077882908351
 30
0.0
 11
208.9565139188927
 21
356.8077882908351
 31
0.0
  0
LINE
  5
14D
330
1F
100
AcDbEntity
  8
0
100
AcDbLine
 10
216.9565133675497
 20
436.3077892147071
 30
0.0
 11
292.9565127864044
 21
436.3077892147071
 31
0.0
  0
ARC
  5
14E
330
1F
100
AcDbEntity
  8
0
100
AcDbCircle
 10
292.9565134721178
 20
434.3077873918416
 30
0.0
 40
2.0
100
AcDbArc
 50
0.0
 51
90.0
  0
LINE
  5
14F
330
1F
100
AcDbEntity
  8
0
100
AcDbLine
 10
294.9565131142299
 20
434.3077851615913
 30
0.0
 11
294.9565131142299
 21
253.3077908836372
 31
0.0
  0
LINE
  5
150
330
1F
100
AcDbEntity
  8
0
100
AcDbLine
 10
244.9565133004945
 20
296.6838846139676
 30
0.0
 11
244.9565133004945
 21
284.2077886842258
 31
0.0
  0
ARC
  5
151
330
1F
100
AcDbEntity
  8
0
100
AcDbCircle
 10
250.3565134721177
 20
284.2077873918416
 30
0.0
 40
5.399999999999977
100
AcDbArc
 50
180.0
 51
270.0000000000009
  0
LINE
  5
152
330
1F
100
AcDbEntity
  8
0
100
AcDbLine
 10
250.3565134405654
 20
278.8077866815097
 30
0.0
 11
250.5565131008189
 21
278.8077866815097
 31
0.0
  0
ARC
  5
153
330
1F
100
AcDbEntity
  8
0
100
AcDbCircle
 10
250.5565134721177
 20
284.2077873918416
 30
0.0
 40
5.399999999999977
100
AcDbArc
 50
270.0000000000009
 51
0.0
  0
LINE
  5
154
330
1F
100
AcDbEntity
  8
0
100
AcDbLine
 10
255.9565141722124
 20
284.2077886842258
 30
0.0
 11
255.9565141722124
 21
296.6838846139676
 31
0.0
  0
ARC
  5
155
330
1F
100
AcDbEntity
  8
0
100
AcDbCircle
 10
250.4565134721177
 20
303.8077873918417
 30
0.0
 40
8.999999999999991
100
AcDbArc
 50
307.6698869643303
 51
232.330113035671
  0
LINE
  5
156
330
1F
100
AcDbEntity
  8
0
100
AcDbLine
 10
214.9565130397241
 20
253.3077908836372
 30
0.0
 11
214.9565130397241
 21
434.3077851615913
 31
0.0
  0
ARC
  5
157
330
1F
100
AcDbEntity
  8
0
100
AcDbCircle
 10
216.9565134721178
 20
434.3077873918417
 30
0.0
 40
2.0
100
AcDbArc
 50
90.0
 51
180.0
  0
LINE
  5
158
330
1F
100
AcDbEntity
  8
0
100
AcDbLine
 10
292.9565127864044
 20
251.3077868305213
 30
0.0
 11
216.9565133675497
 21
251.3077868305213
 31
0.0
  0
ARC
  5
159
330
1F
100
AcDbEntity
  8
0
100
AcDbCircle
 10
292.9565134721178
 20
253.3077873918416
 30
0.0
 40
2.0
100
AcDbArc
 50
269.9999999999984
 51
0.0
  0
ARC
  5
15A
330
1F
100
AcDbEntity
  8
0
100
AcDbCircle
 10
216.9565134721177
 20
253.3077873918416
 30
0.0
 40
2.0
100
AcDbArc
 50
180.0
 51
270.0000000000008
  0
LINE
  5
15B
330
1F
100
AcDbEntity
  8
0
  6
Continuous
 62
     8
370
     0
100
AcDbLine
 10
292.9565127864044
 20
434.8077861748702
 30
0.0
 11
292.9565127864044
 21
436.3077892147071
 31
0.0
  0
LINE
  5
15C
330
1F
100
AcDbEntity
  8
0
  6
Continuous
 62
     8
370
     0
100
AcDbLine
 10
292.9565127864044
 20
434.8077861748702
 30
0.0
 11
216.9565133675497
 21
434.8077861748702
 31
0.0
  0
LINE
  5
15D
330
1F
100
AcDbEntity
  8
0
  6
Continuous
 62
     8
370
     0
100
AcDbLine
 10
216.9565133675497
 20
436.3077892147071
 30
0.0
 11
216.9565133675497
 21
434.8077861748702
 31
0.0
  0
ARC
  5
15E
330
1F
100
AcDbEntity
  8
0
  6
Continuous
 62
     8
370
     0
100
AcDbCircle
 10
292.9565134721178
 20
434.3077873918416
 30
0.0
 40
0.5000000000000568
100
AcDbArc
 50
0.0
 51
90.0
  0
LINE
  5
15F
330
1F
100
AcDbEntity
  8
0
  6
Continuous
 62
     8
370
     0
100
AcDbLine
 10
294.9565131142299
 20
434.3077851615913
 30
0.0
 11
293.4565137996834
 21
434.3077851615913
 31
0.0
  0
LINE
  5
160
330
1F
100
AcDbEntity
  8
0
  6
Continuous
 62
     8
370
     0
100
AcDbLine
 10
293.4565137996834
 20
253.3077908836372
 30
0.0
 11
294.9565131142299
 21
253.3077908836372
 31
0.0
  0
LINE
  5
161
330
1F
100
AcDbEntity
  8
0
  6
Continuous
 62
     8
370
     0
100
AcDbLine
 10
293.4565137996834
 20
253.3077908836372
 30
0.0
 11
293.4565137996834
 21
434.3077851615913
 31
0.0
  0
LINE
  5
162
330
1F
100
AcDbEntity
  8
0
  6
Continuous
 62
     8
370
     0
100
AcDbLine
 10
216.9565133675497
 20
252.8077898703582
 30
0.0
 11
292.9565127864044
 21
252.8077898703582
 31
0.0
  0
ARC
  5
163
330
1F
100
AcDbEntity
  8
0
  6
Continuous
 62
     8
370
     0
100
AcDbCircle
 10
216.9565134721177
 20
253.3077873918416
 30
0.0
 40
0.5
100
AcDbArc
 50
180.0
 51
270.0
  0
LINE
  5
164
330
1F
100
AcDbEntity
  8
0
  6
Continuous
 62
     8
370
     0
100
AcDbLine
 10
216.4565142169159
 20
434.3077851615913
 30
0.0
 11
216.4565142169159
 21
253.3077908836372
 31
0.0
  0
ARC
  5
165
330
1F
100
AcDbEntity
  8
0
  6
Continuous
 62
     8
370
     0
100
AcDbCircle
 10
216.9565134721178
 20
434.3077873918417
 30
0.0
 40
0.5
100
AcDbArc
 50
90.0
 51
180.0
  0
ARC
  5
166
330
1F
100
AcDbEntity
  8
0
  6
Continuous
 62
     8
370
     0
100
AcDbCircle
 10
292.9565134721178
 20
253.3077873918416
 30
0.0
 40
0.5
100
AcDbArc
 50
270.0
 51
0.0
  0
LINE
  5
167
330
1F
100
AcDbEntity
  8
0
  6
Continuous
 62
     8
370
     0
100
AcDbLine
 10
216.4565142169159
 20
434.3077851615913
 30
0.0
 11
214.9565130397241
 21
434.3077851615913
 31
0.0
  0
LINE
  5
168
330
1F
100
AcDbEntity
  8
0
  6
Continuous
 62
     8
370
     0
100
AcDbLine
 10
214.9565130397241
 20
253.3077908836372
 30
0.0
 11
216.4565142169159
 21
253.3077908836372
 31
0.0
  0
LINE
  5
169
330
1F
100
AcDbEntity
  8
0
  6
Continuous
 62
     8
370
     0
100
AcDbLine
 10
216.9565133675497
 20
252.8077898703582
 30
0.0
 11
216.9565133675497
 21
251.3077868305213
 31
0.0
  0
LINE
  5
16A
330
1F
100
AcDbEntity
  8
0
  6
Continuous
 62
     8
370
     0
100
AcDbLine
 10
292.9565127864044
 20
251.3077868305213
 30
0.0
 11
292.9565127864044
 21
252.8077898703582
 31
0.0
  0
LINE
  5
16B
330
1F
100
AcDbEntity
  8
0
100
AcDbLine
 10
618.6195367178827
 20
287.3077890060908
 30
0.0
 11
618.3695366769045
 21
287.3077890060908
 31
0.0
  0
LINE
  5
16C
330
1F
100
AcDbEntity
  8
0
100
AcDbLine
 10
608.369536900422
 20
287.3077890060908
 30
0.0
 11
608.1195363937825
 21
287.3077890060908
 31
0.0
  0
LINE
  5
16D
330
1F
100
AcDbEntity
  8
0
100
AcDbLine
 10
608.5154155432194
 20
282.3077863238818
 30
0.0
 11
608.8735388754815
 21
282.3077863238818
 31
0.0
  0
LINE
  5
16E
330
1F
100
AcDbEntity
  8
0
100
AcDbLine
 10
617.865534701845
 20
282.3077863238818
 30
0.0
 11
618.2236589654296
 21
282.3077863238818
 31
0.0
  0
LINE
  5
16F
330
1F
100
AcDbEntity
  8
0
100
AcDbLine
 10
611.9388632639259
 20
279.4577865086562
 30
0.0
 11
614.8002103134006
 21
279.4577865086562
 31
0.0
  0
ARC
  5
170
330
1F
100
AcDbEntity
  8
0
100
AcDbCircle
 10
613.3695365872377
 20
303.8077873918417
 30
0.0
 40
8.499999999999995
100
AcDbArc
 50
306.0318790724706
 51
233.9681209275294
  0
CIRCLE
  5
171
330
1F
100
AcDbEntity
  8
0
100
AcDbCircle
 10
613.3695365872377
 20
303.8077873918417
 30
0.0
 40
7.250000000000057
  0
LINE
  5
172
330
1F
100
AcDbEntity
  8
0
100
AcDbLine
 10
618.3695366769045
 20
296.9339242361552
 30
0.0
 11
618.3695366769045
 21
284.6077880047328
 31
0.0
  0
ARC
  5
173
330
1F
100
AcDbEntity
  8
0
100
AcDbCircle
 10
612.8695365872377
 20
284.6077873918417
 30
0.0
 40
5.5
100
AcDbArc
 50
290.5504215508668
 51
0.0
  0
LINE
  5
174
330
1F
100
AcDbEntity
  8
0
100
AcDbLine
 10
608.369536900422
 20
284.6077880047328
 30
0.0
 11
608.369536900422
 21
296.9339242361552
 31
0.0
  0
ARC
  5
175
330
1F
100
AcDbEntity
  8
0
100
AcDbCircle
 10
613.8695365872377
 20
284.6077873918417
 30
0.0
 40
5.5
100
AcDbArc
 50
180.0
 51
249.4495784491332
  0
ARC
  5
176
330
1F
100
AcDbEntity
  8
0
100
AcDbCircle
 10
613.3695365872377
 20
303.8077873918417
 30
0.0
 40
6.499999999999795
100
AcDbArc
 50
281.9871497638234
 51
258.0128502361775
  0
LINE
  5
177
330
1F
100
AcDbEntity
  8
0
100
AcDbLine
 10
614.369536952576
 20
301.8077867262132
 30
0.0
 11
614.369536952576
 21
299.8077882610328
 31
0.0
  0
LINE
  5
178
330
1F
100
AcDbEntity
  8
0
100
AcDbLine
 10
613.3695367886633
 20
303.8077870540387
 30
0.0
 11
614.369536952576
 21
301.8077867262132
 31
0.0
  0
LINE
  5
179
330
1F
100
AcDbEntity
  8
0
100
AcDbLine
 10
614.369536952576
 20
306.807787545777
 30
0.0
 11
613.3695367886633
 21
303.8077870540387
 31
0.0
  0
LINE
  5
17A
330
1F
100
AcDbEntity
  8
0
100
AcDbLine
 10
613.3695367886633
 20
306.807787545777
 30
0.0
 11
614.369536952576
 21
306.807787545777
 31
0.0
  0
LINE
  5
17B
330
1F
100
AcDbEntity
  8
0
100
AcDbLine
 10
612.0195362879842
 20
303.8077870540387
 30
0.0
 11
613.3695367886633
 21
306.807787545777
 31
0.0
  0
LINE
  5
17C
330
1F
100
AcDbEntity
  8
0
100
AcDbLine
 10
612.0195362879842
 20
302.807786890126
 30
0.0
 11
612.0195362879842
 21
303.8077870540387
 31
0.0
  0
LINE
  5
17D
330
1F
100
AcDbEntity
  8
0
100
AcDbLine
 10
613.3695367886633
 20
300.8077865623004
 30
0.0
 11
612.0195362879842
 21
302.807786890126
 31
0.0
  0
LINE
  5
17E
330
1F
100
AcDbEntity
  8
0
100
AcDbLine
 10
614.7195363580197
 20
297.8077879332072
 30
0.0
 11
614.7195363580197
 21
297.449524902559
 31
0.0
  0
LINE
  5
17F
330
1F
100
AcDbEntity
  8
0
100
AcDbLine
 10
613.3695367886633
 20
297.8077879332072
 30
0.0
 11
614.7195363580197
 21
297.8077879332072
 31
0.0
  0
LINE
  5
180
330
1F
100
AcDbEntity
  8
0
100
AcDbLine
 10
614.369536952576
 20
299.8077882610328
 30
0.0
 11
613.3695367886633
 21
298.80778809712
 31
0.0
  0
LINE
  5
181
330
1F
100
AcDbEntity
  8
0
100
AcDbLine
 10
613.3695367886633
 20
298.80778809712
 30
0.0
 11
613.3695367886633
 21
297.8077879332072
 31
0.0
  0
LINE
  5
182
330
1F
100
AcDbEntity
  8
0
100
AcDbLine
 10
612.0195362879842
 20
297.449524902559
 30
0.0
 11
612.0195362879842
 21
298.80778809712
 31
0.0
  0
LINE
  5
183
330
1F
100
AcDbEntity
  8
0
100
AcDbLine
 10
612.0195362879842
 20
298.80778809712
 30
0.0
 11
613.3695367886633
 21
300.8077865623004
 31
0.0
  0
ARC
  5
184
330
1F
100
AcDbEntity
  8
0
100
AcDbCircle
 10
613.3695365872377
 20
303.8077873918417
 30
0.0
 40
6.500000000000017
100
AcDbArc
 50
258.012850236178
 51
281.987149763823
  0
LINE
  5
185
330
1F
100
AcDbEntity
  8
0
100
AcDbLine
 10
614.1755070700258
 20
299.6137583784825
 30
0.0
 11
613.3695367886633
 21
300.8077865623004
 31
0.0
  0
LINE
  5
186
330
1F
100
AcDbEntity
  8
0
100
AcDbLine
 10
613.3695367886633
 20
300.8077865623004
 30
0.0
 11
614.2312383442134
 21
302.0843839429385
 31
0.0
  0
LINE
  5
187
330
1F
100
AcDbEntity
  8
0
100
AcDbLine
 10
613.9440044923633
 20
305.5311920277841
 30
0.0
 11
613.3695367886633
 21
306.807787545777
 31
0.0
  0
LINE
  5
188
330
1F
100
AcDbEntity
  8
0
100
AcDbLine
 10
612.7950681536406
 20
305.5311920277841
 30
0.0
 11
613.3695367886633
 21
303.8077870540387
 31
0.0
  0
LINE
  5
189
330
1F
100
AcDbEntity
  8
0
100
AcDbLine
 10
613.3695367886633
 20
303.8077870540387
 30
0.0
 11
612.5078343017906
 21
302.0843839429385
 31
0.0
  0
LINE
  5
18A
330
1F
100
AcDbEntity
  8
0
100
AcDbLine
 10
612.5635665073007
 20
299.6137583784825
 30
0.0
 11
613.3695367886633
 21
298.80778809712
 31
0.0
  0
LINE
  5
18B
330
1F
100
AcDbEntity
  8
0
100
AcDbLine
 10
613.3695367886633
 20
297.8077879332072
 30
0.0
 11
612.0195362879842
 21
297.8077879332072
 31
0.0
  0
ARC
  5
18C
330
1F
100
AcDbEntity
  8
0
100
AcDbCircle
 10
613.3695365872377
 20
303.8077873918417
 30
0.0
 40
6.999999999999996
100
AcDbArc
 50
281.11957095345
 51
258.880429046548
  0
LINE
  5
18D
330
1F
100
AcDbEntity
  8
0
100
AcDbLine
 10
614.7195363580197
 20
297.8077879332072
 30
0.0
 11
614.7195363580197
 21
296.9391992472179
 31
0.0
  0
LINE
  5
18E
330
1F
100
AcDbEntity
  8
0
100
AcDbLine
 10
612.0195362879842
 20
296.9391992472179
 30
0.0
 11
612.0195362879842
 21
298.80778809712
 31
0.0
  0
CIRCLE
  5
18F
330
1F
100
AcDbEntity
  8
0
100
AcDbCircle
 10
613.3695365872377
 20
388.8077873918417
 30
0.0
 40
9.100000000000001
  0
CIRCLE
  5
190
330
1F
100
AcDbEntity
  8
0
100
AcDbCircle
 10
613.3695365872377
 20
388.8077873918417
 30
0.0
 40
11.49999999999996
  0
CIRCLE
  5
191
330
1F
100
AcDbEntity
  8
0
100
AcDbCircle
 10
613.3695365872377
 20
388.8077873918417
 30
0.0
 40
9.0
  0
LINE
  5
192
330
1F
100
AcDbEntity
  8
0
100
AcDbLine
 10
617.3695365129918
 20
392.8077904664046
 30
0.0
 11
617.3695365129918
 21
384.8077891551025
 31
0.0
  0
LINE
  5
193
330
1F
100
AcDbEntity
  8
0
100
AcDbLine
 10
609.3695370643347
 20
392.8077904664046
 30
0.0
 11
617.3695365129918
 21
392.8077904664046
 31
0.0
  0
LINE
  5
194
330
1F
100
AcDbEntity
  8
0
100
AcDbLine
 10
609.3695370643347
 20
384.8077891551025
 30
0.0
 11
609.3695370643347
 21
392.8077904664046
 31
0.0
  0
LINE
  5
195
330
1F
100
AcDbEntity
  8
0
100
AcDbLine
 10
617.3695365129918
 20
384.8077891551025
 30
0.0
 11
609.3695370643347
 21
384.8077891551025
 31
0.0
  0
LINE
  5
196
330
1F
100
AcDbEntity
  8
0
100
AcDbLine
 10
618.6195367178827
 20
284.3077866517074
 30
0.0
 11
618.6195367178827
 21
296.4976908795602
 31
0.0
  0
LINE
  5
197
330
1F
100
AcDbEntity
  8
0
100
AcDbLine
 10
618.6195367178827
 20
296.4976908795602
 30
0.0
 11
618.8695367588609
 21
296.6838846139676
 31
0.0
  0
LINE
  5
198
330
1F
100
AcDbEntity
  8
0
100
AcDbLine
 10
607.869535887143
 20
296.6838846139676
 30
0.0
 11
608.1195363937825
 21
296.4976908795602
 31
0.0
  0
LINE
  5
199
330
1F
100
AcDbEntity
  8
0
100
AcDbLine
 10
608.1195363937825
 20
296.4976908795602
 30
0.0
 11
608.1195363937825
 21
284.3077866517074
 31
0.0
  0
ARC
  5
19A
330
1F
100
AcDbEntity
  8
0
100
AcDbCircle
 10
613.3695365872377
 20
284.3077873918417
 30
0.0
 40
5.25
100
AcDbArc
 50
180.0
 51
270.0000000000013
  0
ARC
  5
19B
330
1F
100
AcDbEntity
  8
0
100
AcDbCircle
 10
613.3695365872377
 20
284.3077873918417
 30
0.0
 40
5.25
100
AcDbArc
 50
270.0000000000013
 51
0.0
  0
LINE
  5
19C
330
1F
100
AcDbEntity
  8
0
100
AcDbLine
 10
654.8695361404626
 20
356.8077882908351
 30
0.0
 11
648.8695370196311
 21
356.8077882908351
 31
0.0
  0
LINE
  5
19D
330
1F
100
AcDbEntity
  8
0
100
AcDbLine
 10
654.8695361404626
 20
330.8077877543933
 30
0.0
 11
654.8695361404626
 21
356.8077882908351
 31
0.0
  0
LINE
  5
19E
330
1F
100
AcDbEntity
  8
0
100
AcDbLine
 10
654.8695361404626
 20
330.8077877543933
 30
0.0
 11
648.8695370196311
 21
330.8077877543933
 31
0.0
  0
LINE
  5
19F
330
1F
100
AcDbEntity
  8
0
100
AcDbLine
 10
659.8695350973813
 20
356.8077882908351
 30
0.0
 11
659.8695350973813
 21
330.8077877543933
 31
0.0
  0
LINE
  5
1A0
330
1F
100
AcDbEntity
  8
0
100
AcDbLine
 10
654.8695361404626
 20
356.8077882908351
 30
0.0
 11
659.8695350973813
 21
356.8077882908351
 31
0.0
  0
LINE
  5
1A1
330
1F
100
AcDbEntity
  8
0
100
AcDbLine
 10
659.8695350973813
 20
330.8077877543933
 30
0.0
 11
654.8695361404626
 21
330.8077877543933
 31
0.0
  0
ARC
  5
1A2
330
1F
100
AcDbEntity
  8
0
100
AcDbCircle
 10
570.8695365872375
 20
253.3077873918417
 30
0.0
 40
2.0
100
AcDbArc
 50
180.0
 51
270.0
  0
LINE
  5
1A3
330
1F
100
AcDbEntity
  8
0
100
AcDbLine
 10
568.8695369451254
 20
253.3077908836372
 30
0.0
 11
568.8695369451254
 21
434.3077851615913
 31
0.0
  0
ARC
  5
1A4
330
1F
100
AcDbEntity
  8
0
100
AcDbCircle
 10
613.3695365872379
 20
303.8077873918417
 30
0.0
 40
8.999999999999991
100
AcDbArc
 50
307.6698869643304
 51
232.3301130356713
  0
LINE
  5
1A5
330
1F
100
AcDbEntity
  8
0
100
AcDbLine
 10
607.869535887143
 20
296.6838846139676
 30
0.0
 11
607.869535887143
 21
284.2077886842258
 31
0.0
  0
ARC
  5
1A6
330
1F
100
AcDbEntity
  8
0
100
AcDbCircle
 10
613.2695365872379
 20
284.2077873918416
 30
0.0
 40
5.399999999999977
100
AcDbArc
 50
180.0
 51
270.0000000000013
  0
LINE
  5
1A7
330
1F
100
AcDbEntity
  8
0
100
AcDbLine
 10
613.2695369585365
 20
278.8077866815097
 30
0.0
 11
613.46953661879
 21
278.8077866815097
 31
0.0
  0
ARC
  5
1A8
330
1F
100
AcDbEntity
  8
0
100
AcDbCircle
 10
613.4695365872378
 20
284.2077873918416
 30
0.0
 40
5.400000000000034
100
AcDbArc
 50
270.0000000000013
 51
0.0
  0
LINE
  5
1A9
330
1F
100
AcDbEntity
  8
0
100
AcDbLine
 10
618.8695367588609
 20
284.2077886842258
 30
0.0
 11
618.8695367588609
 21
296.6838846139676
 31
0.0
  0
LINE
  5
1AA
330
1F
100
AcDbEntity
  8
0
100
AcDbLine
 10
646.8695366918056
 20
251.3077868305213
 30
0.0
 11
570.869537272951
 21
251.3077868305213
 31
0.0
  0
ARC
  5
1AB
330
1F
100
AcDbEntity
  8
0
100
AcDbCircle
 10
570.8695365872377
 20
434.3077873918417
 30
0.0
 40
2.0
100
AcDbArc
 50
90.0
 51
180.0
  0
LINE
  5
1AC
330
1F
100
AcDbEntity
  8
0
100
AcDbLine
 10
570.869537272951
 20
436.3077892147071
 30
0.0
 11
646.8695366918056
 21
436.3077892147071
 31
0.0
  0
ARC
  5
1AD
330
1F
100
AcDbEntity
  8
0
100
AcDbCircle
 10
646.8695365872375
 20
253.3077873918416
 30
0.0
 40
2.0
100
AcDbArc
 50
270.0
 51
0.0
  0
LINE
  5
1AE
330
1F
100
AcDbEntity
  8
0
100
AcDbLine
 10
648.8695370196311
 20
434.3077851615913
 30
0.0
 11
648.8695370196311
 21
253.3077908836372
 31
0.0
  0
ARC
  5
1AF
330
1F
100
AcDbEntity
  8
0
100
AcDbCircle
 10
646.8695365872376
 20
434.3077873918416
 30
0.0
 40
2.0
100
AcDbArc
 50
0.0
 51
90.0
  0
ARC
  5
1B0
330
1F
100
AcDbEntity
  8
0
  6
Continuous
 62
     8
370
     0
100
AcDbCircle
 10
570.8695365872375
 20
253.3077873918417
 30
0.0
 40
0.5
100
AcDbArc
 50
180.0
 51
270.0
  0
LINE
  5
1B1
330
1F
100
AcDbEntity
  8
0
  6
Continuous
 62
     8
370
     0
100
AcDbLine
 10
570.869537272951
 20
252.8077898703582
 30
0.0
 11
570.869537272951
 21
251.3077868305213
 31
0.0
  0
LINE
  5
1B2
330
1F
100
AcDbEntity
  8
0
  6
Continuous
 62
     8
370
     0
100
AcDbLine
 10
568.8695369451254
 20
253.3077908836372
 30
0.0
 11
570.369536259672
 21
253.3077908836372
 31
0.0
  0
LINE
  5
1B3
330
1F
100
AcDbEntity
  8
0
  6
Continuous
 62
     8
370
     0
100
AcDbLine
 10
570.369536259672
 20
434.3077851615913
 30
0.0
 11
568.8695369451254
 21
434.3077851615913
 31
0.0
  0
LINE
  5
1B4
330
1F
100
AcDbEntity
  8
0
  6
Continuous
 62
     8
370
     0
100
AcDbLine
 10
570.369536259672
 20
434.3077851615913
 30
0.0
 11
570.369536259672
 21
253.3077908836372
 31
0.0
  0
LINE
  5
1B5
330
1F
100
AcDbEntity
  8
0
  6
Continuous
 62
     8
370
     0
100
AcDbLine
 10
646.8695366918056
 20
434.8077861748702
 30
0.0
 11
570.869537272951
 21
434.8077861748702
 31
0.0
  0
ARC
  5
1B6
330
1F
100
AcDbEntity
  8
0
  6
Continuous
 62
     8
370
     0
100
AcDbCircle
 10
646.8695365872376
 20
434.3077873918416
 30
0.0
 40
0.5000000000001137
100
AcDbArc
 50
0.0
 51
90.0
  0
LINE
  5
1B7
330
1F
100
AcDbEntity
  8
0
  6
Continuous
 62
     8
370
     0
100
AcDbLine
 10
647.3695358424394
 20
253.3077908836372
 30
0.0
 11
647.3695358424394
 21
434.3077851615913
 31
0.0
  0
ARC
  5
1B8
330
1F
100
AcDbEntity
  8
0
  6
Continuous
 62
     8
370
     0
100
AcDbCircle
 10
646.8695365872375
 20
253.3077873918416
 30
0.0
 40
0.5000000000001137
100
AcDbArc
 50
270.0
 51
0.0
  0
LINE
  5
1B9
330
1F
100
AcDbEntity
  8
0
  6
Continuous
 62
     8
370
     0
100
AcDbLine
 10
570.869537272951
 20
252.8077898703582
 30
0.0
 11
646.8695366918056
 21
252.8077898703582
 31
0.0
  0
ARC
  5
1BA
330
1F
100
AcDbEntity
  8
0
  6
Continuous
 62
     8
370
     0
100
AcDbCircle
 10
570.8695365872377
 20
434.3077873918417
 30
0.0
 40
0.5
100
AcDbArc
 50
90.0
 51
180.0
  0
LINE
  5
1BB
330
1F
100
AcDbEntity
  8
0
  6
Continuous
 62
     8
370
     0
100
AcDbLine
 10
646.8695366918056
 20
251.3077868305213
 30
0.0
 11
646.8695366918056
 21
252.8077898703582
 31
0.0
  0
LINE
  5
1BC
330
1F
100
AcDbEntity
  8
0
  6
Continuous
 62
     8
370
     0
100
AcDbLine
 10
570.869537272951
 20
436.3077892147071
 30
0.0
 11
570.869537272951
 21
434.8077861748702
 31
0.0
  0
LINE
  5
1BD
330
1F
100
AcDbEntity
  8
0
  6
Continuous
 62
     8
370
     0
100
AcDbLine
 10
646.8695366918056
 20
434.8077861748702
 30
0.0
 11
646.8695366918056
 21
436.3077892147071
 31
0.0
  0
LINE
  5
1BE
330
1F
100
AcDbEntity
  8
0
  6
Continuous
 62
     8
370
     0
100
AcDbLine
 10
647.3695358424394
 20
253.3077908836372
 30
0.0
 11
648.8695370196311
 21
253.3077908836372
 31
0.0
  0
LINE
  5
1BF
330
1F
100
AcDbEntity
  8
0
  6
Continuous
 62
     8
370
     0
100
AcDbLine
 10
648.8695370196311
 20
434.3077851615913
 30
0.0
 11
647.3695358424394
 21
434.3077851615913
 31
0.0
  0
LINE
  5
1C0
330
1F
100
AcDbEntity
  8
0
100
AcDbLine
 10
547.0431032703808
 20
32.75338295647175
 30
0.0
 11
546.6541945428355
 21
32.97789518600645
 31
0.0
  0
LINE
  5
1C1
330
1F
100
AcDbEntity
  8
0
100
AcDbLine
 10
542.0045724897238
 20
24.92364075637658
 30
0.0
 11
542.3934812172691
 21
24.69912852684187
 31
0.0
  0
LINE
  5
1C2
330
1F
100
AcDbEntity
  8
0
100
AcDbLine
 10
509.9356528432608
 20
43.08381669233285
 30
0.0
 11
515.7988556975705
 21
46.46857165359081
 31
0.0
  0
LINE
  5
1C3
330
1F
100
AcDbEntity
  8
0
100
AcDbLine
 10
507.2995469222827
 20
61.19140206977744
 30
0.0
 11
501.4363440679729
 21
57.80664710851947
 31
0.0
  0
LINE
  5
1C4
330
1F
100
AcDbEntity
  8
0
100
AcDbLine
 10
503.130088932368
 20
57.0524215938577
 30
0.0
 11
502.5398368069522
 21
56.71167629482274
 31
0.0
  0
LINE
  5
1C5
330
1F
100
AcDbEntity
  8
0
100
AcDbLine
 10
509.5392676599164
 20
44.58699276935975
 30
0.0
 11
510.1295197853323
 21
44.92773806839473
 31
0.0
  0
LINE
  5
1C6
330
1F
100
AcDbEntity
  8
0
100
AcDbLine
 10
508.0822211431197
 20
30.20848150170026
 30
0.0
 11
513.7809208964244
 21
33.49827084414802
 31
0.0
  0
LINE
  5
1C7
330
1F
100
AcDbEntity
  8
0
100
AcDbLine
 10
503.130088932368
 20
57.0524215938577
 30
0.0
 11
502.1862826998625
 21
56.50757385324248
 31
0.0
  0
LINE
  5
1C8
330
1F
100
AcDbEntity
  8
0
100
AcDbLine
 10
509.1857135528267
 20
44.38289032777951
 30
0.0
 11
510.1295197853323
 21
44.92773806839473
 31
0.0
  0
LINE
  5
1C9
330
1F
100
AcDbEntity
  8
0
100
AcDbLine
 10
504.3205279856472
 20
132.3416257268551
 30
0.0
 11
503.4012894145565
 21
131.8109605952893
 31
0.0
  0
LINE
  5
1CA
330
1F
100
AcDbEntity
  8
0
100
AcDbLine
 10
514.9003546930361
 20
111.8918398198002
 30
0.0
 11
515.819593264127
 21
112.422504951366
 31
0.0
  0
LINE
  5
1CB
330
1F
100
AcDbEntity
  8
0
100
AcDbLine
 10
548.9001917035386
 20
145.351092112674
 30
0.0
 11
550.2436946104469
 21
146.1266798319834
 31
0.0
  0
LINE
  5
1CC
330
1F
100
AcDbEntity
  8
0
100
AcDbLine
 10
496.3322513949153
 20
186.0211790000211
 30
0.0
 11
494.9887484880068
 21
185.2455912807117
 31
0.0
  0
LINE
  5
1CD
330
1F
100
AcDbEntity
  8
0
100
AcDbLine
 10
548.9001917035386
 20
6.130881398681268
 30
0.0
 11
550.2436946104469
 21
6.906469117990682
 31
0.0
  0
SPLINE
  5
1CE
330
1F
100
AcDbEntity
  8
0
100
AcDbSpline
210
0.0
220
0.0
230
1.0
 70
     8
 71
     3
 72
    11
 73
     7
 74
     0
 42
0.000000001
 43
0.00000001
 40
0.0
 40
0.0
 40
0.0
 40
0.0
 40
0.1799535003747418
 40
0.4572273243870795
 40
0.7138574601854296
 40
1.0
 40
1.0
 40
1.0
 40
1.0
 10
480.0948428069388
 20
179.2092441691036
 30
0.0
 10
479.9970343182873
 20
179.1567970945331
 30
0.0
 10
479.7485217110008
 20
179.0235391388509
 30
0.0
 10
479.4755782939588
 20
178.6670419336034
 30
0.0
 10
479.2635136176576
 20
178.2075464528292
 30
0.0
 10
479.2383792585216
 20
177.8750436649932
 30
0.0
 10
479.2251287584818
 20
177.6997526150166
 30
0.0
  0
LINE
  5
1CF
330
1F
100
AcDbEntity
  8
0
100
AcDbLine
 10
486.5134365806815
 20
182.9424042433116
 30
0.0
 11
480.0787651013209
 21
179.2277474669693
 31
0.0
  0
LINE
  5
1D0
330
1F
100
AcDbEntity
  8
0
100
AcDbLine
 10
479.2251287584818
 20
177.6997526150166
 30
0.0
 11
479.2251287584818
 21
29.90587033597988
 31
0.0
  0
SPLINE
  5
1D1
330
1F
100
AcDbEntity
  8
0
100
AcDbSpline
210
0.0
220
0.0
230
1.0
 70
     8
 71
     3
 72
    11
 73
     7
 74
     0
 42
0.000000001
 43
0.00000001
 40
0.0
 40
0.0
 40
0.0
 40
0.0
 40
0.3108739584313061
 40
0.587830051443595
 40
0.8679953300838286
 40
1.0
 40
1.0
 40
1.0
 40
1.0
 10
534.0688589459854
 20
-3.029085366580205
 30
0.0
 10
534.2409205882958
 20
-3.110572585647859
 30
0.0
 10
534.5662711083621
 20
-3.264656370659189
 30
0.0
 10
535.0992672857154
 20
-3.292556182502075
 30
0.0
 10
535.5263144145218
 20
-3.221855918062289
 30
0.0
 10
535.735608573799
 20
-3.080585342123314
 30
0.0
 10
535.8026387066544
 20
-3.035340957347088
 30
0.0
  0
LINE
  5
1D2
330
1F
100
AcDbEntity
  8
0
100
AcDbLine
 10
535.8187164122724
 20
-3.053838171509703
 30
0.0
 11
542.253387891633
 21
0.6608186048325209
 31
0.0
  0
LINE
  5
1D3
330
1F
100
AcDbEntity
  8
0
100
AcDbLine
 10
480.3287439867396
 20
27.99442264545682
 30
0.0
 11
534.0688589459854
 21
-3.029085366580205
 31
0.0
  0
SPLINE
  5
1D4
330
1F
100
AcDbEntity
  8
0
100
AcDbSpline
210
0.0
220
0.0
230
1.0
 70
     8
 71
     3
 72
    12
 73
     8
 74
     0
 42
0.000000001
 43
0.00000001
 40
0.0
 40
0.0
 40
0.0
 40
0.0
 40
0.2044589578063092
 40
0.4362912663270292
 40
0.6935448996754671
 40
0.9374085494759037
 40
1.0
 40
1.0
 40
1.0
 40
1.0
 10
479.2251287584818
 20
29.90587033597988
 30
0.0
 10
479.2359258027217
 20
29.74993460211428
 30
0.0
 10
479.2589654198388
 20
29.41718616436521
 30
0.0
 10
479.4496141111388
 20
28.91036474195508
 30
0.0
 10
479.7648140254518
 20
28.43418724101421
 30
0.0
 10
480.0887254998565
 20
28.14035823809026
 30
0.0
 10
480.2880360998562
 20
28.01917377889789
 30
0.0
 10
480.3287439867396
 20
27.99442264545682
 30
0.0
  0
SPLINE
  5
1D5
330
1F
100
AcDbEntity
  8
0
100
AcDbSpline
210
0.0
220
0.0
230
1.0
 70
     8
 71
     3
 72
    12
 73
     8
 74
     0
 42
0.000000001
 43
0.00000001
 40
0.0
 40
0.0
 40
0.0
 40
0.0
 40
0.2044590834065156
 40
0.4362910738243969
 40
0.6935454820762254
 40
0.9374085110256485
 40
1.0
 40
1.0
 40
1.0
 40
1.0
 10
557.1077369443763
 20
158.0651366643682
 30
0.0
 10
557.0969397911058
 20
158.2210723558094
 30
0.0
 10
557.0738999656495
 20
158.553820351804
 30
0.0
 10
556.883253391702
 20
159.0606426891664
 30
0.0
 10
556.5680508685064
 20
159.5368178846106
 30
0.0
 10
556.2441411014427
 20
159.8306483909335
 30
0.0
 10
556.0448309340945
 20
159.9518324754028
 30
0.0
 10
556.0041230332075
 20
159.9765835945519
 30
0.0
  0
LINE
  5
1D6
330
1F
100
AcDbEntity
  8
0
100
AcDbLine
 10
557.1077369443763
 20
10.27125438533145
 30
0.0
 11
557.1077369443763
 21
158.0651366643682
 31
0.0
  0
LINE
  5
1D7
330
1F
100
AcDbEntity
  8
0
100
AcDbLine
 10
556.0041230332075
 20
159.9765835945519
 30
0.0
 11
502.2640080739615
 21
191.0000916065889
 31
0.0
  0
LINE
  5
1D8
330
1F
100
AcDbEntity
  8
0
100
AcDbLine
 10
500.5141512662192
 20
191.0248447916881
 30
0.0
 11
495.2108501965859
 21
187.9633142506987
 31
0.0
  0
SPLINE
  5
1D9
330
1F
100
AcDbEntity
  8
0
100
AcDbSpline
210
0.0
220
0.0
230
1.0
 70
     8
 71
     3
 72
    11
 73
     7
 74
     0
 42
0.000000001
 43
0.00000001
 40
0.0
 40
0.0
 40
0.0
 40
0.0
 40
0.3095041513916042
 40
0.5852414157489401
 40
0.8641708286420828
 40
1.0
 40
1.0
 40
1.0
 40
1.0
 10
502.2640080739615
 20
191.0000916065889
 30
0.0
 10
502.0919526013573
 20
191.0815625413035
 30
0.0
 10
501.7666128993809
 20
191.2356159359362
 30
0.0
 10
501.2335359949244
 20
191.2636955700365
 30
0.0
 10
500.8040037748634
 20
191.1919912787171
 30
0.0
 10
500.5925718430686
 20
191.0489732179318
 30
0.0
 10
500.5233300595714
 20
191.0021362736868
 30
0.0
  0
LINE
  5
1DA
330
1F
100
AcDbEntity
  8
0
100
AcDbLine
 10
550.9508015075373
 20
5.681728612219601
 30
0.0
 11
556.2541025771707
 21
8.743259153209053
 31
0.0
  0
SPLINE
  5
1DB
330
1F
100
AcDbEntity
  8
0
100
AcDbSpline
210
0.0
220
0.0
230
1.0
 70
     8
 71
     3
 72
    11
 73
     7
 74
     0
 42
0.000000001
 43
0.00000001
 40
0.0
 40
0.0
 40
0.0
 40
0.0
 40
0.1763257023301497
 40
0.4548277956246059
 40
0.7125925108175472
 40
1.0
 40
1.0
 40
1.0
 40
1.0
 10
556.2449237838184
 20
8.765967671210333
 30
0.0
 10
556.3402866390572
 20
8.817198774562314
 30
0.0
 10
556.5862727696075
 20
8.949348140746949
 30
0.0
 10
556.8572160352561
 20
9.304053576857136
 30
0.0
 10
557.0693734585462
 20
9.763434625114598
 30
0.0
 10
557.094493823959
 20
10.09595440699849
 30
0.0
 10
557.1077369443763
 20
10.27125438533145
 30
0.0
  0
LINE
  5
1DC
330
1F
100
AcDbEntity
  8
0
100
AcDbLine
 10
543.7754601632828
 20
29.95682079248402
 30
0.0
 11
544.7346677350374
 21
29.33011124209081
 31
0.0
  0
ARC
  5
1DD
330
1F
100
AcDbEntity
  8
0
100
AcDbCircle
 10
547.2332930559323
 20
27.2739003368431
 30
0.0
 40
4.37660490389362
100
AcDbArc
 50
142.1922384430653
 51
155.7030515970276
  0
LINE
  5
1DE
330
1F
100
AcDbEntity
  8
0
100
AcDbLine
 10
544.2035527006433
 20
28.44801107778044
 30
0.0
 11
543.2443450877295
 21
29.07472364626463
 31
0.0
  0
LINE
  5
1DF
330
1F
100
AcDbEntity
  8
0
100
AcDbLine
 10
543.1813090427893
 20
26.75022558838333
 30
0.0
 11
544.2035527006433
 21
28.44801107778044
 31
0.0
  0
ARC
  5
1E0
330
1F
100
AcDbEntity
  8
0
100
AcDbCircle
 10
543.8792956033453
 20
27.27433856987882
 30
0.0
 40
0.8728571796628383
100
AcDbArc
 50
216.9026166500039
 51
256.7794505518744
  0
LINE
  5
1E1
330
1F
100
AcDbEntity
  8
0
100
AcDbLine
 10
544.7019168349303
 20
28.12240028874402
 30
0.0
 11
543.6796731359173
 21
26.42461477558629
 31
0.0
  0
LINE
  5
1E2
330
1F
100
AcDbEntity
  8
0
100
AcDbLine
 10
545.6611244066852
 20
27.4956907383508
 30
0.0
 11
544.7019168349303
 21
28.12240028874402
 31
0.0
  0
ARC
  5
1E3
330
1F
100
AcDbEntity
  8
0
100
AcDbCircle
 10
542.2032934099593
 20
30.17861005244566
 30
0.0
 40
4.376602706193631
100
AcDbArc
 50
322.1922350350598
 51
335.7030550050549
  0
LINE
  5
1E4
330
1F
100
AcDbEntity
  8
0
100
AcDbLine
 10
545.2330318693247
 20
29.00449741120282
 30
0.0
 11
546.1922394822383
 21
28.37778788457021
 31
0.0
  0
LINE
  5
1E5
330
1F
100
AcDbEntity
  8
0
100
AcDbLine
 10
546.2552755271786
 20
30.7022859424515
 30
0.0
 11
545.2330318693247
 21
29.00449741120282
 31
0.0
  0
ARC
  5
1E6
330
1F
100
AcDbEntity
  8
0
100
AcDbCircle
 10
545.5572887106193
 20
30.1781725691299
 30
0.0
 40
0.8728576196522897
100
AcDbArc
 50
36.90262712691159
 51
76.77944007497581
  0
LINE
  5
1E7
330
1F
100
AcDbEntity
  8
0
100
AcDbLine
 10
544.7346677350374
 20
29.33011124209081
 30
0.0
 11
545.7569114340505
 21
31.02789675524852
 31
0.0
  0
LWPOLYLINE
  5
1E8
330
1F
100
AcDbEntity
  8
0
100
AcDbPolyline
 90
       31
 70
   128
 43
0.0
 10
546.9681885642417
 20
27.25625697958064
 10
546.4205022039619
 20
26.46041480045835
 10
545.7984210995909
 20
25.7636008296648
 10
545.1291331576004
 20
25.19626937531575
 10
544.4418895069776
 20
24.7832155688087
 10
543.7667259697914
 20
24.54249051441266
 10
543.1331505061012
 20
24.48461923252978
 10
542.5688532661061
 20
24.61212367159013
 10
542.0984967416302
 20
24.91943873138612
 10
541.7426380580349
 20
25.39312662461687
 10
541.5168297316927
 20
26.01248932401004
 10
541.4309403813281
 20
26.75045703683426
 10
541.4887243691811
 20
27.57477855982152
 10
541.6876558477912
 20
28.44942206738465
 10
542.0190407125642
 20
29.33616674994377
 10
542.4683959234081
 20
30.19625450373297
 10
543.0160823660061
 20
30.99209673037647
 10
543.6381634292179
 20
31.68891067740941
 10
544.3074514323039
 20
32.25624216702813
 10
544.9946950629903
 20
32.66929596202613
 10
545.6698586001764
 20
32.91001797457061
 10
546.3034341461848
 20
32.96789234582626
 10
546.8677313861799
 20
32.84038790676591
 10
547.3380877460195
 20
32.53307275192751
 10
547.693946594251
 20
32.05938495373917
 10
547.9197549205933
 20
31.44002225434599
 10
548.0056439416855
 20
30.70205435143696
 10
547.9478602831049
 20
29.87773301853451
 10
547.7489286398586
 20
29.00308941592897
 10
547.4175437750856
 20
28.11634473336986
 10
546.9681885642417
 20
27.25625697958064
  0
ARC
  5
1E9
330
1F
100
AcDbEntity
  8
0
100
AcDbCircle
 10
545.8106180809112
 20
31.46568019937089
 30
0.0
 40
1.731593316260468
100
AcDbArc
 50
60.84540303014526
 51
94.45647203790791
  0
ARC
  5
1EA
330
1F
100
AcDbEntity
  8
0
100
AcDbCircle
 10
542.9208015527572
 20
26.43640642231948
 30
0.0
 40
1.768597086959811
100
AcDbArc
 50
205.9105435041138
 51
238.7981818998627
  0
LINE
  5
1EB
330
1F
100
AcDbEntity
  8
0
100
AcDbLine
 10
543.7367133389075
 20
29.9062180521984
 30
0.0
 11
544.7346677350374
 21
29.33011124209081
 31
0.0
  0
LINE
  5
1EC
330
1F
100
AcDbEntity
  8
0
100
AcDbLine
 10
543.6796731359173
 20
26.42461477558629
 30
0.0
 11
543.3575814042869
 21
27.04298699250903
 31
0.0
  0
LINE
  5
1ED
330
1F
100
AcDbEntity
  8
0
100
AcDbLine
 10
545.5507977044002
 20
30.68557468233539
 30
0.0
 11
546.2552755271786
 21
30.7022859424515
 31
0.0
  0
LINE
  5
1EE
330
1F
100
AcDbEntity
  8
0
100
AcDbLine
 10
544.1866136599681
 20
28.41987847964846
 30
0.0
 11
544.7019168349303
 21
28.12240028874402
 31
0.0
  0
LINE
  5
1EF
330
1F
100
AcDbEntity
  8
0
100
AcDbLine
 10
543.7169135808895
 20
29.87973386918453
 30
0.0
 11
545.2330318693247
 21
29.00449741120282
 31
0.0
  0
LINE
  5
1F0
330
1F
100
AcDbEntity
  8
0
100
AcDbLine
 10
546.1922394822383
 20
28.37778788457021
 30
0.0
 11
543.7138556706258
 21
29.85759859666348
 31
0.0
  0
LINE
  5
1F1
330
1F
100
AcDbEntity
  8
0
100
AcDbLine
 10
504.6743593399748
 20
31.14646913597484
 30
0.0
 11
506.6976372419865
 21
29.97845566500926
 31
0.0
  0
ARC
  5
1F2
330
1F
100
AcDbEntity
  8
0
100
AcDbCircle
 10
510.7341708333645
 20
37.24120339334813
 30
0.0
 40
8.594597198439075
100
AcDbArc
 50
182.8847036903715
 51
225.1646233039133
  0
LINE
  5
1F3
330
1F
100
AcDbEntity
  8
0
100
AcDbLine
 10
502.1504644640733
 20
36.80866903724767
 30
0.0
 11
502.1504644640733
 21
46.87346232306768
 31
0.0
  0
LWPOLYLINE
  5
1F4
330
1F
100
AcDbEntity
  8
0
100
AcDbPolyline
 90
       34
 70
   128
 43
0.0
 10
502.1504644640733
 20
46.87346232306768
 10
501.4540444272585
 20
47.95979198079212
 10
500.8555789347389
 20
49.10365072206137
 10
500.3689198116958
 20
50.27856128922657
 10
500.0053294863045
 20
51.45732982562406
 10
499.773226791555
 20
52.61267171268274
 10
499.6779814993655
 20
53.71784729762163
 10
499.7217984167486
 20
54.74727329473878
 10
499.9036647022511
 20
55.67712202522598
 10
500.219370939378
 20
56.48587351520533
 10
500.6616072840907
 20
57.15480752424148
 10
501.2201412718241
 20
57.66843854679972
 10
501.8820417226195
 20
58.01488085544344
 10
502.6319895741323
 20
58.18611393154954
 10
503.4526255931318
 20
58.17817565550973
 10
504.3249560389189
 20
57.99124827710185
 10
505.228789936879
 20
57.62965921698346
 10
506.1432059865379
 20
57.10177806778159
 10
507.0470398844978
 20
56.41982272178255
 10
507.9193703302851
 20
55.59957880572837
 10
508.7400070078291
 20
54.66003052187205
 10
509.4899548593418
 20
53.62292608699947
 10
510.1518556394095
 20
52.51226959453481
 10
510.7103883100539
 20
51.35376971651459
 10
511.1526256425833
 20
50.17423992194344
 10
511.4683312211657
 20
49.0009821494895
 10
511.6501975066683
 20
47.86115507527578
 10
511.6940150825959
 20
46.78113876201547
 10
511.5987697904064
 20
45.78593105070662
 10
511.3666664371125
 20
44.89856961105923
 10
511.0030767702656
 20
44.13959314865532
 10
510.5164169886779
 20
43.52656762507408
 10
509.9179514961585
 20
43.07368243368219
 10
509.2215321178882
 20
42.79142185519487
  0
LINE
  5
1F5
330
1F
100
AcDbEntity
  8
0
100
AcDbLine
 10
509.2215321178882
 20
42.79142185519487
 30
0.0
 11
509.2215321178882
 21
32.72662856937484
 31
0.0
  0
LWPOLYLINE
  5
1F6
330
1F
100
AcDbEntity
  8
0
100
AcDbPolyline
 90
        9
 70
   128
 43
0.0
 10
506.6976372419865
 20
29.97845566500926
 10
507.2316470322427
 20
29.95630405870232
 10
507.7221402014113
 20
30.04906952121405
 10
508.1578780289192
 20
30.25462854605094
 10
508.5288763214809
 20
30.56827179037417
 10
508.8266352451318
 20
30.9828117020645
 10
509.0443309616801
 20
31.48875174069748
 10
509.1769766428392
 20
32.0744976112199
 10
509.2215321178882
 20
32.72662856937484
  0
LWPOLYLINE
  5
1F7
330
1F
100
AcDbEntity
  8
0
100
AcDbPolyline
 90
       39
 70
   128
 43
0.0
 10
500.5594736163476
 20
53.40471131560609
 10
500.6293926038492
 20
52.38996075707712
 10
500.8372437385477
 20
51.3221633638431
 10
501.1773543180515
 20
50.23044509281274
 10
501.640450718599
 20
49.14458556109548
 10
502.2138981052602
 20
48.09420589412645
 10
502.8820547288814
 20
47.10795430315486
 10
503.6266973458378
 20
46.21273577625357
 10
504.4275111751471
 20
45.43296839158576
 10
505.262652954024
 20
44.78992214775427
 10
506.1093429693929
 20
44.30113840593631
 10
506.9444854068142
 20
43.97995009600837
 10
507.7452992361235
 20
43.83511751401934
 10
508.4899411945354
 20
43.870590355762
 10
509.1580984767012
 20
44.08540434943373
 10
509.7315461926346
 20
44.47369556662379
 10
510.1946416053653
 20
45.02487594550126
 10
510.5347531726858
 20
45.72391032968153
 10
510.7426033195676
 20
46.55172848116104
 10
510.8125223070691
 20
47.48575229503781
 10
510.7426033195676
 20
48.5005028535668
 10
510.5347531726858
 20
49.56830119747211
 10
510.1946416053653
 20
50.66001851783116
 10
509.7315461926346
 20
51.74587747929395
 10
509.1580984767012
 20
52.7962580968107
 10
508.4899411945354
 20
53.78250930748906
 10
507.7452992361235
 20
54.67772821468358
 10
506.9444854068142
 20
55.45749559935139
 10
506.1093429693929
 20
56.10054146288964
 10
505.262652954024
 20
56.58932520470761
 10
504.4275111751471
 20
56.91051389492878
 10
503.6266973458378
 20
57.05534647691782
 10
502.8820547288814
 20
57.01987325488192
 10
502.2138981052602
 20
56.80505964150341
 10
501.640450718599
 20
56.41676747376565
 10
501.1773543180515
 20
55.86558766514266
 10
500.8372437385477
 20
55.16655423163367
 10
500.6293926038492
 20
54.33873512948287
 10
500.5594736163476
 20
53.40471131560609
  0
LWPOLYLINE
  5
1F8
330
1F
100
AcDbEntity
  8
0
100
AcDbPolyline
 90
        3
 70
   128
 43
0.0
 10
509.6561214437741
 20
44.65444994955618
 10
509.9041549887162
 20
44.68699860140443
 10
509.948193177054
 20
44.69517618879946
  0
LINE
  5
1F9
330
1F
100
AcDbEntity
  8
0
100
AcDbLine
 10
502.8380165405437
 20
57.01169718979212
 30
0.0
 11
502.6566902615376
 21
56.77913442556688
 31
0.0
  0
LWPOLYLINE
  5
1FA
330
1F
100
AcDbEntity
  8
0
100
AcDbPolyline
 90
       34
 70
   128
 43
0.0
 10
506.6405921410716
 20
44.70237577619557
 10
507.4203806198744
 20
44.52886378547367
 10
508.1455336121171
 20
44.54172547628755
 10
508.7932075259065
 20
44.74055413889371
 10
509.3430009816577
 20
45.11908905925684
 10
509.7775939295385
 20
45.66540322323856
 10
510.0832962170447
 20
46.36228930298859
 10
510.250477947836
 20
47.18779297192901
 10
510.2738724122098
 20
48.11590951718765
 10
510.1527430281341
 20
49.11740306391205
 10
509.8909054024879
 20
50.16072616709094
 10
509.4966078052338
 20
51.21300973290717
 10
508.9822710443369
 20
52.24110825057352
 10
508.364097290327
 20
53.21263398515936
 10
507.6615600335775
 20
54.09698298428786
 10
506.896789662279
 20
54.86629738627153
 10
506.0938783687119
 20
55.49634273895023
 10
505.2781182132495
 20
55.9672710527077
 10
504.4752062611377
 20
56.26424772754073
 10
503.7104365483839
 20
56.3779180212227
 10
503.0078986330899
 20
56.3047016534714
 10
502.3897255376245
 20
56.04690376296325
 10
501.8753877889109
 20
55.61264639943072
 10
501.4810908502013
 20
55.01560876904411
 10
501.2192535538273
 20
54.27459676347479
 10
501.0981235112071
 20
53.41295660691894
 10
501.1215189633976
 20
52.45782881777816
 10
501.2886997063722
 20
51.4393018013502
 10
501.5944026524229
 20
50.38945899316305
 10
502.0289959295759
 20
49.34137430195527
 10
502.5787883975103
 20
48.32806193946618
 10
503.2264629698443
 20
47.38144451295237
 10
503.951615962087
 20
46.53133899853103
 10
504.7314037823453
 20
45.80452675574497
  0
LINE
  5
1FB
330
1F
100
AcDbEntity
  8
0
100
AcDbLine
 10
504.7314037823453
 20
45.80452675574497
 30
0.0
 11
505.084957889435
 21
45.59192747238686
 31
0.0
  0
ARC
  5
1FC
330
1F
100
AcDbEntity
  8
0
100
AcDbCircle
 10
503.7800805421847
 20
54.52908948977864
 30
0.0
 40
2.510356485508805
100
AcDbArc
 50
89.67056683392084
 51
119.6071812382013
  0
ARC
  5
1FD
330
1F
100
AcDbEntity
  8
0
100
AcDbCircle
 10
508.2421677121232
 20
46.77940297092792
 30
0.0
 40
2.547377232862312
100
AcDbArc
 50
300.6099155238574
 51
330.1015062167232
  0
LINE
  5
1FE
330
1F
100
AcDbEntity
  8
0
100
AcDbLine
 10
505.6859982909807
 20
45.93890071066612
 30
0.0
 11
505.084957889435
 21
45.59192747238686
 31
0.0
  0
LINE
  5
1FF
330
1F
100
AcDbEntity
  8
0
100
AcDbLine
 10
505.6859982909807
 20
45.5459874617996
 30
0.0
 11
506.6405921410716
 21
44.99491216210973
 31
0.0
  0
LINE
  5
200
330
1F
100
AcDbEntity
  8
0
100
AcDbLine
 10
505.6859982909807
 20
46.36252840752681
 30
0.0
 11
505.6859982909807
 21
45.5459874617996
 31
0.0
  0
LINE
  5
201
330
1F
100
AcDbEntity
  8
0
100
AcDbLine
 10
506.393105188071
 20
46.77086523043283
 30
0.0
 11
505.6859982909807
 21
46.36252840752681
 31
0.0
  0
LINE
  5
202
330
1F
100
AcDbEntity
  8
0
100
AcDbLine
 10
506.393105188071
 20
48.40394560096148
 30
0.0
 11
506.393105188071
 21
46.77086523043283
 31
0.0
  0
LINE
  5
203
330
1F
100
AcDbEntity
  8
0
100
AcDbLine
 10
505.6859982909807
 20
50.44523161523713
 30
0.0
 11
506.393105188071
 21
48.40394560096148
 31
0.0
  0
LINE
  5
204
330
1F
100
AcDbEntity
  8
0
100
AcDbLine
 10
506.393105188071
 20
52.48665032959758
 30
0.0
 11
505.6859982909807
 21
50.44523161523713
 31
0.0
  0
LINE
  5
205
330
1F
100
AcDbEntity
  8
0
100
AcDbLine
 10
505.6859982909807
 20
52.89485445241878
 30
0.0
 11
506.393105188071
 21
52.48665032959758
 31
0.0
  0
LINE
  5
206
330
1F
100
AcDbEntity
  8
0
100
AcDbLine
 10
504.7314037823453
 20
50.99630729509666
 30
0.0
 11
505.6859982909807
 21
52.89485445241878
 31
0.0
  0
LINE
  5
207
330
1F
100
AcDbEntity
  8
0
100
AcDbLine
 10
504.7314037823453
 20
50.17976634936944
 30
0.0
 11
504.7314037823453
 21
50.99630729509666
 31
0.0
  0
LINE
  5
208
330
1F
100
AcDbEntity
  8
0
100
AcDbLine
 10
505.6859982909807
 20
47.99560877805547
 30
0.0
 11
504.7314037823453
 21
50.17976634936944
 31
0.0
  0
LINE
  5
209
330
1F
100
AcDbEntity
  8
0
100
AcDbLine
 10
504.7314037823453
 20
46.91360408738636
 30
0.0
 11
505.6859982909807
 21
47.99560877805547
 31
0.0
  0
LINE
  5
20A
330
1F
100
AcDbEntity
  8
0
100
AcDbLine
 10
504.7314037823453
 20
45.80452675574497
 30
0.0
 11
504.7314037823453
 21
46.91360408738636
 31
0.0
  0
LINE
  5
20B
330
1F
100
AcDbEntity
  8
0
100
AcDbLine
 10
506.6405921410716
 20
44.99491216210973
 30
0.0
 11
506.6405921410716
 21
44.70237577619557
 31
0.0
  0
LINE
  5
20C
330
1F
100
AcDbEntity
  8
0
100
AcDbLine
 10
504.7314037823453
 20
50.99630729509666
 30
0.0
 11
506.1456175765261
 21
51.81271554073909
 31
0.0
  0
LINE
  5
20D
330
1F
100
AcDbEntity
  8
0
100
AcDbLine
 10
506.1456175765261
 20
51.81271554073909
 30
0.0
 11
506.1907792417945
 21
51.90253424816444
 31
0.0
  0
LINE
  5
20E
330
1F
100
AcDbEntity
  8
0
100
AcDbLine
 10
505.8096545103336
 20
50.80222724518437
 30
0.0
 11
504.7314037823453
 21
50.17976634936944
 31
0.0
  0
LINE
  5
20F
330
1F
100
AcDbEntity
  8
0
100
AcDbLine
 10
505.6859982909807
 20
47.99560877805547
 30
0.0
 11
506.393105188071
 21
48.40381290087669
 31
0.0
  0
LINE
  5
210
330
1F
100
AcDbEntity
  8
0
100
AcDbLine
 10
506.1456175765261
 20
51.77215397104804
 30
0.0
 11
506.1456175765261
 21
51.81271554073909
 31
0.0
  0
LINE
  5
211
330
1F
100
AcDbEntity
  8
0
100
AcDbLine
 10
504.7314037823453
 20
46.91360408738636
 30
0.0
 11
506.1456175765261
 21
47.73001233302878
 31
0.0
  0
LINE
  5
212
330
1F
100
AcDbEntity
  8
0
100
AcDbLine
 10
506.1456175765261
 20
47.73001233302878
 30
0.0
 11
506.393105188071
 21
48.01053153251988
 31
0.0
  0
LINE
  5
213
330
1F
100
AcDbEntity
  8
0
100
AcDbLine
 10
506.1456175765261
 20
46.62794646924431
 30
0.0
 11
506.1456175765261
 21
47.73001233302878
 31
0.0
  0
LINE
  5
214
330
1F
100
AcDbEntity
  8
0
100
AcDbLine
 10
504.7314037823453
 20
45.38782503080658
 30
0.0
 11
504.7314037823453
 21
46.91360408738636
 31
0.0
  0
LWPOLYLINE
  5
215
330
1F
100
AcDbEntity
  8
0
100
AcDbPolyline
 90
       36
 70
   128
 43
0.0
 10
506.6405921410716
 20
44.28567405125717
 10
507.4412551636884
 20
44.087613995742
 10
508.1922415398902
 20
44.06948468498885
 10
508.8722980627707
 20
44.23179857788899
 10
509.4621764641785
 20
44.56996238349616
 10
509.9451832993802
 20
45.07440525062097
 10
510.307648830752
 20
45.73085105754281
 10
510.5393142519482
 20
46.52072149367675
 10
510.6336230938474
 20
47.421661376659
 10
510.5879066048309
 20
48.40817384637177
 10
510.4034584955849
 20
49.45233767857876
 10
510.0854990484239
 20
50.52460139493166
 10
509.6430266155052
 20
51.59461956810044
 10
509.0885640791922
 20
52.63210793850391
 10
508.4378042258385
 20
53.60770365467985
 10
507.709162923337
 20
54.49379812833986
 10
506.9232638100445
 20
55.26531056689213
 10
506.1023479096291
 20
55.90040750605455
 10
505.2696486723323
 20
56.38111454360899
 10
504.4487327719169
 20
56.6938269283775
 10
503.6628330000798
 20
56.82969467208025
 10
502.9341916975784
 20
56.78487153932437
 10
502.2834325027691
 20
56.56062677669831
 10
501.728969637184
 20
56.16330741443002
 10
501.2864975335375
 20
55.60415684809766
 10
500.9685377571042
 20
54.89900148540465
 10
500.7840899771304
 20
54.0677967170832
 10
500.7383725002973
 20
53.13406795232265
 10
500.8326826592854
 20
52.12424063786224
 10
501.0643480804816
 20
51.06689499978494
 10
501.4268122947643
 20
49.99195615857148
 10
501.9098204470553
 20
48.92984470947664
 10
502.4996985191907
 20
47.91062198843974
 10
503.1797550420711
 20
46.96313154717454
 10
503.9307407597283
 20
46.11419082424747
 10
504.7314037823453
 20
45.38782503080658
  0
LINE
  5
216
330
1F
100
AcDbEntity
  8
0
100
AcDbLine
 10
506.6405921410716
 20
44.99491216210973
 30
0.0
 11
506.6405921410716
 21
44.28567405125717
 31
0.0
  0
LINE
  5
217
330
1F
100
AcDbEntity
  8
0
100
AcDbLine
 10
504.7314037823453
 20
45.38782503080658
 30
0.0
 11
505.6859982909807
 21
45.93890071066612
 31
0.0
  0
LINE
  5
218
330
1F
100
AcDbEntity
  8
0
100
AcDbLine
 10
546.1182492902705
 20
21.59037400554185
 30
0.0
 11
545.4359253883592
 21
20.02736244533008
 31
0.0
  0
ARC
  5
219
330
1F
100
AcDbEntity
  8
0
100
AcDbCircle
 10
545.6556896167732
 20
20.85201048088258
 30
0.0
 40
0.8712876368302074
100
AcDbArc
 50
57.93425359277417
 51
99.33987533029622
  0
LINE
  5
21A
330
1F
100
AcDbEntity
  8
0
100
AcDbLine
 10
544.8319639406201
 20
20.14873591047542
 30
0.0
 11
545.5142878322415
 21
21.71174746474703
 31
0.0
  0
LINE
  5
21B
330
1F
100
AcDbEntity
  8
0
100
AcDbLine
 10
543.8195363002478
 20
20.35219860144397
 30
0.0
 11
544.8319639406201
 21
20.14873591047542
 31
0.0
  0
ARC
  5
21C
330
1F
100
AcDbEntity
  8
0
100
AcDbCircle
 10
547.0685987848126
 20
18.37878806218857
 30
0.0
 40
3.801415024047036
100
AcDbArc
 50
148.726406472591
 51
164.1067908826788
  0
LINE
  5
21D
330
1F
100
AcDbEntity
  8
0
100
AcDbLine
 10
544.4249251534977
 20
19.21632777724959
 30
0.0
 11
543.4124975131256
 21
19.4197874263666
 31
0.0
  0
LINE
  5
21E
330
1F
100
AcDbEntity
  8
0
100
AcDbLine
 10
543.7426013441944
 20
17.65331627049919
 30
0.0
 11
544.4249251534977
 21
19.21632777724959
 31
0.0
  0
ARC
  5
21F
330
1F
100
AcDbEntity
  8
0
100
AcDbCircle
 10
544.2051608248432
 20
18.39167859482449
 30
0.0
 40
0.8712865172382988
100
AcDbArc
 50
237.9342224343613
 51
279.3398948054798
  0
LINE
  5
220
330
1F
100
AcDbEntity
  8
0
100
AcDbLine
 10
545.0288865909472
 20
19.09495126431254
 30
0.0
 11
544.3465627199051
 21
17.5319427637728
 31
0.0
  0
LINE
  5
221
330
1F
100
AcDbEntity
  8
0
100
AcDbLine
 10
546.0413141695808
 20
18.89149157955463
 30
0.0
 11
545.0288865909472
 21
19.09495126431254
 31
0.0
  0
ARC
  5
222
330
1F
100
AcDbEntity
  8
0
100
AcDbCircle
 10
542.7923046879293
 20
20.86487898069009
 30
0.0
 40
3.801357710979233
100
AcDbArc
 50
328.7262898262575
 51
344.1069075290154
  0
LINE
  5
223
330
1F
100
AcDbEntity
  8
0
100
AcDbLine
 10
545.4359253883592
 20
20.02736244533008
 30
0.0
 11
546.448352956703
 21
19.82390275463202
 31
0.0
  0
LWPOLYLINE
  5
224
330
1F
100
AcDbEntity
  8
0
100
AcDbPolyline
 90
       30
 70
   128
 43
0.0
 10
543.2706554225485
 20
15.8197803405458
 10
542.7800402580098
 20
16.01506486250444
 10
542.3899747970363
 20
16.37899721568181
 10
542.118697923685
 20
16.89456251780678
 10
541.9788941929963
 20
17.53765195441827
 10
541.9771009763011
 20
18.27819582914466
 10
542.1134019087517
 20
19.0815683575445
 10
542.3814235966001
 20
19.91020098943902
 10
542.7686337732232
 20
20.72535150279376
 10
543.2569270744629
 20
21.48890529522709
 10
543.823471103683
 20
22.16515659388595
 10
544.4417751671874
 20
22.72248398761499
 10
545.0829279674637
 20
23.13482843680021
 10
545.7169498831713
 20
23.38291195461483
 10
546.3141947634452
 20
23.45513201748918
 10
546.8467361640846
 20
23.34810934854895
 10
547.2896730355177
 20
23.06685459788082
 10
547.6222939883322
 20
22.62451269398976
 10
547.829046176883
 20
22.04176930665702
 10
547.900262167793
 20
21.34587120747405
 10
547.8326118661215
 20
20.56936319363242
 10
547.6292584257764
 20
19.74854766065023
 10
547.2997107355445
 20
18.9218085560017
 10
546.859377749096
 20
18.12780275500678
 10
546.3288491074272
 20
17.40365464684213
 10
545.7329317294043
 20
16.78322885724801
 10
545.0994900325671
 20
16.29553295752184
 10
544.4581430439791
 20
15.96337216156683
 10
543.8388795634447
 20
15.80227610999334
 10
543.2706554225485
 20
15.8197803405458
  0
LINE
  5
225
330
1F
100
AcDbEntity
  8
0
100
AcDbLine
 10
544.4249251534977
 20
19.21632777724959
 30
0.0
 11
543.5187481541784
 21
19.73945262393127
 31
0.0
  0
LINE
  5
226
330
1F
100
AcDbEntity
  8
0
100
AcDbLine
 10
545.4454807559827
 20
21.55412877061079
 30
0.0
 11
546.1182492902705
 21
21.59037400554185
 31
0.0
  0
LINE
  5
227
330
1F
100
AcDbEntity
  8
0
100
AcDbLine
 10
544.3465627199051
 20
17.5319427637728
 30
0.0
 11
543.9733466963949
 21
18.18188625252402
 31
0.0
  0
LINE
  5
228
330
1F
100
AcDbEntity
  8
0
100
AcDbLine
 10
544.9112129294668
 20
20.33027250022687
 30
0.0
 11
545.4359253883592
 21
20.02736244533008
 31
0.0
  0
LINE
  5
229
330
1F
100
AcDbEntity
  8
0
100
AcDbLine
 10
545.0288865909472
 20
19.09495126431254
 30
0.0
 11
543.5949625596425
 21
19.9227379876489
 31
0.0
  0
LINE
  5
22A
330
1F
100
AcDbEntity
  8
0
100
AcDbLine
 10
546.0413141695808
 20
18.89149157955463
 30
0.0
 11
543.6552437920012
 21
19.99963198523023
 31
0.0
  0
LINE
  5
22B
330
1F
100
AcDbEntity
  8
0
100
AcDbLine
 10
543.7891869473252
 20
131.9407171533981
 30
0.0
 11
544.4293913200329
 21
133.5107599073372
 31
0.0
  0
ARC
  5
22C
330
1F
100
AcDbEntity
  8
0
100
AcDbCircle
 10
544.2127087322435
 20
132.7467183340679
 30
0.0
 40
0.9104990969471302
100
AcDbArc
 50
242.2798472790134
 51
282.4720086082506
  0
LINE
  5
22D
330
1F
100
AcDbEntity
  8
0
100
AcDbLine
 10
545.0495467991034
 20
133.4277482377139
 30
0.0
 11
544.4093425087138
 21
131.8577055312959
 31
0.0
  0
LINE
  5
22E
330
1F
100
AcDbEntity
  8
0
100
AcDbLine
 10
546.0891207142295
 20
133.2886020478141
 30
0.0
 11
545.0495467991034
 21
133.4277482377139
 31
0.0
  0
ARC
  5
22F
330
1F
100
AcDbEntity
  8
0
100
AcDbCircle
 10
542.852854133104
 20
135.1543983114187
 30
0.0
 40
3.735587916431721
100
AcDbArc
 50
330.0353740486486
 51
345.5970067090938
  0
LINE
  5
230
330
1F
100
AcDbEntity
  8
0
100
AcDbLine
 10
545.4314592732729
 20
134.3643586463457
 30
0.0
 11
546.47103314724
 21
134.2252063489822
 31
0.0
  0
LINE
  5
231
330
1F
100
AcDbEntity
  8
0
100
AcDbLine
 10
546.0716636048215
 20
135.9344013765242
 30
0.0
 11
545.4314592732729
 21
134.3643586463457
 31
0.0
  0
ARC
  5
232
330
1F
100
AcDbEntity
  8
0
100
AcDbCircle
 10
545.6481418464768
 20
135.1284005121042
 30
0.0
 40
0.9104988046325125
100
AcDbArc
 50
62.27983950232613
 51
102.4720123999684
  0
LINE
  5
233
330
1F
100
AcDbEntity
  8
0
100
AcDbLine
 10
544.8113037530434
 20
134.4473642085053
 30
0.0
 11
545.4515080743023
 21
136.0174130164469
 31
0.0
  0
LINE
  5
234
330
1F
100
AcDbEntity
  8
0
100
AcDbLine
 10
543.7717299202353
 20
134.5865165296294
 30
0.0
 11
544.8113037530434
 21
134.4473642085053
 31
0.0
  0
ARC
  5
235
330
1F
100
AcDbEntity
  8
0
100
AcDbCircle
 10
547.00799147506
 20
132.7207220447077
 30
0.0
 40
3.735582673586577
100
AcDbArc
 50
150.0353591781627
 51
165.5970149767748
  0
LINE
  5
236
330
1F
100
AcDbEntity
  8
0
100
AcDbLine
 10
544.4293913200329
 20
133.5107599073372
 30
0.0
 11
543.3898174049068
 21
133.6499121809401
 31
0.0
  0
LWPOLYLINE
  5
237
330
1F
100
AcDbEntity
  8
0
100
AcDbPolyline
 90
       30
 70
   128
 43
0.0
 10
546.4877382811379
 20
137.7567300940669
 10
546.994944075148
 20
137.5946735345544
 10
547.4056153937764
 20
137.261614801711
 10
547.7005494907603
 20
136.7731271731951
 10
547.8659557855581
 20
136.1520513052629
 10
547.8940998375596
 20
135.4274312372281
 10
547.7836657102018
 20
134.6331418170002
 10
547.5398172156079
 20
133.8063301266413
 10
547.1739565580253
 20
132.9856578851568
 10
546.703190912774
 20
132.2094908364033
 10
546.1495326239416
 20
131.5141290368737
 10
545.5388702285898
 20
130.9320812718327
 10
544.8997576403582
 20
130.4905630170772
 10
544.2620790327928
 20
130.2102268288305
 10
543.6556515725357
 20
130.1041792913918
 10
543.1088311159658
 20
130.17737078144
 10
542.6471863121501
 20
130.4263897446478
 10
542.2923034268794
 20
130.8395818678003
 10
542.0607759707576
 20
131.3976348745068
 10
541.9634302508598
 20
132.0744516092689
 10
542.004817797553
 20
132.8383840312061
 10
542.1830034778004
 20
133.6537169920969
 10
542.4896557157595
 20
134.4823142498409
 10
542.9104355279491
 20
135.2854430676039
 10
543.4256679093769
 20
136.0255488810921
 10
544.0112609970349
 20
136.6680209120799
 10
544.6398331688257
 20
137.18281622127
 10
545.281993125464
 20
137.5458739748936
 10
545.9077141751116
 20
137.7402008200932
 10
546.4877382811379
 20
137.7567300940669
  0
LINE
  5
238
330
1F
100
AcDbEntity
  8
0
100
AcDbLine
 10
543.5128857086503
 20
134.0398473348459
 30
0.0
 11
544.4293913200329
 21
133.5107599073372
 31
0.0
  0
LINE
  5
239
330
1F
100
AcDbEntity
  8
0
100
AcDbLine
 10
546.0716636048215
 20
135.9344013765242
 30
0.0
 11
545.3988642835781
 21
135.8883092687913
 31
0.0
  0
LINE
  5
23A
330
1F
100
AcDbEntity
  8
0
100
AcDbLine
 10
544.0201087894537
 20
132.5070340983913
 30
0.0
 11
544.4093425087138
 21
131.8577055312959
 31
0.0
  0
LINE
  5
23B
330
1F
100
AcDbEntity
  8
0
100
AcDbLine
 10
545.4314592732729
 20
134.3643586463457
 30
0.0
 11
544.9020711483738
 21
134.6699679057739
 31
0.0
  0
LINE
  5
23C
330
1F
100
AcDbEntity
  8
0
100
AcDbLine
 10
543.605336302584
 20
134.2614732110194
 30
0.0
 11
545.0495467991034
 21
133.4277482377139
 31
0.0
  0
SPLINE
  5
23D
330
1F
100
AcDbEntity
  8
0
100
AcDbSpline
210
0.0
220
0.0
230
1.0
 70
     8
 71
     3
 72
     9
 73
     5
 74
     0
 42
0.000000001
 43
0.00000001
 40
0.0
 40
0.0
 40
0.0
 40
0.0
 40
0.5105529876839698
 40
1.0
 40
1.0
 40
1.0
 40
1.0
 10
543.6664411078747
 20
134.359211968889
 30
0.0
 10
544.0799903186744
 20
134.1776933049102
 30
0.0
 10
544.8899928468661
 20
133.8221598571439
 30
0.0
 10
545.6950754429221
 20
133.463934418496
 30
0.0
 10
546.0891207142295
 20
133.2886020478141
 30
0.0
  0
LWPOLYLINE
  5
23E
330
1F
100
AcDbEntity
  8
0
100
AcDbPolyline
 90
       43
 70
   128
 43
0.0
 10
506.36946278169
 20
116.7565301575389
 10
505.5357098731804
 20
117.7913803213414
 10
504.7827129605959
 20
118.9169232625065
 10
504.1272925877589
 20
120.1080173747865
 10
503.5840895161713
 20
121.3380599981836
 10
503.1652367698481
 20
122.5795691422893
 10
502.8800935833367
 20
123.8048055199642
 10
502.7350280820293
 20
124.9864090343869
 10
502.7332803049051
 20
126.0979858435523
 10
502.8748897646345
 20
127.1146977122155
 10
503.1566928134015
 20
128.0138354006645
 10
503.5723950827986
 20
128.7753182956368
 10
504.1127110952632
 20
129.3821309291194
 10
504.7655684128749
 20
129.8207161568192
 10
505.5163868602273
 20
130.0812824113715
 10
506.3483919916126
 20
130.1580060148829
 10
507.2429983639267
 20
130.049174942381
 10
508.1802224440751
 20
129.7572181383804
 10
509.1391284436041
 20
129.2886610716374
 10
510.0982952267585
 20
128.6539657015233
 10
511.0362977065153
 20
127.8673134110392
 10
511.9321809966303
 20
126.9462704476354
 10
512.76593390514
 20
125.9114233256845
 10
513.5189308177247
 20
124.7858803845194
 10
514.174351849106
 20
123.5947858920698
 10
514.7175552499658
 20
122.3647461204393
 10
515.1364070084722
 20
121.1232375465882
 10
515.4215506888921
 20
119.8979948000829
 10
515.566616684108
 20
118.716391000533
 10
515.5683644612321
 20
117.6048141913676
 10
515.4267548368665
 20
116.5881024177468
 10
515.1449512941912
 20
115.688965014425
 10
514.7292490247941
 20
114.9274851613043
 10
514.188933670874
 20
114.320672147652
 10
513.5360753654454
 20
113.8820844483552
 10
512.7852575766377
 20
113.6215178136332
 10
511.9532524452524
 20
113.5447942101218
 10
511.0586460729381
 20
113.6536252826237
 10
510.1214219927898
 20
113.9455820866243
 10
509.1625159932607
 20
114.4141421952188
 10
508.2033485515618
 20
115.0488379455026
 10
507.2653467303497
 20
115.8354898558171
 10
506.36946278169
 20
116.7565301575389
  0
LWPOLYLINE
  5
23F
330
1F
100
AcDbEntity
  8
0
100
AcDbPolyline
 90
       49
 70
   128
 43
0.0
 10
505.6359179567821
 20
115.4128268209391
 10
504.7088611452925
 20
116.5502371831226
 10
503.8578082725583
 20
117.7783520441748
 10
503.0973197576508
 20
119.0761604201983
 10
502.4404084400479
 20
120.4214519321019
 10
501.8983143574118
 20
121.7912084228567
 10
501.4803124505928
 20
123.1619978592298
 10
501.1935558300369
 20
124.5103629136147
 10
501.0429493352393
 20
125.8132255184256
 10
501.0310718264933
 20
127.0483089157101
 10
501.1581248184183
 20
128.1944654118354
 10
501.4219351141383
 20
129.2320946323257
 10
501.817989049595
 20
130.1434401056032
 10
502.3395088847128
 20
130.9128980180898
 10
502.9775726584973
 20
131.527319129221
 10
503.7212630200951
 20
131.9761783686366
 10
504.5578542554341
 20
132.2518014716708
 10
505.4730322410886
 20
132.3494691834079
 10
506.4511381057481
 20
132.2675138603325
 10
507.4754369163753
 20
132.0073407885026
 10
508.5284015108906
 20
131.5733860044914
 10
509.592016087189
 20
130.9730931297566
 10
510.6480817677924
 20
130.2167248045148
 10
511.6785287499462
 20
129.3172189895455
 10
512.6657264800828
 20
128.2899734040656
 10
513.5927826330278
 20
127.1525634220517
 10
514.4438358350343
 20
125.9244514127662
 10
515.2043240206696
 20
124.6266432268276
 10
515.8612351736364
 20
123.281354851818
 10
516.4033294209086
 20
121.9115921823176
 10
516.8213310807733
 20
120.5408028885082
 10
517.1080881952377
 20
119.1924436326991
 10
517.2586943607631
 20
117.8895751342699
 10
517.2705725280535
 20
116.6544913568158
 10
517.1435195361285
 20
115.5083348606905
 10
516.8797093227266
 20
114.470705592679
 10
516.4836557165421
 20
113.5593660130198
 10
515.9621352228797
 20
112.7899023969997
 10
515.3240711198231
 20
112.1754845178049
 10
514.5803814167697
 20
111.7266218563681
 10
513.7437901814309
 20
111.4509987533339
 10
512.828611866504
 20
111.3533312316816
 10
511.8505056725725
 20
111.4352867448418
 10
510.8262075204896
 20
111.6954655202053
 10
509.7732422674297
 20
112.1294146006829
 10
508.7096276911315
 20
112.7297105172693
 10
507.6535620105279
 20
113.4860788425111
 10
506.6231156869187
 20
114.3855812354593
 10
505.6359179567821
 20
115.4128268209391
  0
LWPOLYLINE
  5
240
330
1F
100
AcDbEntity
  8
0
100
AcDbPolyline
 90
       26
 70
   128
 43
0.0
 10
504.3205279856472
 20
132.3416257268551
 10
504.6405015911859
 20
132.5068435002024
 10
505.4770928265249
 20
132.7824666032366
 10
506.3922708121794
 20
132.8801343149737
 10
507.3703766768389
 20
132.7981789918983
 10
508.3946754874661
 20
132.5380059200683
 10
509.4476400819814
 20
132.1040511360572
 10
510.5112546582798
 20
131.5037582613224
 10
511.5673203388832
 20
130.7473899360806
 10
512.5977673210369
 20
129.8478841211112
 10
513.5849650511735
 20
128.8206385356314
 10
514.5120212041187
 20
127.6832285536175
 10
515.3630744061252
 20
126.455116544332
 10
516.1235625917603
 20
125.1573083583934
 10
516.7804737447271
 20
123.8120199833837
 10
517.3225679919994
 20
122.4422573138834
 10
517.7405696518641
 20
121.071468020074
 10
518.0273267663284
 20
119.7231087642649
 10
518.1779329318539
 20
118.4202402658357
 10
518.1898110991443
 20
117.1851564883816
 10
518.0627581072192
 20
116.0389999922563
 10
517.7989478938174
 20
115.0013707242448
 10
517.4028942876329
 20
114.0900311445855
 10
516.8813737939706
 20
113.3205675285655
 10
516.2433096909139
 20
112.7061496493707
 10
515.819593264127
 20
112.422504951366
  0
ARC
  5
241
330
1F
100
AcDbEntity
  8
0
100
AcDbCircle
 10
521.684771817963
 20
129.1361763183153
 30
0.0
 40
13.27972162626746
100
AcDbArc
 50
177.7487465831825
 51
223.3387670896001
  0
ARC
  5
242
330
1F
100
AcDbEntity
  8
0
100
AcDbCircle
 10
520.0785881182272
 20
126.8294735532143
 30
0.0
 40
10.54412449423177
100
AcDbArc
 50
220.210849942589
 51
244.5239165557247
  0
LINE
  5
243
330
1F
100
AcDbEntity
  8
0
100
AcDbLine
 10
508.5144255500699
 20
128.8316926281386
 30
0.0
 11
508.5508601835186
 21
129.5959011760054
 31
0.0
  0
ARC
  5
244
330
1F
100
AcDbEntity
  8
0
100
AcDbCircle
 10
521.9999818843861
 20
129.3159229438886
 30
0.0
 40
13.49424724261065
100
AcDbArc
 50
182.0564549210291
 51
241.4820313228523
  0
LINE
  5
245
330
1F
100
AcDbEntity
  8
0
100
AcDbLine
 10
512.0499600355218
 20
123.5245082311237
 30
0.0
 11
512.0499600355218
 21
126.8113748557827
 31
0.0
  0
LINE
  5
246
330
1F
100
AcDbEntity
  8
0
100
AcDbLine
 10
514.8958541998686
 20
121.8816085001503
 30
0.0
 11
512.0499600355218
 21
123.5245082311237
 31
0.0
  0
LINE
  5
247
330
1F
100
AcDbEntity
  8
0
100
AcDbLine
 10
512.0499600355218
 20
123.5245082311237
 30
0.0
 11
513.7014217326929
 21
124.4778767758805
 31
0.0
  0
LINE
  5
248
330
1F
100
AcDbEntity
  8
0
100
AcDbLine
 10
538.5664643958719
 20
135.1629654811395
 30
0.0
 11
551.2943865678651
 21
142.5106385514124
 31
0.0
  0
LINE
  5
249
330
1F
100
AcDbEntity
  8
0
100
AcDbLine
 10
538.5664643958719
 20
135.1629654811395
 30
0.0
 11
538.5664643958719
 21
11.04876302356317
 31
0.0
  0
LINE
  5
24A
330
1F
100
AcDbEntity
  8
0
100
AcDbLine
 10
548.1124058602308
 20
89.23165125446741
 30
0.0
 11
541.748444774234
 21
85.55781471933098
 31
0.0
  0
LINE
  5
24B
330
1F
100
AcDbEntity
  8
0
100
AcDbLine
 10
541.748444774234
 20
85.55781471933098
 30
0.0
 11
541.748444774234
 21
64.32775317227484
 31
0.0
  0
LINE
  5
24C
330
1F
100
AcDbEntity
  8
0
100
AcDbLine
 10
551.2943865678651
 20
18.39643609383607
 30
0.0
 11
551.2943865678651
 21
60.85801851623654
 31
0.0
  0
LINE
  5
24D
330
1F
100
AcDbEntity
  8
0
100
AcDbLine
 10
551.2943865678651
 20
87.39473232467518
 30
0.0
 11
551.2943865678651
 21
142.5106385514124
 31
0.0
  0
LINE
  5
24E
330
1F
100
AcDbEntity
  8
0
100
AcDbLine
 10
551.2943865678651
 20
18.39643609383607
 30
0.0
 11
538.5664643958719
 21
11.04876302356317
 31
0.0
  0
LWPOLYLINE
  5
24F
330
1F
100
AcDbEntity
  8
0
100
AcDbPolyline
 90
       33
 70
   128
 43
0.0
 10
548.6073804247762
 20
30.72645502156935
 10
548.5367288065096
 20
31.51402572863579
 10
548.3274891307159
 20
32.18975523457276
 10
547.9877018965656
 20
32.72768115215665
 10
547.5304252184712
 20
33.10712555526565
 10
546.9732321919921
 20
33.31351204836226
 10
546.3375351448514
 20
33.33890342963599
 10
545.6477636704916
 20
33.182330228689
 10
544.9304252760734
 20
32.84980508900415
 10
544.2130868610757
 20
32.35410893579912
 10
543.5233154072954
 20
31.71428895603633
 10
542.8876184424727
 20
30.95493743443684
 10
542.3304252513575
 20
30.10522947140564
 10
541.8731487378992
 20
29.19782474876469
 10
541.5333615037489
 20
28.26758884118378
 10
541.3241218279552
 20
27.35027634781399
 10
541.2534698804163
 20
26.4811328285341
 10
541.3241218279552
 20
25.69356231155249
 10
541.5333615037489
 20
25.01783280561552
 10
541.8731487378992
 20
24.47990688803163
 10
542.3304252513575
 20
24.10046238988021
 10
542.8876184424727
 20
23.89407599182602
 10
543.5233154072954
 20
23.86868152117952
 10
544.2130868610757
 20
24.02525775209779
 10
544.9304252760734
 20
24.35778290366294
 10
545.6477636704916
 20
24.85347904498766
 10
546.3375351448514
 20
25.49329599477919
 10
546.9732321919921
 20
26.25265060575143
 10
547.5304252184712
 20
27.10235847374022
 10
547.9877018965656
 20
28.0097632914236
 10
548.3274891307159
 20
28.93999919900452
 10
548.5367288065096
 20
29.8573116923743
 10
548.6073804247762
 20
30.72645502156935
  0
LWPOLYLINE
  5
250
330
1F
100
AcDbEntity
  8
0
100
AcDbPolyline
 90
       30
 70
   128
 43
0.0
 10
547.9002736923219
 20
21.33630211171693
 10
547.830840381395
 20
22.03345442716451
 10
547.6257867437664
 20
22.61784149071413
 10
547.2947010228362
 20
23.06214039685798
 10
546.8530644475342
 20
23.34557242088852
 10
546.3215274095875
 20
23.45489050035229
 10
545.7249439137947
 20
23.38497773865243
 10
545.0912096379805
 20
23.13910439606532
 10
544.4499572534269
 20
22.72877091716455
 10
543.8311709707065
 20
22.17315755698257
 10
543.2637846630606
 20
21.49824817412885
 10
542.7743287014921
 20
20.73560191313648
 10
542.3856893186505
 20
19.92087653758692
 10
542.116039050234
 20
19.0921706738382
 10
541.9779860601197
 20
18.28822777255526
 10
541.9779860601197
 20
17.54664565401402
 10
542.116039050234
 20
16.90209838420182
 10
542.3856893186505
 20
16.38472409348809
 10
542.7743287014921
 20
16.01871219823234
 10
543.2637846630606
 20
15.8211767198295
 10
543.8311709707065
 20
15.80136066564642
 10
544.4499572534269
 20
15.96018274030752
 10
545.0912096379805
 20
16.29022046345184
 10
545.7249439137947
 20
16.77604418302634
 10
546.3215274095875
 20
17.39493206403486
 10
546.8530644475342
 20
18.11794670269705
 10
547.2947010228362
 20
18.91128450483797
 10
547.6257867437664
 20
19.7378468476618
 10
547.830840381395
 20
20.55898380185429
 10
547.9002736923219
 20
21.33630211171693
  0
LWPOLYLINE
  5
251
330
1F
100
AcDbEntity
  8
0
100
AcDbPolyline
 90
       30
 70
   128
 43
0.0
 10
547.9002736923219
 20
135.6520162624182
 10
547.830840381395
 20
136.3491685778658
 10
547.6257867437664
 20
136.9335525995638
 10
547.2947010228362
 20
137.3778515057076
 10
546.8530644475342
 20
137.6612896134413
 10
546.3215274095875
 20
137.7706016092019
 10
545.7249439137947
 20
137.7006918893537
 10
545.0912096379805
 20
137.4548215886181
 10
544.4499572534269
 20
137.0444820260142
 10
543.8311709707065
 20
136.4888686658322
 10
543.2637846630606
 20
135.8139623248301
 10
542.7743287014921
 20
135.0513160638377
 10
542.3856893186505
 20
134.2365906882881
 10
542.116039050234
 20
133.4078848245394
 10
541.9779860601197
 20
132.6039419232565
 10
541.9779860601197
 20
131.8623628465668
 10
542.116039050234
 20
131.2178125349031
 10
542.3856893186505
 20
130.7004382441893
 10
542.7743287014921
 20
130.3344263489336
 10
543.2637846630606
 20
130.1368939123823
 10
543.8311709707065
 20
130.1170717744961
 10
544.4499572534269
 20
130.2758938491572
 10
545.0912096379805
 20
130.6059346141531
 10
545.7249439137947
 20
131.0917583337276
 10
546.3215274095875
 20
131.7106431728845
 10
546.8530644475342
 20
132.4336608533983
 10
547.2947010228362
 20
133.2269956136876
 10
547.6257867437664
 20
134.0535579565115
 10
547.830840381395
 20
134.8746979525555
 10
547.9002736923219
 20
135.6520162624182
  0
ARC
  5
252
330
1F
100
AcDbEntity
  8
0
100
AcDbCircle
 10
521.7886702145084
 20
129.1470763975173
 30
0.0
 40
13.24541649395591
100
AcDbArc
 50
178.0581441663221
 51
241.9364927897771
  0
LINE
  5
253
330
1F
100
AcDbEntity
  8
0
100
AcDbLine
 10
550.1500278494431
 20
81.42745773000551
 30
0.0
 11
550.1500278494431
 21
60.19739618294939
 31
0.0
  0
LINE
  5
254
330
1F
100
AcDbEntity
  8
0
100
AcDbLine
 10
550.1500278494431
 20
60.19739618294939
 30
0.0
 11
545.9910848396873
 21
61.87852919568688
 31
0.0
  0
LINE
  5
255
330
1F
100
AcDbEntity
  8
0
100
AcDbLine
 10
545.9910848396873
 20
61.87852919568688
 30
0.0
 11
545.9910848396873
 21
83.108590742743
 31
0.0
  0
LINE
  5
256
330
1F
100
AcDbEntity
  8
0
100
AcDbLine
 10
545.9910848396873
 20
83.108590742743
 30
0.0
 11
550.1500278494431
 21
81.42745773000551
 31
0.0
  0
LINE
  5
257
330
1F
100
AcDbEntity
  8
0
100
AcDbLine
 10
552.355045925684
 20
86.78242727787945
 30
0.0
 11
548.1124058602308
 21
89.23165125446741
 31
0.0
  0
LINE
  5
258
330
1F
100
AcDbEntity
  8
0
100
AcDbLine
 10
555.2671689233819
 20
84.3815203929986
 30
0.0
 11
552.355045925684
 21
86.78242727787945
 31
0.0
  0
LINE
  5
259
330
1F
100
AcDbEntity
  8
0
100
AcDbLine
 10
555.2671689233819
 20
84.3815203929986
 30
0.0
 11
550.1500278494431
 21
81.42745773000551
 31
0.0
  0
LINE
  5
25A
330
1F
100
AcDbEntity
  8
0
100
AcDbLine
 10
545.9910848396873
 20
83.108590742743
 30
0.0
 11
541.748444774234
 21
85.55781471933098
 31
0.0
  0
LINE
  5
25B
330
1F
100
AcDbEntity
  8
0
100
AcDbLine
 10
555.2671689233819
 20
63.15145884594247
 30
0.0
 11
555.2671689233819
 21
84.3815203929986
 31
0.0
  0
LINE
  5
25C
330
1F
100
AcDbEntity
  8
0
100
AcDbLine
 10
550.1500278494431
 20
60.19739618294939
 30
0.0
 11
555.2671689233819
 21
63.15145884594247
 31
0.0
  0
LINE
  5
25D
330
1F
100
AcDbEntity
  8
0
100
AcDbLine
 10
545.9910848396873
 20
61.87852919568688
 30
0.0
 11
541.748444774234
 21
64.32775317227484
 31
0.0
  0
ARC
  5
25E
330
1F
100
AcDbEntity
  8
0
100
AcDbCircle
 10
545.7413145243556
 20
31.09597512962713
 30
0.0
 40
2.665407606743762
100
AcDbArc
 50
354.6815832847932
 51
50.90940141824465
  0
LWPOLYLINE
  5
25F
330
1F
100
AcDbEntity
  8
0
100
AcDbPolyline
 90
       13
 70
   128
 43
0.0
 10
542.2267334673085
 20
24.1653180451339
 10
542.6754854513831
 20
24.01653776090991
 10
543.311182416206
 20
23.99114329026339
 10
544.0009538699863
 20
24.14771952118166
 10
544.7182922849839
 20
24.48024467274681
 10
545.435630679402
 20
24.97594081407153
 10
546.125402153762
 20
25.61575776386307
 10
546.7610992009028
 20
26.37511237483531
 10
547.3182922273818
 20
27.22482024282411
 10
547.7755689054762
 20
28.13222506050747
 10
548.1153561396266
 20
29.06246096808839
 10
548.32459581542
 20
29.97977346145818
 10
548.3952474336868
 20
30.84891679065322
  0
ARC
  5
260
330
1F
100
AcDbEntity
  8
0
100
AcDbCircle
 10
546.244056387183
 20
153.0676564197726
 30
0.0
 40
3.07360844912153
100
AcDbArc
 50
2.605520818686492
 51
57.39454094613052
  0
ARC
  5
261
330
1F
100
AcDbEntity
  8
0
100
AcDbCircle
 10
546.7626193461491
 20
13.94035645702711
 30
0.0
 40
2.552297325601132
100
AcDbArc
 50
1.050954128668952
 51
18.05796228491236
  0
LINE
  5
262
330
1F
100
AcDbEntity
  8
0
100
AcDbLine
 10
549.3144873218665
 20
13.98716962588575
 30
0.0
 11
549.3144873218665
 21
7.046570826741494
 31
0.0
  0
ARC
  5
263
330
1F
100
AcDbEntity
  8
0
100
AcDbCircle
 10
548.4523396703657
 20
6.906716810219685
 30
0.0
 40
0.8734172650718487
100
AcDbArc
 50
230.7965429772451
 51
9.21402393996466
  0
LINE
  5
264
330
1F
100
AcDbEntity
  8
0
100
AcDbLine
 10
547.9002735276858
 20
6.229900222781048
 30
0.0
 11
542.6676836745971
 21
9.250610047352637
 31
0.0
  0
LINE
  5
265
330
1F
100
AcDbEntity
  8
0
100
AcDbLine
 10
494.1601572513508
 20
179.0062714057192
 30
0.0
 11
494.1601572513508
 21
183.4142124245912
 31
0.0
  0
ARC
  5
266
330
1F
100
AcDbEntity
  8
0
100
AcDbCircle
 10
495.8844556234404
 20
183.693920184838
 30
0.0
 40
1.746837515950657
100
AcDbArc
 50
50.79675276579192
 51
189.2139989889602
  0
LINE
  5
267
330
1F
100
AcDbEntity
  8
0
100
AcDbLine
 10
496.9885848397124
 20
185.0475597162153
 30
0.0
 11
547.9002735276858
 21
155.6568674351238
 31
0.0
  0
LINE
  5
268
330
1F
100
AcDbEntity
  8
0
100
AcDbLine
 10
549.3144873218665
 20
153.2073803398785
 30
0.0
 11
549.3144873218665
 21
146.2667815407343
 31
0.0
  0
ARC
  5
269
330
1F
100
AcDbEntity
  8
0
100
AcDbCircle
 10
548.4523366012634
 20
146.126927797022
 30
0.0
 40
0.8734202508912404
100
AcDbArc
 50
230.7969625548918
 51
9.213974037062924
  0
LINE
  5
26A
330
1F
100
AcDbEntity
  8
0
100
AcDbLine
 10
547.9002735276858
 20
145.4501048530706
 30
0.0
 11
542.6676836745971
 21
148.4708146776422
 31
0.0
  0
ARC
  5
26B
330
1F
100
AcDbEntity
  8
0
100
AcDbCircle
 10
539.5972387430256
 20
149.2306648365011
 30
0.0
 40
3.073622337777427
100
AcDbArc
 50
2.605538060065733
 51
57.3944004664873
  0
LWPOLYLINE
  5
26C
330
1F
100
AcDbEntity
  8
0
100
AcDbPolyline
 90
       25
 70
   128
 43
0.0
 10
513.9591480649758
 20
44.91401764710324
 10
514.6706849909714
 20
45.24263594103918
 10
515.2781396160249
 20
45.74621062992256
 10
515.7677694333435
 20
46.41335325291827
 10
516.1284967364865
 20
47.22896663160159
 10
516.352161335819
 20
48.17460088536235
 10
516.4337026460697
 20
49.22886086648462
 10
516.3712760840716
 20
50.36789714492296
 10
516.1662938985221
 20
51.56594061754599
 10
515.8233933952102
 20
52.79588663571322
 10
515.3503325577125
 20
54.02990887914974
 10
514.7578130635555
 20
55.24009080871258
 10
514.0592405740164
 20
56.39905302578318
 10
513.2704185109252
 20
57.4805764428728
 10
512.4091931011761
 20
58.46019198928819
 10
511.4950490303992
 20
59.31573875295254
 10
510.5486659132338
 20
60.02786033094002
 10
509.5914556658128
 20
60.58044604465856
 10
508.6450725486474
 20
60.9609951556006
 10
507.7309284778703
 20
61.16089667020712
 10
506.8697024095767
 20
61.17563119672933
 10
506.0808806757578
 20
61.00486215764386
 10
505.382308515491
 20
60.65245437891241
 10
504.7897883627895
 20
60.12638127581502
 10
504.3412655522037
 20
59.48362333054123
  0
LWPOLYLINE
  5
26D
330
1F
100
AcDbEntity
  8
0
100
AcDbPolyline
 90
        8
 70
   128
 43
0.0
 10
513.9591480649758
 20
34.72677614746733
 10
513.885778962797
 20
33.90891385718129
 10
513.6684912145713
 20
33.20719287560451
 10
513.3156354939323
 20
32.64857981031302
 10
512.8407715615716
 20
32.25453980864994
 10
512.2621480150777
 20
32.04021749037481
 10
511.6020006097625
 20
32.01384733296659
 10
511.2931366500735
 20
32.06210242165054
  0
LINE
  5
26E
330
1F
100
AcDbEntity
  8
0
100
AcDbLine
 10
513.9591480649758
 20
34.72677614746733
 30
0.0
 11
513.9591480649758
 21
44.91401764710324
 31
0.0
  0
LINE
  5
26F
330
1F
100
AcDbEntity
  8
0
100
AcDbLine
 10
551.2943865678651
 20
144.9602598676682
 30
0.0
 11
542.667683509961
 21
139.9801701965294
 31
0.0
  0
LINE
  5
270
330
1F
100
AcDbEntity
  8
0
100
AcDbLine
 10
551.2943865678651
 20
144.9602598676682
 30
0.0
 11
551.2943865678651
 21
142.5106385514124
 31
0.0
  0
LINE
  5
271
330
1F
100
AcDbEntity
  8
0
100
AcDbLine
 10
551.2943865678651
 20
18.39643609383607
 30
0.0
 11
551.2943865678651
 21
15.94681477758019
 31
0.0
  0
LINE
  5
272
330
1F
100
AcDbEntity
  8
0
100
AcDbLine
 10
551.2943865678651
 20
15.94681477758019
 30
0.0
 11
542.667683509961
 21
10.96672510644131
 31
0.0
  0
LINE
  5
273
330
1F
100
AcDbEntity
  8
0
100
AcDbLine
 10
542.667683509961
 20
10.96672510644131
 30
0.0
 11
542.667683509961
 21
1.576508032892747
 31
0.0
  0
LINE
  5
274
330
1F
100
AcDbEntity
  8
0
100
AcDbLine
 10
542.667683509961
 20
149.3703903119295
 30
0.0
 11
542.667683509961
 21
139.9801701965294
 31
0.0
  0
LINE
  5
275
330
1F
100
AcDbEntity
  8
0
100
AcDbLine
 10
487.5133547565343
 20
182.843391502915
 30
0.0
 11
541.2534697157802
 21
151.8198834908779
 31
0.0
  0
LINE
  5
276
330
1F
100
AcDbEntity
  8
0
100
AcDbLine
 10
549.7587845816171
 20
145.8467440249835
 30
0.0
 11
551.2943865678651
 21
144.9602598676682
 31
0.0
  0
ARC
  5
277
330
1F
100
AcDbEntity
  8
0
100
AcDbCircle
 10
486.9275182478174
 20
182.0256317657432
 30
0.0
 40
1.005950000091886
100
AcDbArc
 50
54.3824923637326
 51
114.3074243374588
  0
LINE
  5
278
330
1F
100
AcDbEntity
  8
0
100
AcDbLine
 10
515.1067889692257
 20
45.57653663901348
 30
0.0
 11
513.9591480649758
 21
44.91401764710324
 31
0.0
  0
ARC
  5
279
330
1F
100
AcDbEntity
  8
0
100
AcDbCircle
 10
541.728556802996
 20
1.449840725496991
 30
0.0
 40
0.9476305073697306
100
AcDbArc
 50
303.6305205561201
 51
7.681569230773215
  0
ARC
  5
27A
330
1F
100
AcDbEntity
  8
0
100
AcDbCircle
 10
548.2946523589296
 20
154.251574843888
 30
0.0
 40
3.073622337777761
100
AcDbArc
 50
2.60553806006809
 51
57.39440046648365
  0
LINE
  5
27B
330
1F
100
AcDbEntity
  8
0
100
AcDbLine
 10
494.7965545782579
 20
187.0476248226384
 30
0.0
 11
494.7965545782579
 21
185.1109144335387
 31
0.0
  0
ARC
  5
27C
330
1F
100
AcDbEntity
  8
0
100
AcDbCircle
 10
495.6587050429588
 20
187.1874790094887
 30
0.0
 40
0.8734200692470787
100
AcDbArc
 50
50.79693117243679
 51
189.2140054195186
  0
LINE
  5
27D
330
1F
100
AcDbEntity
  8
0
100
AcDbLine
 10
549.9508833316845
 20
156.840793498265
 30
0.0
 11
496.2107683724386
 21
187.864301510302
 31
0.0
  0
LINE
  5
27E
330
1F
100
AcDbEntity
  8
0
100
AcDbLine
 10
551.3650971258653
 20
6.597418040279827
 30
0.0
 11
551.3650971258653
 21
60.89883885248473
 31
0.0
  0
LINE
  5
27F
330
1F
100
AcDbEntity
  8
0
100
AcDbLine
 10
551.3650971258653
 20
87.35391240677525
 30
0.0
 11
551.3650971258653
 21
154.3913003193165
 31
0.0
  0
ARC
  5
280
330
1F
100
AcDbEntity
  8
0
100
AcDbCircle
 10
550.502946405262
 20
6.45756429656771
 30
0.0
 40
0.8734202508913036
100
AcDbArc
 50
230.7969625548951
 51
9.213974037052989
  0
LINE
  5
281
330
1F
100
AcDbEntity
  8
0
100
AcDbLine
 10
549.1222736557824
 20
6.259087536629778
 30
0.0
 11
549.9508833316845
 21
5.780741352616246
 31
0.0
  0
LINE
  5
282
330
1F
100
AcDbEntity
  8
0
  6
Continuous
 62
     8
370
     0
100
AcDbLine
 10
509.2215321178882
 20
32.72662856937484
 30
0.0
 11
513.9591480649758
 21
35.4615960402091
 31
0.0
  0
LINE
  5
283
330
1F
100
AcDbEntity
  8
0
  6
Continuous
 62
     8
370
     0
100
AcDbLine
 10
547.9002735276858
 20
155.6568674351238
 30
0.0
 11
549.2437764345941
 21
156.4324551544332
 31
0.0
  0
LINE
  5
284
330
1F
100
AcDbEntity
  8
0
  6
Continuous
 62
     8
370
     0
100
AcDbLine
 10
550.657990228775
 20
153.9829680591879
 30
0.0
 11
549.3144873218665
 21
153.2073803398785
 31
0.0
  0
LINE
  5
285
330
1F
100
AcDbEntity
  8
0
  6
Continuous
 62
     8
370
     0
100
AcDbLine
 10
549.3144873218665
 20
146.2667815407343
 30
0.0
 11
550.657990228775
 21
147.0423692600436
 31
0.0
  0
LINE
  5
286
330
1F
100
AcDbEntity
  8
0
  6
Continuous
 62
     8
370
     0
100
AcDbLine
 10
498.3320877466207
 20
185.8231474355247
 30
0.0
 11
496.9885848397124
 21
185.0475597162153
 31
0.0
  0
LINE
  5
287
330
1F
100
AcDbEntity
  8
0
  6
Continuous
 62
     8
370
     0
100
AcDbLine
 10
550.657990228775
 20
14.76275734519516
 30
0.0
 11
549.3144873218665
 21
13.98716962588575
 31
0.0
  0
LINE
  5
288
330
1F
100
AcDbEntity
  8
0
  6
Continuous
 62
     8
370
     0
100
AcDbLine
 10
549.3144873218665
 20
7.046570826741494
 30
0.0
 11
550.657990228775
 21
7.822158546050908
 31
0.0
  0
ARC
  5
289
330
1F
100
AcDbEntity
  8
0
  6
Continuous
 62
     8
370
     0
100
AcDbCircle
 10
533.1625672636646
 20
145.5160080601588
 30
0.0
 40
3.073622337777759
100
AcDbArc
 50
2.605538060067561
 51
57.39440046648129
  0
ARC
  5
28A
330
1F
100
AcDbEntity
  8
0
  6
Continuous
 62
     8
370
     0
100
AcDbCircle
 10
535.1723517225556
 20
147.7028048732133
 30
0.0
 40
2.305537106704579
100
AcDbArc
 50
242.6097025445408
 51
297.3902769190933
  0
ARC
  5
28B
330
1F
100
AcDbEntity
  8
0
  6
Continuous
 62
     8
370
     0
100
AcDbCircle
 10
533.3440905679998
 20
145.6208089867395
 30
0.0
 40
0.7683942242197546
100
AcDbArc
 50
2.605095920474577
 51
57.39478098689353
  0
ARC
  5
28C
330
1F
100
AcDbEntity
  8
0
  6
Continuous
 62
     8
370
     0
100
AcDbCircle
 10
536.0609587326354
 20
146.1633200753471
 30
0.0
 40
2.305203698956785
100
AcDbArc
 50
122.6054313860918
 51
177.3946300873533
  0
LINE
  5
28D
330
1F
100
AcDbEntity
  8
0
  6
Continuous
 62
     8
370
     0
100
AcDbLine
 10
542.667683509961
 20
149.3703903119295
 30
0.0
 11
536.2330120306003
 21
145.6557335355872
 31
0.0
  0
LINE
  5
28E
330
1F
100
AcDbEntity
  8
0
  6
Continuous
 62
     8
370
     0
100
AcDbLine
 10
534.8187982364196
 20
148.1052267145357
 30
0.0
 11
541.2534697157802
 21
151.8198834908779
 31
0.0
  0
ARC
  5
28F
330
1F
100
AcDbEntity
  8
0
  6
Continuous
 62
     8
370
     0
100
AcDbCircle
 10
535.1723517225554
 20
-0.0910774058234338
 30
0.0
 40
2.305537106704623
100
AcDbArc
 50
242.6097025445445
 51
297.3902769190991
  0
LINE
  5
290
330
1F
100
AcDbEntity
  8
0
  6
Continuous
 62
     8
370
     0
100
AcDbLine
 10
534.1116906807847
 20
-2.138148363279818
 30
0.0
 11
534.1116906807847
 21
145.6557339157569
 31
0.0
  0
LINE
  5
291
330
1F
100
AcDbEntity
  8
0
  6
Continuous
 62
     8
370
     0
100
AcDbLine
 10
536.2330120306003
 20
145.6557335355872
 30
0.0
 11
536.2330120306003
 21
-2.138148743449477
 31
0.0
  0
LINE
  5
292
330
1F
100
AcDbEntity
  8
0
  6
Continuous
 62
     8
370
     0
100
AcDbLine
 10
533.758137890784
 20
146.2681068303244
 30
0.0
 11
480.018022931538
 21
177.2916148423614
 31
0.0
  0
ARC
  5
293
330
1F
100
AcDbEntity
  8
0
  6
Continuous
 62
     8
370
     0
100
AcDbCircle
 10
482.3208437733897
 20
177.186828087384
 30
0.0
 40
2.305203698957003
100
AcDbArc
 50
122.6054313860982
 51
177.3946300873529
  0
LINE
  5
294
330
1F
100
AcDbEntity
  8
0
  6
Continuous
 62
     8
370
     0
100
AcDbLine
 10
481.0786832771736
 20
179.1287347265727
 30
0.0
 11
534.8187982364196
 21
148.1052267145357
 31
0.0
  0
ARC
  5
295
330
1F
100
AcDbEntity
  8
0
  6
Continuous
 62
     8
370
     0
100
AcDbCircle
 10
533.8961560706758
 20
-2.173116985385228
 30
0.0
 40
0.218352862785869
100
AcDbArc
 50
230.795675107669
 51
9.215446321810292
  0
LINE
  5
296
330
1F
100
AcDbEntity
  8
0
  6
Continuous
 62
     8
370
     0
100
AcDbLine
 10
480.018022931538
 20
28.68119009667164
 30
0.0
 11
533.758137890784
 21
-2.342317915365363
 31
0.0
  0
ARC
  5
297
330
1F
100
AcDbEntity
  8
0
  6
Continuous
 62
     8
370
     0
100
AcDbCircle
 10
480.4320676575779
 20
29.32848804861244
 30
0.0
 40
0.7683929162532681
100
AcDbArc
 50
182.6050516920469
 51
237.3949484535709
  0
LINE
  5
298
330
1F
100
AcDbEntity
  8
0
  6
Continuous
 62
     8
370
     0
100
AcDbLine
 10
479.6644688244484
 20
177.0874460506152
 30
0.0
 11
479.6644688244484
 21
29.29356377157842
 31
0.0
  0
ARC
  5
299
330
1F
100
AcDbEntity
  8
0
  6
Continuous
 62
     8
370
     0
100
AcDbCircle
 10
479.8800060425705
 20
177.1224104167298
 30
0.0
 40
0.2183547556011063
100
AcDbArc
 50
50.79651737578881
 51
189.2142343789914
  0
LINE
  5
29A
330
1F
100
AcDbEntity
  8
0
  6
Continuous
 62
     8
370
     0
100
AcDbLine
 10
536.2330120306003
 20
-2.138148743449477
 30
0.0
 11
542.667683509961
 21
1.576508032892747
 31
0.0
  0
LINE
  5
29B
330
1F
100
AcDbEntity
  8
0
  6
Continuous
 62
     8
370
     0
100
AcDbLine
 10
487.5133547565343
 20
182.843391502915
 30
0.0
 11
481.0786832771736
 21
179.1287347265727
 31
0.0
  0
ARC
  5
29C
330
1F
100
AcDbEntity
  8
0
  6
Continuous
 62
     8
370
     0
100
AcDbCircle
 10
480.4922732317619
 20
178.3093776611812
 30
0.0
 40
1.007582622898417
100
AcDbArc
 50
54.40887737760921
 51
114.00538037552
  0
ARC
  5
29D
330
1F
100
AcDbEntity
  8
0
  6
Continuous
 62
     8
370
     0
100
AcDbCircle
 10
479.9415232017137
 20
177.7499711667459
 30
0.0
 40
0.7181216174618101
100
AcDbArc
 50
183.9761190634441
 51
247.3063213851669
  0
ARC
  5
29E
330
1F
100
AcDbEntity
  8
0
  6
Continuous
 62
     8
370
     0
100
AcDbCircle
 10
479.9758137736559
 20
29.98072906780673
 30
0.0
 40
0.754408259324825
100
AcDbArc
 50
185.6947406195314
 51
245.625387113357
  0
ARC
  5
29F
330
1F
100
AcDbEntity
  8
0
  6
Continuous
 62
     8
370
     0
100
AcDbCircle
 10
535.2547978799092
 20
-2.246742527011008
 30
0.0
 40
0.984223315330621
100
AcDbArc
 50
304.7013758842555
 51
6.334598156986545
  0
ARC
  5
2A0
330
1F
100
AcDbEntity
  8
0
  6
Continuous
 62
     8
370
     0
100
AcDbCircle
 10
534.5091354535222
 20
-2.416221966642475
 30
0.0
 40
0.7546251705542015
100
AcDbArc
 50
174.3797416198938
 51
234.301663502364
  0
ARC
  5
2A1
330
1F
100
AcDbEntity
  8
0
  6
Continuous
 62
     8
370
     0
100
AcDbCircle
 10
480.7192678905625
 20
28.58478631493026
 30
0.0
 40
0.7078405058282295
100
AcDbArc
 50
172.1723188055838
 51
236.5154763729723
  0
LINE
  5
2A2
330
1F
100
AcDbEntity
  8
0
  6
Continuous
 62
     8
370
     0
100
AcDbLine
 10
549.9508833316845
 20
156.840793498265
 30
0.0
 11
555.254184401318
 21
159.9023240392544
 31
0.0
  0
ARC
  5
2A3
330
1F
100
AcDbEntity
  8
0
  6
Continuous
 62
     8
370
     0
100
AcDbCircle
 10
553.5979534285632
 20
157.3131053848776
 30
0.0
 40
3.073622337777526
100
AcDbArc
 50
2.605538060065107
 51
57.39440046648343
  0
LINE
  5
2A4
330
1F
100
AcDbEntity
  8
0
  6
Continuous
 62
     8
370
     0
100
AcDbLine
 10
556.6683981954986
 20
157.452830860306
 30
0.0
 11
551.3650971258653
 21
154.3913003193165
 31
0.0
  0
LINE
  5
2A5
330
1F
100
AcDbEntity
  8
0
  6
Continuous
 62
     8
370
     0
100
AcDbLine
 10
556.6683981954986
 20
9.658948581269279
 30
0.0
 11
556.6683981954986
 21
157.452830860306
 31
0.0
  0
LINE
  5
2A6
330
1F
100
AcDbEntity
  8
0
  6
Continuous
 62
     8
370
     0
100
AcDbLine
 10
551.3650971258653
 20
6.597418040279827
 30
0.0
 11
556.6683981954986
 21
9.658948581269279
 31
0.0
  0
LINE
  5
2A7
330
1F
100
AcDbEntity
  8
0
  6
Continuous
 62
     8
370
     0
100
AcDbLine
 10
501.514069442072
 20
190.9258320512915
 30
0.0
 11
496.2107683724386
 21
187.864301510302
 31
0.0
  0
LINE
  5
2A8
330
1F
100
AcDbEntity
  8
0
  6
Continuous
 62
     8
370
     0
100
AcDbLine
 10
555.254184401318
 20
159.9023240392544
 30
0.0
 11
501.514069442072
 21
190.9258320512915
 31
0.0
  0
ARC
  5
2A9
330
1F
100
AcDbEntity
  8
0
  6
Continuous
 62
     8
370
     0
100
AcDbCircle
 10
556.3570185910938
 20
158.1400338342843
 30
0.0
 40
0.7544568811296615
100
AcDbArc
 50
294.3758292382353
 51
354.293757446752
  0
ARC
  5
2AA
330
1F
100
AcDbEntity
  8
0
  6
Continuous
 62
     8
370
     0
100
AcDbCircle
 10
555.688936167361
 20
159.3354994396456
 30
0.0
 40
0.7143523113976742
100
AcDbArc
 50
63.79338085544814
 51
127.4880341784284
  0
ARC
  5
2AB
330
1F
100
AcDbEntity
  8
0
  6
Continuous
 62
     8
370
     0
100
AcDbCircle
 10
556.3570494761417
 20
10.34611506084918
 30
0.0
 40
0.7544108931500407
100
AcDbArc
 50
294.3748366083159
 51
354.3051309768273
  0
ARC
  5
2AC
330
1F
100
AcDbEntity
  8
0
  6
Continuous
 62
     8
370
     0
100
AcDbCircle
 10
501.9534478020629
 20
190.3125023671263
 30
0.0
 40
0.7544711026318387
100
AcDbArc
 50
65.69295227020432
 51
125.6171310285943
  0
ARC
  5
2AD
330
1F
100
AcDbEntity
  8
0
  6
Continuous
 62
     8
370
     0
100
AcDbCircle
 10
500.928232933355
 20
190.1080723141194
 30
0.0
 40
1.005950000092251
100
AcDbArc
 50
54.38249236373958
 51
114.3074243374422
  0
ARC
  5
2AE
330
1F
100
AcDbEntity
  8
0
  6
Continuous
 62
     8
370
     0
100
AcDbCircle
 10
555.7292714885339
 20
9.532281273873473
 30
0.0
 40
0.947630507369549
100
AcDbArc
 50
303.6305205561108
 51
7.681569230779309
  0
LINE
  5
2AF
330
1F
100
AcDbEntity
  8
0
100
AcDbLine
 10
258.9565128013056
 20
487.282035468449
 30
0.0
 11
258.9565128013056
 21
493.4820361121792
 31
0.0
  0
LINE
  5
2B0
330
1F
100
AcDbEntity
  8
0
100
AcDbLine
 10
241.9565132744174
 20
493.4820361121792
 30
0.0
 11
241.9565132744174
 21
487.282035468449
 31
0.0
  0
LINE
  5
2B1
330
1F
100
AcDbEntity
  8
0
100
AcDbLine
 10
258.9565128013056
 20
525.3820359393258
 30
0.0
 11
258.9565128013056
 21
527.2820364370245
 31
0.0
  0
LINE
  5
2B2
330
1F
100
AcDbEntity
  8
0
100
AcDbLine
 10
241.9565132744174
 20
527.2820364370245
 30
0.0
 11
241.9565132744174
 21
525.3820359393258
 31
0.0
  0
LINE
  5
2B3
330
1F
100
AcDbEntity
  8
0
100
AcDbLine
 10
238.956513481171
 20
493.4820361121792
 30
0.0
 11
238.956513481171
 21
492.1820364578861
 31
0.0
  0
LINE
  5
2B4
330
1F
100
AcDbEntity
  8
0
100
AcDbLine
 10
261.9565132930439
 20
492.1820364578861
 30
0.0
 11
261.9565132930439
 21
493.4820361121792
 31
0.0
  0
LINE
  5
2B5
330
1F
100
AcDbEntity
  8
0
100
AcDbLine
 10
261.9565132930439
 20
525.3820359393258
 30
0.0
 11
261.9565132930439
 21
526.6820355936188
 31
0.0
  0
LINE
  5
2B6
330
1F
100
AcDbEntity
  8
0
100
AcDbLine
 10
238.956513481171
 20
526.6820355936188
 30
0.0
 11
238.956513481171
 21
525.3820359393258
 31
0.0
  0
LINE
  5
2B7
330
1F
100
AcDbEntity
  8
0
100
AcDbLine
 10
255.4565131589334
 20
487.282035468449
 30
0.0
 11
251.8871867954295
 21
487.282035468449
 31
0.0
  0
LINE
  5
2B8
330
1F
100
AcDbEntity
  8
0
100
AcDbLine
 10
251.8871867954295
 20
487.282035468449
 30
0.0
 11
251.8871867954295
 21
493.4820361121792
 31
0.0
  0
LINE
  5
2B9
330
1F
100
AcDbEntity
  8
0
100
AcDbLine
 10
251.8871867954295
 20
525.3820359393258
 30
0.0
 11
251.8871867954295
 21
527.2820364370245
 31
0.0
  0
LINE
  5
2BA
330
1F
100
AcDbEntity
  8
0
100
AcDbLine
 10
251.8871867954295
 20
527.2820364370245
 30
0.0
 11
255.4565131589334
 21
527.2820364370245
 31
0.0
  0
LINE
  5
2BB
330
1F
100
AcDbEntity
  8
0
100
AcDbLine
 10
255.4565131589334
 20
527.2820364370245
 30
0.0
 11
255.4565131589334
 21
525.3820359393258
 31
0.0
  0
LINE
  5
2BC
330
1F
100
AcDbEntity
  8
0
100
AcDbLine
 10
255.4565131589334
 20
493.4820361121792
 30
0.0
 11
255.4565131589334
 21
487.282035468449
 31
0.0
  0
LINE
  5
2BD
330
1F
100
AcDbEntity
  8
0
100
AcDbLine
 10
249.0258397459548
 20
527.2820364370245
 30
0.0
 11
249.0258397459548
 21
525.3820359393258
 31
0.0
  0
LINE
  5
2BE
330
1F
100
AcDbEntity
  8
0
100
AcDbLine
 10
249.0258397459548
 20
493.4820361121792
 30
0.0
 11
249.0258397459548
 21
487.282035468449
 31
0.0
  0
LINE
  5
2BF
330
1F
100
AcDbEntity
  8
0
100
AcDbLine
 10
251.8871867954295
 20
527.2820364370245
 30
0.0
 11
249.0258397459548
 21
527.2820364370245
 31
0.0
  0
LINE
  5
2C0
330
1F
100
AcDbEntity
  8
0
100
AcDbLine
 10
251.8871867954295
 20
487.282035468449
 30
0.0
 11
249.0258397459548
 21
487.282035468449
 31
0.0
  0
LINE
  5
2C1
330
1F
100
AcDbEntity
  8
0
100
AcDbLine
 10
245.4565133824509
 20
527.2820364370245
 30
0.0
 11
249.0258397459548
 21
527.2820364370245
 31
0.0
  0
LINE
  5
2C2
330
1F
100
AcDbEntity
  8
0
100
AcDbLine
 10
245.4565133824509
 20
487.282035468449
 30
0.0
 11
245.4565133824509
 21
493.4820361121792
 31
0.0
  0
LINE
  5
2C3
330
1F
100
AcDbEntity
  8
0
100
AcDbLine
 10
245.4565133824509
 20
525.3820359393258
 30
0.0
 11
245.4565133824509
 21
527.2820364370245
 31
0.0
  0
LINE
  5
2C4
330
1F
100
AcDbEntity
  8
0
100
AcDbLine
 10
249.0258397459548
 20
487.282035468449
 30
0.0
 11
245.4565133824509
 21
487.282035468449
 31
0.0
  0
LINE
  5
2C5
330
1F
100
AcDbEntity
  8
0
100
AcDbLine
 10
255.4565131589334
 20
487.282035468449
 30
0.0
 11
258.9565128013056
 21
487.282035468449
 31
0.0
  0
LINE
  5
2C6
330
1F
100
AcDbEntity
  8
0
100
AcDbLine
 10
241.9565132744174
 20
487.282035468449
 30
0.0
 11
245.4565133824509
 21
487.282035468449
 31
0.0
  0
LINE
  5
2C7
330
1F
100
AcDbEntity
  8
0
100
AcDbLine
 10
245.4565133824509
 20
527.2820364370245
 30
0.0
 11
241.9565132744174
 21
527.2820364370245
 31
0.0
  0
LINE
  5
2C8
330
1F
100
AcDbEntity
  8
0
100
AcDbLine
 10
258.9565128013056
 20
527.2820364370245
 30
0.0
 11
255.4565131589334
 21
527.2820364370245
 31
0.0
  0
CIRCLE
  5
2C9
330
1F
100
AcDbEntity
  8
0
100
AcDbCircle
 10
264.9565134721178
 20
519.8820361254758
 30
0.0
 40
1.500000000000012
  0
LINE
  5
2CA
330
1F
100
AcDbEntity
  8
0
100
AcDbLine
 10
265.8615674748581
 20
519.1649501829643
 30
0.0
 11
266.0300549044769
 21
520.3072927578587
 31
0.0
  0
LINE
  5
2CB
330
1F
100
AcDbEntity
  8
0
100
AcDbLine
 10
266.0300549044769
 20
520.3072927578587
 30
0.0
 11
265.125001214401
 21
521.0243785440225
 31
0.0
  0
LINE
  5
2CC
330
1F
100
AcDbEntity
  8
0
100
AcDbLine
 10
265.125001214401
 20
521.0243785440225
 30
0.0
 11
264.0514600947063
 21
520.5991217552919
 31
0.0
  0
LINE
  5
2CD
330
1F
100
AcDbEntity
  8
0
100
AcDbLine
 10
264.0514600947063
 20
520.5991217552919
 30
0.0
 11
263.8829726650875
 21
519.4567791803975
 31
0.0
  0
LINE
  5
2CE
330
1F
100
AcDbEntity
  8
0
100
AcDbLine
 10
263.8829726650875
 20
519.4567791803975
 30
0.0
 11
264.7880263551634
 21
518.7396943255562
 31
0.0
  0
LINE
  5
2CF
330
1F
100
AcDbEntity
  8
0
100
AcDbLine
 10
264.7880263551634
 20
518.7396943255562
 30
0.0
 11
265.8615674748581
 21
519.1649501829643
 31
0.0
  0
LINE
  5
2D0
330
1F
100
AcDbEntity
  8
0
100
AcDbLine
 10
258.9565128013056
 20
492.1820364578861
 30
0.0
 11
261.9565132930439
 21
492.1820364578861
 31
0.0
  0
LINE
  5
2D1
330
1F
100
AcDbEntity
  8
0
100
AcDbLine
 10
238.956513481171
 20
492.1820364578861
 30
0.0
 11
241.9565132744174
 21
492.1820364578861
 31
0.0
  0
LINE
  5
2D2
330
1F
100
AcDbEntity
  8
0
100
AcDbLine
 10
241.9565132744174
 20
526.6820355936188
 30
0.0
 11
238.956513481171
 21
526.6820355936188
 31
0.0
  0
LINE
  5
2D3
330
1F
100
AcDbEntity
  8
0
100
AcDbLine
 10
261.9565132930439
 20
526.6820355936188
 30
0.0
 11
258.9565128013056
 21
526.6820355936188
 31
0.0
  0
LINE
  5
2D4
330
1F
100
AcDbEntity
  8
0
100
AcDbLine
 10
208.9565139188927
 20
511.782036224683
 30
0.0
 11
203.9565149619739
 21
510.9004011064071
 31
0.0
  0
LINE
  5
2D5
330
1F
100
AcDbEntity
  8
0
100
AcDbLine
 10
208.9565139188927
 20
511.782036224683
 30
0.0
 11
214.9565130397241
 21
511.782036224683
 31
0.0
  0
LINE
  5
2D6
330
1F
100
AcDbEntity
  8
0
100
AcDbLine
 10
203.9565149619739
 20
503.6636707990665
 30
0.0
 11
203.9565149619739
 21
510.9004011064071
 31
0.0
  0
LINE
  5
2D7
330
1F
100
AcDbEntity
  8
0
100
AcDbLine
 10
203.9565149619739
 20
503.6636707990665
 30
0.0
 11
208.9565139188927
 21
502.7820361464519
 31
0.0
  0
LINE
  5
2D8
330
1F
100
AcDbEntity
  8
0
100
AcDbLine
 10
208.9565139188927
 20
502.7820361464519
 30
0.0
 11
214.9565130397241
 21
502.7820361464519
 31
0.0
  0
LINE
  5
2D9
330
1F
100
AcDbEntity
  8
0
100
AcDbLine
 10
215.9565132036369
 20
514.4820362947185
 30
0.0
 11
215.9565132036369
 21
516.382036326756
 31
0.0
  0
LINE
  5
2DA
330
1F
100
AcDbEntity
  8
0
100
AcDbLine
 10
217.9565135314625
 20
514.4820362947185
 30
0.0
 11
215.9565132036369
 21
514.4820362947185
 31
0.0
  0
LINE
  5
2DB
330
1F
100
AcDbEntity
  8
0
100
AcDbLine
 10
217.9565135314625
 20
514.4820362947185
 30
0.0
 11
289.9565141573112
 21
514.4820362947185
 31
0.0
  0
LINE
  5
2DC
330
1F
100
AcDbEntity
  8
0
100
AcDbLine
 10
293.9565148129623
 20
516.382036326756
 30
0.0
 11
293.9565148129623
 21
514.4820362947185
 31
0.0
  0
LINE
  5
2DD
330
1F
100
AcDbEntity
  8
0
100
AcDbLine
 10
293.9565148129623
 20
514.4820362947185
 30
0.0
 11
289.9565141573112
 21
514.4820362947185
 31
0.0
  0
LINE
  5
2DE
330
1F
100
AcDbEntity
  8
0
100
AcDbLine
 10
217.9565135314625
 20
504.4820360525746
 30
0.0
 11
289.9565141573112
 21
504.4820360525746
 31
0.0
  0
LINE
  5
2DF
330
1F
100
AcDbEntity
  8
0
100
AcDbLine
 10
215.9565132036369
 20
504.0820360335756
 30
0.0
 11
215.9565132036369
 21
504.4820360525746
 31
0.0
  0
LINE
  5
2E0
330
1F
100
AcDbEntity
  8
0
100
AcDbLine
 10
215.9565132036369
 20
504.4820360525746
 30
0.0
 11
217.9565135314625
 21
504.4820360525746
 31
0.0
  0
LINE
  5
2E1
330
1F
100
AcDbEntity
  8
0
100
AcDbLine
 10
293.9565148129623
 20
504.4820360525746
 30
0.0
 11
293.9565148129623
 21
504.0820360335756
 31
0.0
  0
LINE
  5
2E2
330
1F
100
AcDbEntity
  8
0
100
AcDbLine
 10
289.9565141573112
 20
504.4820360525746
 30
0.0
 11
293.9565148129623
 21
504.4820360525746
 31
0.0
  0
LINE
  5
2E3
330
1F
100
AcDbEntity
  8
0
100
AcDbLine
 10
216.4565142169159
 20
493.4820361121792
 30
0.0
 11
216.9565133675497
 21
493.4820361121792
 31
0.0
  0
ARC
  5
2E4
330
1F
100
AcDbEntity
  8
0
100
AcDbCircle
 10
216.4565134721178
 20
494.9820361254759
 30
0.0
 40
1.500000000000028
100
AcDbArc
 50
180.0
 51
270.0000000000011
  0
LINE
  5
2E5
330
1F
100
AcDbEntity
  8
0
100
AcDbLine
 10
292.9565127864044
 20
493.4820361121792
 30
0.0
 11
216.9565133675497
 21
493.4820361121792
 31
0.0
  0
LINE
  5
2E6
330
1F
100
AcDbEntity
  8
0
100
AcDbLine
 10
216.9565133675497
 20
504.0820360335756
 30
0.0
 11
292.9565127864044
 21
504.0820360335756
 31
0.0
  0
LINE
  5
2E7
330
1F
100
AcDbEntity
  8
0
100
AcDbLine
 10
214.9565130397241
 20
494.9820363580483
 30
0.0
 11
214.9565130397241
 21
504.0820360335756
 31
0.0
  0
LINE
  5
2E8
330
1F
100
AcDbEntity
  8
0
100
AcDbLine
 10
214.9565130397241
 20
504.0820360335756
 30
0.0
 11
216.9565133675497
 21
504.0820360335756
 31
0.0
  0
LINE
  5
2E9
330
1F
100
AcDbEntity
  8
0
100
AcDbLine
 10
292.9565127864044
 20
493.4820361121792
 30
0.0
 11
293.4565137996834
 21
493.4820361121792
 31
0.0
  0
ARC
  5
2EA
330
1F
100
AcDbEntity
  8
0
100
AcDbCircle
 10
293.4565134721178
 20
494.9820361254759
 30
0.0
 40
1.5
100
AcDbArc
 50
270.0
 51
0.0
  0
LINE
  5
2EB
330
1F
100
AcDbEntity
  8
0
100
AcDbLine
 10
294.9565131142299
 20
504.0820360335756
 30
0.0
 11
294.9565131142299
 21
494.9820363580483
 31
0.0
  0
LINE
  5
2EC
330
1F
100
AcDbEntity
  8
0
100
AcDbLine
 10
292.9565127864044
 20
504.0820360335756
 30
0.0
 11
294.9565131142299
 21
504.0820360335756
 31
0.0
  0
LINE
  5
2ED
330
1F
100
AcDbEntity
  8
0
100
AcDbLine
 10
214.9565130397241
 20
516.2820364966292
 30
0.0
 11
215.9565132036369
 21
516.2820364966292
 31
0.0
  0
LINE
  5
2EE
330
1F
100
AcDbEntity
  8
0
100
AcDbLine
 10
214.9565130397241
 20
516.2820364966292
 30
0.0
 11
214.9565130397241
 21
504.0820360335756
 31
0.0
  0
LINE
  5
2EF
330
1F
100
AcDbEntity
  8
0
100
AcDbLine
 10
284.9565152003925
 20
514.4820362947185
 30
0.0
 11
284.9565152003925
 21
504.4820360525746
 31
0.0
  0
LINE
  5
2F0
330
1F
100
AcDbEntity
  8
0
100
AcDbLine
 10
292.9565127864044
 20
516.382036326756
 30
0.0
 11
216.9565133675497
 21
516.382036326756
 31
0.0
  0
CIRCLE
  5
2F1
330
1F
100
AcDbEntity
  8
0
100
AcDbCircle
 10
264.9565134721178
 20
519.8820361254758
 30
0.0
 40
1.649999999999949
  0
LINE
  5
2F2
330
1F
100
AcDbEntity
  8
0
100
AcDbLine
 10
294.9565131142299
 20
523.8820366247792
 30
0.0
 11
294.9565131142299
 21
516.382036326756
 31
0.0
  0
LINE
  5
2F3
330
1F
100
AcDbEntity
  8
0
100
AcDbLine
 10
294.9565131142299
 20
516.382036326756
 30
0.0
 11
292.9565127864044
 21
516.382036326756
 31
0.0
  0
LINE
  5
2F4
330
1F
100
AcDbEntity
  8
0
100
AcDbLine
 10
293.4565137996834
 20
525.3820359393258
 30
0.0
 11
292.9565127864044
 21
525.3820359393258
 31
0.0
  0
ARC
  5
2F5
330
1F
100
AcDbEntity
  8
0
100
AcDbCircle
 10
293.4565134721178
 20
523.8820361254758
 30
0.0
 40
1.5
100
AcDbArc
 50
0.0
 51
90.0
  0
LINE
  5
2F6
330
1F
100
AcDbEntity
  8
0
100
AcDbLine
 10
216.9565133675497
 20
525.3820359393258
 30
0.0
 11
292.9565127864044
 21
525.3820359393258
 31
0.0
  0
LINE
  5
2F7
330
1F
100
AcDbEntity
  8
0
100
AcDbLine
 10
214.9565130397241
 20
516.382036326756
 30
0.0
 11
214.9565130397241
 21
523.8820366247792
 31
0.0
  0
LINE
  5
2F8
330
1F
100
AcDbEntity
  8
0
100
AcDbLine
 10
216.9565133675497
 20
516.382036326756
 30
0.0
 11
214.9565130397241
 21
516.382036326756
 31
0.0
  0
ARC
  5
2F9
330
1F
100
AcDbEntity
  8
0
100
AcDbCircle
 10
216.4565134721177
 20
523.8820361254758
 30
0.0
 40
1.5
100
AcDbArc
 50
90.0
 51
180.0
  0
LINE
  5
2FA
330
1F
100
AcDbEntity
  8
0
100
AcDbLine
 10
216.9565133675497
 20
525.3820359393258
 30
0.0
 11
216.4565142169159
 21
525.3820359393258
 31
0.0
  0
LINE
  5
2FB
330
1F
100
AcDbEntity
  8
0
  6
Continuous
 62
     8
370
     0
100
AcDbLine
 10
217.9565135314625
 20
516.382036326756
 30
0.0
 11
217.9565135314625
 21
514.4820362947185
 31
0.0
  0
LINE
  5
2FC
330
1F
100
AcDbEntity
  8
0
  6
Continuous
 62
     8
370
     0
100
AcDbLine
 10
289.9565141573112
 20
514.4820362947185
 30
0.0
 11
289.9565141573112
 21
516.382036326756
 31
0.0
  0
LINE
  5
2FD
330
1F
100
AcDbEntity
  8
0
  6
Continuous
 62
     8
370
     0
100
AcDbLine
 10
289.9565141573112
 20
504.0820360335756
 30
0.0
 11
289.9565141573112
 21
504.4820360525746
 31
0.0
  0
LINE
  5
2FE
330
1F
100
AcDbEntity
  8
0
  6
Continuous
 62
     8
370
     0
100
AcDbLine
 10
217.9565135314625
 20
504.4820360525746
 30
0.0
 11
217.9565135314625
 21
504.0820360335756
 31
0.0
  0
LINE
  5
2FF
330
1F
100
AcDbEntity
  8
0
  6
Continuous
 62
     8
370
     0
100
AcDbLine
 10
216.9565133675497
 20
494.9820363580483
 30
0.0
 11
214.9565130397241
 21
494.9820363580483
 31
0.0
  0
LINE
  5
300
330
1F
100
AcDbEntity
  8
0
  6
Continuous
 62
     8
370
     0
100
AcDbLine
 10
216.9565133675497
 20
494.9820363580483
 30
0.0
 11
216.9565133675497
 21
493.4820361121792
 31
0.0
  0
LINE
  5
301
330
1F
100
AcDbEntity
  8
0
  6
Continuous
 62
     8
370
     0
100
AcDbLine
 10
292.9565127864044
 20
493.4820361121792
 30
0.0
 11
292.9565127864044
 21
494.9820363580483
 31
0.0
  0
LINE
  5
302
330
1F
100
AcDbEntity
  8
0
  6
Continuous
 62
     8
370
     0
100
AcDbLine
 10
216.9565133675497
 20
494.9820363580483
 30
0.0
 11
292.9565127864044
 21
494.9820363580483
 31
0.0
  0
LINE
  5
303
330
1F
100
AcDbEntity
  8
0
  6
Continuous
 62
     8
370
     0
100
AcDbLine
 10
292.9565127864044
 20
494.9820363580483
 30
0.0
 11
292.9565127864044
 21
504.0820360335756
 31
0.0
  0
LINE
  5
304
330
1F
100
AcDbEntity
  8
0
  6
Continuous
 62
     8
370
     0
100
AcDbLine
 10
216.9565133675497
 20
504.0820360335756
 30
0.0
 11
216.9565133675497
 21
494.9820363580483
 31
0.0
  0
LINE
  5
305
330
1F
100
AcDbEntity
  8
0
  6
Continuous
 62
     8
370
     0
100
AcDbLine
 10
294.9565131142299
 20
494.9820363580483
 30
0.0
 11
292.9565127864044
 21
494.9820363580483
 31
0.0
  0
LINE
  5
306
330
1F
100
AcDbEntity
  8
0
  6
Continuous
 62
     8
370
     0
100
AcDbLine
 10
277.4565149023693
 20
504.4820360525746
 30
0.0
 11
277.4565149023693
 21
514.4820362947185
 31
0.0
  0
LINE
  5
307
330
1F
100
AcDbEntity
  8
0
  6
Continuous
 62
     8
370
     0
100
AcDbLine
 10
292.9565127864044
 20
516.382036326756
 30
0.0
 11
292.9565127864044
 21
523.8820366247792
 31
0.0
  0
LINE
  5
308
330
1F
100
AcDbEntity
  8
0
  6
Continuous
 62
     8
370
     0
100
AcDbLine
 10
216.9565133675497
 20
523.8820366247792
 30
0.0
 11
216.9565133675497
 21
516.382036326756
 31
0.0
  0
LINE
  5
309
330
1F
100
AcDbEntity
  8
0
  6
Continuous
 62
     8
370
     0
100
AcDbLine
 10
292.9565127864044
 20
523.8820366247792
 30
0.0
 11
216.9565133675497
 21
523.8820366247792
 31
0.0
  0
LINE
  5
30A
330
1F
100
AcDbEntity
  8
0
  6
Continuous
 62
     8
370
     0
100
AcDbLine
 10
292.9565127864044
 20
523.8820366247792
 30
0.0
 11
294.9565131142299
 21
523.8820366247792
 31
0.0
  0
LINE
  5
30B
330
1F
100
AcDbEntity
  8
0
  6
Continuous
 62
     8
370
     0
100
AcDbLine
 10
292.9565127864044
 20
523.8820366247792
 30
0.0
 11
292.9565127864044
 21
525.3820359393258
 31
0.0
  0
LINE
  5
30C
330
1F
100
AcDbEntity
  8
0
  6
Continuous
 62
     8
370
     0
100
AcDbLine
 10
216.9565133675497
 20
525.3820359393258
 30
0.0
 11
216.9565133675497
 21
523.8820366247792
 31
0.0
  0
LINE
  5
30D
330
1F
100
AcDbEntity
  8
0
  6
Continuous
 62
     8
370
     0
100
AcDbLine
 10
214.9565130397241
 20
523.8820366247792
 30
0.0
 11
216.9565133675497
 21
523.8820366247792
 31
0.0
  0
LINE
  5
30E
330
1F
100
AcDbEntity
  8
0
100
AcDbLine
 10
241.9565132744174
 20
198.8633162658662
 30
0.0
 11
241.9565132744174
 21
193.9633152764291
 31
0.0
  0
LINE
  5
30F
330
1F
100
AcDbEntity
  8
0
100
AcDbLine
 10
258.9565128013056
 20
193.9633152764291
 30
0.0
 11
258.9565128013056
 21
198.8633162658662
 31
0.0
  0
LINE
  5
310
330
1F
100
AcDbEntity
  8
0
100
AcDbLine
 10
241.9565132744174
 20
159.4633161406964
 30
0.0
 11
241.9565132744174
 21
158.8633152972907
 31
0.0
  0
LINE
  5
311
330
1F
100
AcDbEntity
  8
0
100
AcDbLine
 10
258.9565128013056
 20
158.8633152972907
 30
0.0
 11
258.9565128013056
 21
159.4633161406964
 31
0.0
  0
LINE
  5
312
330
1F
100
AcDbEntity
  8
0
100
AcDbLine
 10
261.9565132930439
 20
192.663315622136
 30
0.0
 11
261.9565132930439
 21
193.9633152764291
 31
0.0
  0
LINE
  5
313
330
1F
100
AcDbEntity
  8
0
100
AcDbLine
 10
238.956513481171
 20
193.9633152764291
 30
0.0
 11
238.956513481171
 21
192.663315622136
 31
0.0
  0
LINE
  5
314
330
1F
100
AcDbEntity
  8
0
100
AcDbLine
 10
238.956513481171
 20
160.7633157949895
 30
0.0
 11
238.956513481171
 21
159.4633161406964
 31
0.0
  0
LINE
  5
315
330
1F
100
AcDbEntity
  8
0
100
AcDbLine
 10
261.9565132930439
 20
159.4633161406964
 30
0.0
 11
261.9565132930439
 21
160.7633157949895
 31
0.0
  0
LINE
  5
316
330
1F
100
AcDbEntity
  8
0
100
AcDbLine
 10
258.9565128013056
 20
198.8633162658662
 30
0.0
 11
241.9565132744174
 21
198.8633162658662
 31
0.0
  0
LINE
  5
317
330
1F
100
AcDbEntity
  8
0
100
AcDbLine
 10
241.9565132744174
 20
158.8633152972907
 30
0.0
 11
258.9565128013056
 21
158.8633152972907
 31
0.0
  0
LINE
  5
318
330
1F
100
AcDbEntity
  8
0
100
AcDbLine
 10
261.9565132930439
 20
193.9633152764291
 30
0.0
 11
238.956513481171
 21
193.9633152764291
 31
0.0
  0
LINE
  5
319
330
1F
100
AcDbEntity
  8
0
100
AcDbLine
 10
238.956513481171
 20
159.4633161406964
 30
0.0
 11
261.9565132930439
 21
159.4633161406964
 31
0.0
  0
LINE
  5
31A
330
1F
100
AcDbEntity
  8
0
100
AcDbLine
 10
208.9565139188927
 20
174.3633155096323
 30
0.0
 11
214.9565130397241
 21
174.3633155096323
 31
0.0
  0
LINE
  5
31B
330
1F
100
AcDbEntity
  8
0
100
AcDbLine
 10
203.9565149619739
 20
175.2449506279081
 30
0.0
 11
208.9565139188927
 21
174.3633155096323
 31
0.0
  0
LINE
  5
31C
330
1F
100
AcDbEntity
  8
0
100
AcDbLine
 10
203.9565149619739
 20
175.2449506279081
 30
0.0
 11
203.9565149619739
 21
182.4816809352488
 31
0.0
  0
LINE
  5
31D
330
1F
100
AcDbEntity
  8
0
100
AcDbLine
 10
208.9565139188927
 20
183.3633155878634
 30
0.0
 11
203.9565149619739
 21
182.4816809352488
 31
0.0
  0
LINE
  5
31E
330
1F
100
AcDbEntity
  8
0
100
AcDbLine
 10
208.9565139188927
 20
183.3633155878634
 30
0.0
 11
214.9565130397241
 21
183.3633155878634
 31
0.0
  0
LINE
  5
31F
330
1F
100
AcDbEntity
  8
0
100
AcDbLine
 10
289.9565141573112
 20
171.6633154395968
 30
0.0
 11
217.9565135314625
 21
171.6633154395968
 31
0.0
  0
LINE
  5
320
330
1F
100
AcDbEntity
  8
0
100
AcDbLine
 10
293.9565148129623
 20
171.6633154395968
 30
0.0
 11
293.9565148129623
 21
169.7633154075593
 31
0.0
  0
LINE
  5
321
330
1F
100
AcDbEntity
  8
0
100
AcDbLine
 10
289.9565141573112
 20
171.6633154395968
 30
0.0
 11
293.9565148129623
 21
171.6633154395968
 31
0.0
  0
LINE
  5
322
330
1F
100
AcDbEntity
  8
0
100
AcDbLine
 10
215.9565132036369
 20
169.7633154075593
 30
0.0
 11
215.9565132036369
 21
171.6633154395968
 31
0.0
  0
LINE
  5
323
330
1F
100
AcDbEntity
  8
0
100
AcDbLine
 10
215.9565132036369
 20
171.6633154395968
 30
0.0
 11
217.9565135314625
 21
171.6633154395968
 31
0.0
  0
LINE
  5
324
330
1F
100
AcDbEntity
  8
0
100
AcDbLine
 10
289.9565141573112
 20
181.6633156817407
 30
0.0
 11
217.9565135314625
 21
181.6633156817407
 31
0.0
  0
LINE
  5
325
330
1F
100
AcDbEntity
  8
0
100
AcDbLine
 10
293.9565148129623
 20
182.0633157007397
 30
0.0
 11
293.9565148129623
 21
181.6633156817407
 31
0.0
  0
LINE
  5
326
330
1F
100
AcDbEntity
  8
0
100
AcDbLine
 10
293.9565148129623
 20
181.6633156817407
 30
0.0
 11
289.9565141573112
 21
181.6633156817407
 31
0.0
  0
LINE
  5
327
330
1F
100
AcDbEntity
  8
0
100
AcDbLine
 10
215.9565132036369
 20
181.6633156817407
 30
0.0
 11
215.9565132036369
 21
182.0633157007397
 31
0.0
  0
LINE
  5
328
330
1F
100
AcDbEntity
  8
0
100
AcDbLine
 10
217.9565135314625
 20
181.6633156817407
 30
0.0
 11
215.9565132036369
 21
181.6633156817407
 31
0.0
  0
LINE
  5
329
330
1F
100
AcDbEntity
  8
0
100
AcDbLine
 10
293.4565137996834
 20
192.663315622136
 30
0.0
 11
292.9565127864044
 21
192.663315622136
 31
0.0
  0
ARC
  5
32A
330
1F
100
AcDbEntity
  8
0
100
AcDbCircle
 10
293.4565134721177
 20
191.1633156088393
 30
0.0
 40
1.5
100
AcDbArc
 50
0.0
 51
90.0
  0
LINE
  5
32B
330
1F
100
AcDbEntity
  8
0
100
AcDbLine
 10
216.9565133675497
 20
192.663315622136
 30
0.0
 11
292.9565127864044
 21
192.663315622136
 31
0.0
  0
LINE
  5
32C
330
1F
100
AcDbEntity
  8
0
100
AcDbLine
 10
292.9565127864044
 20
182.0633157007397
 30
0.0
 11
216.9565133675497
 21
182.0633157007397
 31
0.0
  0
LINE
  5
32D
330
1F
100
AcDbEntity
  8
0
100
AcDbLine
 10
294.9565131142299
 20
191.1633153762669
 30
0.0
 11
294.9565131142299
 21
182.0633157007397
 31
0.0
  0
LINE
  5
32E
330
1F
100
AcDbEntity
  8
0
100
AcDbLine
 10
294.9565131142299
 20
182.0633157007397
 30
0.0
 11
292.9565127864044
 21
182.0633157007397
 31
0.0
  0
ARC
  5
32F
330
1F
100
AcDbEntity
  8
0
100
AcDbCircle
 10
216.4565134721177
 20
191.1633156088393
 30
0.0
 40
1.5
100
AcDbArc
 50
90.0
 51
180.0
  0
LINE
  5
330
330
1F
100
AcDbEntity
  8
0
100
AcDbLine
 10
216.9565133675497
 20
192.663315622136
 30
0.0
 11
216.4565142169159
 21
192.663315622136
 31
0.0
  0
LINE
  5
331
330
1F
100
AcDbEntity
  8
0
100
AcDbLine
 10
214.9565130397241
 20
182.0633157007397
 30
0.0
 11
214.9565130397241
 21
191.1633153762669
 31
0.0
  0
LINE
  5
332
330
1F
100
AcDbEntity
  8
0
100
AcDbLine
 10
216.9565133675497
 20
182.0633157007397
 30
0.0
 11
214.9565130397241
 21
182.0633157007397
 31
0.0
  0
LINE
  5
333
330
1F
100
AcDbEntity
  8
0
100
AcDbLine
 10
215.9565132036369
 20
169.8633152376861
 30
0.0
 11
214.9565130397241
 21
169.8633152376861
 31
0.0
  0
LINE
  5
334
330
1F
100
AcDbEntity
  8
0
100
AcDbLine
 10
214.9565130397241
 20
169.8633152376861
 30
0.0
 11
214.9565130397241
 21
182.0633157007397
 31
0.0
  0
LINE
  5
335
330
1F
100
AcDbEntity
  8
0
100
AcDbLine
 10
284.9565152003925
 20
181.6633156817407
 30
0.0
 11
284.9565152003925
 21
171.6633154395968
 31
0.0
  0
LINE
  5
336
330
1F
100
AcDbEntity
  8
0
100
AcDbLine
 10
216.9565133675497
 20
169.7633154075593
 30
0.0
 11
292.9565127864044
 21
169.7633154075593
 31
0.0
  0
LINE
  5
337
330
1F
100
AcDbEntity
  8
0
100
AcDbLine
 10
214.9565130397241
 20
162.2633151095361
 30
0.0
 11
214.9565130397241
 21
169.7633154075593
 31
0.0
  0
LINE
  5
338
330
1F
100
AcDbEntity
  8
0
100
AcDbLine
 10
214.9565130397241
 20
169.7633154075593
 30
0.0
 11
216.9565133675497
 21
169.7633154075593
 31
0.0
  0
LINE
  5
339
330
1F
100
AcDbEntity
  8
0
100
AcDbLine
 10
294.9565131142299
 20
169.7633154075593
 30
0.0
 11
294.9565131142299
 21
162.2633151095361
 31
0.0
  0
LINE
  5
33A
330
1F
100
AcDbEntity
  8
0
100
AcDbLine
 10
292.9565127864044
 20
169.7633154075593
 30
0.0
 11
294.9565131142299
 21
169.7633154075593
 31
0.0
  0
LINE
  5
33B
330
1F
100
AcDbEntity
  8
0
100
AcDbLine
 10
216.4565142169159
 20
160.7633157949895
 30
0.0
 11
216.9565133675497
 21
160.7633157949895
 31
0.0
  0
ARC
  5
33C
330
1F
100
AcDbEntity
  8
0
100
AcDbCircle
 10
216.4565134721178
 20
162.2633156088393
 30
0.0
 40
1.5
100
AcDbArc
 50
180.0
 51
270.0000000000011
  0
LINE
  5
33D
330
1F
100
AcDbEntity
  8
0
100
AcDbLine
 10
292.9565127864044
 20
160.7633157949895
 30
0.0
 11
216.9565133675497
 21
160.7633157949895
 31
0.0
  0
LINE
  5
33E
330
1F
100
AcDbEntity
  8
0
100
AcDbLine
 10
292.9565127864044
 20
160.7633157949895
 30
0.0
 11
293.4565137996834
 21
160.7633157949895
 31
0.0
  0
ARC
  5
33F
330
1F
100
AcDbEntity
  8
0
100
AcDbCircle
 10
293.4565134721178
 20
162.2633156088393
 30
0.0
 40
1.5
100
AcDbArc
 50
270.0
 51
0.0
  0
LINE
  5
340
330
1F
100
AcDbEntity
  8
0
  6
Continuous
 62
     8
370
     0
100
AcDbLine
 10
289.9565141573112
 20
169.7633154075593
 30
0.0
 11
289.9565141573112
 21
171.6633154395968
 31
0.0
  0
LINE
  5
341
330
1F
100
AcDbEntity
  8
0
  6
Continuous
 62
     8
370
     0
100
AcDbLine
 10
217.9565135314625
 20
171.6633154395968
 30
0.0
 11
217.9565135314625
 21
169.7633154075593
 31
0.0
  0
LINE
  5
342
330
1F
100
AcDbEntity
  8
0
  6
Continuous
 62
     8
370
     0
100
AcDbLine
 10
289.9565141573112
 20
181.6633156817407
 30
0.0
 11
289.9565141573112
 21
182.0633157007397
 31
0.0
  0
LINE
  5
343
330
1F
100
AcDbEntity
  8
0
  6
Continuous
 62
     8
370
     0
100
AcDbLine
 10
217.9565135314625
 20
182.0633157007397
 30
0.0
 11
217.9565135314625
 21
181.6633156817407
 31
0.0
  0
LINE
  5
344
330
1F
100
AcDbEntity
  8
0
  6
Continuous
 62
     8
370
     0
100
AcDbLine
 10
292.9565127864044
 20
191.1633153762669
 30
0.0
 11
294.9565131142299
 21
191.1633153762669
 31
0.0
  0
LINE
  5
345
330
1F
100
AcDbEntity
  8
0
  6
Continuous
 62
     8
370
     0
100
AcDbLine
 10
292.9565127864044
 20
191.1633153762669
 30
0.0
 11
292.9565127864044
 21
192.663315622136
 31
0.0
  0
LINE
  5
346
330
1F
100
AcDbEntity
  8
0
  6
Continuous
 62
     8
370
     0
100
AcDbLine
 10
216.9565133675497
 20
192.663315622136
 30
0.0
 11
216.9565133675497
 21
191.1633153762669
 31
0.0
  0
LINE
  5
347
330
1F
100
AcDbEntity
  8
0
  6
Continuous
 62
     8
370
     0
100
AcDbLine
 10
292.9565127864044
 20
191.1633153762669
 30
0.0
 11
216.9565133675497
 21
191.1633153762669
 31
0.0
  0
LINE
  5
348
330
1F
100
AcDbEntity
  8
0
  6
Continuous
 62
     8
370
     0
100
AcDbLine
 10
292.9565127864044
 20
182.0633157007397
 30
0.0
 11
292.9565127864044
 21
191.1633153762669
 31
0.0
  0
LINE
  5
349
330
1F
100
AcDbEntity
  8
0
  6
Continuous
 62
     8
370
     0
100
AcDbLine
 10
216.9565133675497
 20
191.1633153762669
 30
0.0
 11
216.9565133675497
 21
182.0633157007397
 31
0.0
  0
LINE
  5
34A
330
1F
100
AcDbEntity
  8
0
  6
Continuous
 62
     8
370
     0
100
AcDbLine
 10
214.9565130397241
 20
191.1633153762669
 30
0.0
 11
216.9565133675497
 21
191.1633153762669
 31
0.0
  0
LINE
  5
34B
330
1F
100
AcDbEntity
  8
0
  6
Continuous
 62
     8
370
     0
100
AcDbLine
 10
277.4565149023693
 20
171.6633154395968
 30
0.0
 11
277.4565149023693
 21
181.6633156817407
 31
0.0
  0
LINE
  5
34C
330
1F
100
AcDbEntity
  8
0
  6
Continuous
 62
     8
370
     0
100
AcDbLine
 10
292.9565127864044
 20
162.2633151095361
 30
0.0
 11
292.9565127864044
 21
169.7633154075593
 31
0.0
  0
LINE
  5
34D
330
1F
100
AcDbEntity
  8
0
  6
Continuous
 62
     8
370
     0
100
AcDbLine
 10
216.9565133675497
 20
162.2633151095361
 30
0.0
 11
292.9565127864044
 21
162.2633151095361
 31
0.0
  0
LINE
  5
34E
330
1F
100
AcDbEntity
  8
0
  6
Continuous
 62
     8
370
     0
100
AcDbLine
 10
216.9565133675497
 20
169.7633154075593
 30
0.0
 11
216.9565133675497
 21
162.2633151095361
 31
0.0
  0
LINE
  5
34F
330
1F
100
AcDbEntity
  8
0
  6
Continuous
 62
     8
370
     0
100
AcDbLine
 10
216.9565133675497
 20
162.2633151095361
 30
0.0
 11
214.9565130397241
 21
162.2633151095361
 31
0.0
  0
LINE
  5
350
330
1F
100
AcDbEntity
  8
0
  6
Continuous
 62
     8
370
     0
100
AcDbLine
 10
294.9565131142299
 20
162.2633151095361
 30
0.0
 11
292.9565127864044
 21
162.2633151095361
 31
0.0
  0
LINE
  5
351
330
1F
100
AcDbEntity
  8
0
  6
Continuous
 62
     8
370
     0
100
AcDbLine
 10
216.9565133675497
 20
162.2633151095361
 30
0.0
 11
216.9565133675497
 21
160.7633157949895
 31
0.0
  0
LINE
  5
352
330
1F
100
AcDbEntity
  8
0
  6
Continuous
 62
     8
370
     0
100
AcDbLine
 10
292.9565127864044
 20
160.7633157949895
 30
0.0
 11
292.9565127864044
 21
162.2633151095361
 31
0.0
  0
LWPOLYLINE
  5
39F
330
1F
100
AcDbEntity
  8
0
  6
HIDDEN
 62
     1
 48
0.2
100
AcDbPolyline
 90
        6
 70
     0
 43
0.0
 10
214.9565130397241
 20
424.8077880226142
 10
279.9565130397242
 20
424.8077880226142
 42
-0.414213562373095
 10
287.9565130397242
 20
416.8077880226142
 10
287.9565130397242
 20
270.8077880226142
 42
-0.414213562373095
 10
279.9565130397242
 20
262.8077880226142
 10
214.9565130397241
 20
262.8077880226142
  0
TEXT
  5
3A0
330
1F
100
AcDbEntity
  8
0
  6
Continuous
 62
     7
370
     0
100
AcDbText
 10
286.0387109369003
 20
556.3423368348292
 30
0.0
 40
21.0
  1
623E10
100
AcDbText
  0
LWPOLYLINE
  5
3A1
330
1F
100
AcDbEntity
  8
0
  6
HIDDEN
 62
     1
 48
0.2
100
AcDbPolyline
 90
        6
 70
     0
 43
0.0
 10
648.8695370196311
 20
424.8077880226142
 10
583.869537019631
 20
424.8077880226142
 42
0.414213562373095
 10
575.869537019631
 20
416.8077880226142
 10
575.869537019631
 20
270.8077880226142
 42
0.414213562373095
 10
583.869537019631
 20
262.8077880226142
 10
648.8695370196311
 20
262.8077880226142
  0
DIMENSION
  5
3EA
102
{ACAD_XDICTIONARY
360
3EB
102
}
330
1F
100
AcDbEntity
  8
0
100
AcDbDimension
280
     0
  2
*D5
 10
310.0972486534656
 20
181.7633157446981
 30
0.0
 11
306.4972486534656
 21
176.7133155921474
 31
0.0
 70
    32
 71
     5
 42
10.10000030510128
 73
     0
 74
     0
 75
     0
  3
ISO-25
100
AcDbAlignedDimension
 13
293.9565148129623
 23
171.6633154395968
 33
0.0
 14
294.8565131142299
 24
181.7633157446981
 34
0.0
 50
90.0
100
AcDbRotatedDimension
1001
ACAD
1000
DSTYLE
1002
{
1070
   176
1070
     1
1070
   177
1070
     1
1070
   271
1070
     0
1070
    77
1070
     1
1070
   280
1070
     0
1070
   179
1070
     2
1070
   143
1040
0.0393700787401575
1070
    41
1040
3.2
1070
    44
1040
1.0
1070
    42
1040
0.1
1070
   147
1040
2.0
1070
    73
1070
     0
1070
    74
1070
     1
1070
   140
1040
3.2
1070
   284
1070
     0
1070
    78
1070
     0
1002
}
  0
DIMENSION
  5
3ED
102
{ACAD_XDICTIONARY
360
3EE
102
}
330
1F
100
AcDbEntity
  8
0
100
AcDbDimension
280
     0
  2
*D6
 10
320.5949649516516
 20
169.7633154075593
 30
0.0
 11
316.9949649516516
 21
175.7633155761287
 31
0.0
 70
    32
 71
     5
 42
12.00000033713877
 73
     0
 74
     1
 75
     1
  3
ISO-25
100
AcDbAlignedDimension
 13
294.8565131142299
 23
181.7633157446981
 33
0.0
 14
293.8565148129623
 24
169.7633154075593
 34
0.0
 50
90.0
100
AcDbRotatedDimension
1001
ACAD
1000
DSTYLE
1002
{
1070
   179
1070
     2
1070
   143
1040
0.0393700787401575
1070
    41
1040
3.2
1070
   176
1070
     1
1070
   177
1070
     1
1070
   271
1070
     0
1070
    44
1040
1.0
1070
    42
1040
0.1
1070
   147
1040
2.0
1070
    74
1070
     1
1070
   140
1040
3.2
1070
   284
1070
     0
1070
    78
1070
     0
1002
}
  0
ENDSEC
  0
SECTION
  2
OBJECTS
  0
DICTIONARY
  5
C
330
0
100
AcDbDictionary
281
     1
  3
ACAD_DETAILVIEWSTYLE
350
411
  3
ACAD_GROUP
350
D
  3
ACAD_IMAGE_VARS
350
376
  3
ACAD_LAYOUT
350
1A
  3
ACAD_MATERIAL
350
36C
  3
ACAD_MLEADERSTYLE
350
372
  3
ACAD_MLINESTYLE
350
17
  3
ACAD_PLOTSETTINGS
350
19
  3
ACAD_PLOTSTYLENAME
350
E
  3
ACAD_SCALELIST
350
47
  3
ACAD_SECTIONVIEWSTYLE
350
412
  3
ACAD_TABLESTYLE
350
370
  3
ACAD_VISUALSTYLE
350
353
  3
ACDB_RECOMPOSE_DATA
350
418
  3
AcDbVariableDictionary
350
40C
  3
APPDATA
350
374
  0
SUN
  5
375
330
29
100
AcDbSun
 90
        1
290
     0
 63
     7
421
 16777215
 40
1.0
291
     1
 91
  2455826
 92
 54000000
292
     0
 70
     2
 71
   256
280
     1
  0
DICTIONARY
  5
3EB
330
3EA
100
AcDbDictionary
280
     1
281
     1
  0
DICTIONARY
  5
3EE
330
3ED
100
AcDbDictionary
280
     1
281
     1
  0
DICTIONARY
  5
411
102
{ACAD_REACTORS
330
C
102
}
330
C
100
AcDbDictionary
281
     1
  0
DICTIONARY
  5
D
102
{ACAD_REACTORS
330
C
102
}
330
C
100
AcDbDictionary
281
     1
  0
RASTERVARIABLES
  5
376
102
{ACAD_REACTORS
330
C
102
}
330
C
100
AcDbRasterVariables
 90
        0
 70
     1
 71
     1
 72
     1
  0
DICTIONARY
  5
1A
102
{ACAD_REACTORS
330
C
102
}
330
C
100
AcDbDictionary
281
     1
  3
Layout1
350
1E
  3
Layout2
350
26
  3
Model
350
22
  0
DICTIONARY
  5
36C
102
{ACAD_REACTORS
330
C
102
}
330
C
100
AcDbDictionary
281
     1
  3
ByBlock
350
36E
  3
ByLayer
350
36D
  3
Global
350
36F
  0
DICTIONARY
  5
372
102
{ACAD_REACTORS
330
C
102
}
330
C
100
AcDbDictionary
281
     1
  3
Standard
350
373
  0
DICTIONARY
  5
17
102
{ACAD_REACTORS
330
C
102
}
330
C
100
AcDbDictionary
281
     1
  3
Standard
350
18
  0
DICTIONARY
  5
19
102
{ACAD_REACTORS
330
C
102
}
330
C
100
AcDbDictionary
281
     1
  0
ACDBDICTIONARYWDFLT
  5
E
102
{ACAD_REACTORS
330
C
102
}
330
C
100
AcDbDictionary
281
     1
  3
Normal
350
F
100
AcDbDictionaryWithDefault
340
F
  0
DICTIONARY
  5
47
102
{ACAD_REACTORS
330
C
102
}
330
C
100
AcDbDictionary
281
     1
  3
A0
350
48
  3
A1
350
49
  3
A2
350
4A
  3
A3
350
4B
  3
A4
350
4C
  3
A5
350
4D
  3
A6
350
4E
  3
A7
350
4F
  3
A8
350
50
  3
A9
350
51
  3
B0
350
52
  3
B1
350
53
  3
B2
350
54
  3
B3
350
55
  3
B4
350
56
  3
B5
350
57
  3
B6
350
58
  3
B7
350
59
  3
B8
350
5A
  3
B9
350
5B
  3
C0
350
5C
  3
C1
350
5D
  3
C2
350
5E
  3
C3
350
5F
  3
C4
350
60
  3
C5
350
61
  3
C6
350
62
  3
C7
350
63
  3
C8
350
64
  3
C9
350
65
  3
D0
350
66
  3
D1
350
67
  3
D2
350
68
  0
DICTIONARY
  5
412
102
{ACAD_REACTORS
330
C
102
}
330
C
100
AcDbDictionary
281
     1
  0
DICTIONARY
  5
370
102
{ACAD_REACTORS
330
C
102
}
330
C
100
AcDbDictionary
281
     1
  3
Standard
350
371
  0
DICTIONARY
  5
353
102
{ACAD_REACTORS
330
C
102
}
330
C
100
AcDbDictionary
281
     1
  3
2dWireframe
350
358
  3
Basic
350
35B
  3
Brighten
350
35F
  3
ColorChange
350
363
  3
Conceptual
350
35D
  3
Dim
350
35E
  3
EdgeColorOff
350
366
  3
Facepattern
350
362
  3
Flat
350
354
  3
FlatWithEdges
350
355
  3
Gouraud
350
356
  3
GouraudWithEdges
350
357
  3
Hidden
350
35A
  3
JitterOff
350
364
  3
Linepattern
350
361
  3
OverhangOff
350
365
  3
Realistic
350
35C
  3
Shaded
350
36B
  3
Shaded with edges
350
36A
  3
Shades of Gray
350
367
  3
Sketchy
350
368
  3
Thicken
350
360
  3
Wireframe
350
359
  3
X-Ray
350
369
  0
XRECORD
  5
418
102
{ACAD_REACTORS
330
C
102
}
330
C
100
AcDbXrecord
280
     1
 90
        1
330
371
  0
DICTIONARY
  5
40C
102
{ACAD_REACTORS
330
C
102
}
330
C
100
AcDbDictionary
281
     1
  3
CANNOSCALE
350
40D
  3
CMLEADERSTYLE
350
40F
  3
CTABLESTYLE
350
40E
  3
MSLTSCALE
350
410
  0
DICTIONARY
  5
374
102
{ACAD_REACTORS
330
C
102
}
330
C
100
AcDbDictionary
281
     1
  0
LAYOUT
  5
1E
102
{ACAD_REACTORS
330
1A
102
}
330
1A
100
AcDbPlotSettings
  1

  2
none_device
  4

  6

 40
0.0
 41
0.0
 42
0.0
 43
0.0
 44
0.0
 45
0.0
 46
0.0
 47
0.0
 48
0.0
 49
0.0
140
0.0
141
0.0
142
1.0
143
1.0
 70
   688
 72
     1
 73
     0
 74
     5
  7

 75
    16
 76
     0
 77
     2
 78
   300
147
1.0
148
0.0
149
0.0
100
AcDbLayout
  1
Layout1
 70
     1
 71
     1
 10
0.0
 20
0.0
 11
420.0
 21
297.0
 12
0.0
 22
0.0
 32
0.0
 14
1.000000000000000E+20
 24
1.000000000000000E+20
 34
1.000000000000000E+20
 15
-1.000000000000000E+20
 25
-1.000000000000000E+20
 35
-1.000000000000000E+20
146
0.0
 13
0.0
 23
0.0
 33
0.0
 16
1.0
 26
0.0
 36
0.0
 17
0.0
 27
1.0
 37
0.0
 76
     0
330
1B
  0
LAYOUT
  5
26
102
{ACAD_REACTORS
330
1A
102
}
330
1A
100
AcDbPlotSettings
  1

  2
none_device
  4

  6

 40
0.0
 41
0.0
 42
0.0
 43
0.0
 44
0.0
 45
0.0
 46
0.0
 47
0.0
 48
0.0
 49
0.0
140
0.0
141
0.0
142
1.0
143
1.0
 70
   688
 72
     1
 73
     0
 74
     5
  7

 75
    16
 76
     0
 77
     2
 78
   300
147
1.0
148
0.0
149
0.0
100
AcDbLayout
  1
Layout2
 70
     1
 71
     2
 10
0.0
 20
0.0
 11
0.0
 21
0.0
 12
0.0
 22
0.0
 32
0.0
 14
0.0
 24
0.0
 34
0.0
 15
0.0
 25
0.0
 35
0.0
146
0.0
 13
0.0
 23
0.0
 33
0.0
 16
1.0
 26
0.0
 36
0.0
 17
0.0
 27
1.0
 37
0.0
 76
     0
330
23
  0
LAYOUT
  5
22
102
{ACAD_REACTORS
330
1A
102
}
330
1A
100
AcDbPlotSettings
  1

  2
none_device
  4
Letter_(8.50_x_11.00_Inches)
  6

 40
6.35
 41
6.35
 42
6.35000508
 43
6.35000508
 44
215.9
 45
279.4
 46
0.0
 47
0.0
 48
0.0
 49
0.0
140
0.0
141
0.0
142
1.0
143
1.0
 70
  1712
 72
     1
 73
     0
 74
     0
  7

 75
     0
 76
     0
 77
     2
 78
   300
147
1.0
148
0.0
149
0.0
100
AcDbLayout
  1
Model
 70
     1
 71
     0
 10
0.0
 20
0.0
 11
840.0
 21
594.0
 12
0.0
 22
0.0
 32
0.0
 14
203.9565149619739
 24
-3.277119440701313
 34
0.0
 15
659.8695350973813
 25
577.3423368348292
 35
0.0
146
0.0
 13
0.0
 23
0.0
 33
0.0
 16
1.0
 26
0.0
 36
0.0
 17
0.0
 27
1.0
 37
0.0
 76
     0
330
1F
331
29
  0
MATERIAL
  5
36E
102
{ACAD_REACTORS
330
36C
102
}
330
36C
100
AcDbMaterial
  1
ByBlock
 72
     1
 94
      127
  0
MATERIAL
  5
36D
102
{ACAD_REACTORS
330
36C
102
}
330
36C
100
AcDbMaterial
  1
ByLayer
 72
     1
 94
      127
  0
MATERIAL
  5
36F
102
{ACAD_REACTORS
330
36C
102
}
330
36C
100
AcDbMaterial
  1
Global
 72
     1
 94
      127
  0
MLEADERSTYLE
  5
373
102
{ACAD_REACTORS
330
372
102
}
330
372
100
AcDbMLeaderStyle
179
     2
170
     2
171
     1
172
     0
 90
        2
 40
0.0
 41
0.0
173
     1
 91
-1056964608
340
14
 92
       -2
290
     1
 42
2.0
291
     1
 43
8.0
  3
Standard
341
0
 44
4.0
300

342
11
174
     1
178
     6
175
     1
176
     0
 93
-1056964608
 45
4.0
292
     0
297
     0
 46
4.0
343
0
 94
-1056964608
 47
1.0
 49
1.0
140
1.0
293
     1
141
0.0
294
     1
177
     0
142
1.0
295
     0
296
     0
143
3.75
271
     0
272
     9
273
     9
298
     0
  0
MLINESTYLE
  5
18
102
{ACAD_REACTORS
330
17
102
}
330
17
100
AcDbMlineStyle
  2
Standard
 70
     0
  3

 62
   256
 51
90.0
 52
90.0
 71
     2
 49
0.5
 62
   256
  6
BYLAYER
 49
-0.5
 62
   256
  6
BYLAYER
  0
ACDBPLACEHOLDER
  5
F
102
{ACAD_REACTORS
330
E
102
}
330
E
  0
SCALE
  5
48
102
{ACAD_REACTORS
330
47
102
}
330
47
100
AcDbScale
 70
     0
300
1:1
140
1.0
141
1.0
290
     1
  0
SCALE
  5
49
102
{ACAD_REACTORS
330
47
102
}
330
47
100
AcDbScale
 70
     0
300
1:2
140
1.0
141
2.0
290
     0
  0
SCALE
  5
4A
102
{ACAD_REACTORS
330
47
102
}
330
47
100
AcDbScale
 70
     0
300
1:4
140
1.0
141
4.0
290
     0
  0
SCALE
  5
4B
102
{ACAD_REACTORS
330
47
102
}
330
47
100
AcDbScale
 70
     0
300
1:5
140
1.0
141
5.0
290
     0
  0
SCALE
  5
4C
102
{ACAD_REACTORS
330
47
102
}
330
47
100
AcDbScale
 70
     0
300
1:8
140
1.0
141
8.0
290
     0
  0
SCALE
  5
4D
102
{ACAD_REACTORS
330
47
102
}
330
47
100
AcDbScale
 70
     0
300
1:10
140
1.0
141
10.0
290
     0
  0
SCALE
  5
4E
102
{ACAD_REACTORS
330
47
102
}
330
47
100
AcDbScale
 70
     0
300
1:16
140
1.0
141
16.0
290
     0
  0
SCALE
  5
4F
102
{ACAD_REACTORS
330
47
102
}
330
47
100
AcDbScale
 70
     0
300
1:20
140
1.0
141
20.0
290
     0
  0
SCALE
  5
50
102
{ACAD_REACTORS
330
47
102
}
330
47
100
AcDbScale
 70
     0
300
1:30
140
1.0
141
30.0
290
     0
  0
SCALE
  5
51
102
{ACAD_REACTORS
330
47
102
}
330
47
100
AcDbScale
 70
     0
300
1:40
140
1.0
141
40.0
290
     0
  0
SCALE
  5
52
102
{ACAD_REACTORS
330
47
102
}
330
47
100
AcDbScale
 70
     0
300
1:50
140
1.0
141
50.0
290
     0
  0
SCALE
  5
53
102
{ACAD_REACTORS
330
47
102
}
330
47
100
AcDbScale
 70
     0
300
1:100
140
1.0
141
100.0
290
     0
  0
SCALE
  5
54
102
{ACAD_REACTORS
330
47
102
}
330
47
100
AcDbScale
 70
     0
300
2:1
140
2.0
141
1.0
290
     0
  0
SCALE
  5
55
102
{ACAD_REACTORS
330
47
102
}
330
47
100
AcDbScale
 70
     0
300
4:1
140
4.0
141
1.0
290
     0
  0
SCALE
  5
56
102
{ACAD_REACTORS
330
47
102
}
330
47
100
AcDbScale
 70
     0
300
8:1
140
8.0
141
1.0
290
     0
  0
SCALE
  5
57
102
{ACAD_REACTORS
330
47
102
}
330
47
100
AcDbScale
 70
     0
300
10:1
140
10.0
141
1.0
290
     0
  0
SCALE
  5
58
102
{ACAD_REACTORS
330
47
102
}
330
47
100
AcDbScale
 70
     0
300
100:1
140
100.0
141
1.0
290
     0
  0
SCALE
  5
59
102
{ACAD_REACTORS
330
47
102
}
330
47
100
AcDbScale
 70
     0
300
1/128" = 1'-0"
140
0.0078125
141
12.0
290
     0
  0
SCALE
  5
5A
102
{ACAD_REACTORS
330
47
102
}
330
47
100
AcDbScale
 70
     0
300
1/64" = 1'-0"
140
0.015625
141
12.0
290
     0
  0
SCALE
  5
5B
102
{ACAD_REACTORS
330
47
102
}
330
47
100
AcDbScale
 70
     0
300
1/32" = 1'-0"
140
0.03125
141
12.0
290
     0
  0
SCALE
  5
5C
102
{ACAD_REACTORS
330
47
102
}
330
47
100
AcDbScale
 70
     0
300
1/16" = 1'-0"
140
0.0625
141
12.0
290
     0
  0
SCALE
  5
5D
102
{ACAD_REACTORS
330
47
102
}
330
47
100
AcDbScale
 70
     0
300
3/32" = 1'-0"
140
0.09375
141
12.0
290
     0
  0
SCALE
  5
5E
102
{ACAD_REACTORS
330
47
102
}
330
47
100
AcDbScale
 70
     0
300
1/8" = 1'-0"
140
0.125
141
12.0
290
     0
  0
SCALE
  5
5F
102
{ACAD_REACTORS
330
47
102
}
330
47
100
AcDbScale
 70
     0
300
3/16" = 1'-0"
140
0.1875
141
12.0
290
     0
  0
SCALE
  5
60
102
{ACAD_REACTORS
330
47
102
}
330
47
100
AcDbScale
 70
     0
300
1/4" = 1'-0"
140
0.25
141
12.0
290
     0
  0
SCALE
  5
61
102
{ACAD_REACTORS
330
47
102
}
330
47
100
AcDbScale
 70
     0
300
3/8" = 1'-0"
140
0.375
141
12.0
290
     0
  0
SCALE
  5
62
102
{ACAD_REACTORS
330
47
102
}
330
47
100
AcDbScale
 70
     0
300
1/2" = 1'-0"
140
0.5
141
12.0
290
     0
  0
SCALE
  5
63
102
{ACAD_REACTORS
330
47
102
}
330
47
100
AcDbScale
 70
     0
300
3/4" = 1'-0"
140
0.75
141
12.0
290
     0
  0
SCALE
  5
64
102
{ACAD_REACTORS
330
47
102
}
330
47
100
AcDbScale
 70
     0
300
1" = 1'-0"
140
1.0
141
12.0
290
     0
  0
SCALE
  5
65
102
{ACAD_REACTORS
330
47
102
}
330
47
100
AcDbScale
 70
     0
300
1-1/2" = 1'-0"
140
1.5
141
12.0
290
     0
  0
SCALE
  5
66
102
{ACAD_REACTORS
330
47
102
}
330
47
100
AcDbScale
 70
     0
300
3" = 1'-0"
140
3.0
141
12.0
290
     0
  0
SCALE
  5
67
102
{ACAD_REACTORS
330
47
102
}
330
47
100
AcDbScale
 70
     0
300
6" = 1'-0"
140
6.0
141
12.0
290
     0
  0
SCALE
  5
68
102
{ACAD_REACTORS
330
47
102
}
330
47
100
AcDbScale
 70
     0
300
1'-0" = 1'-0"
140
12.0
141
12.0
290
     0
  0
TABLESTYLE
  5
371
102
{ACAD_REACTORS
330
370
102
}
102
{ACAD_XDICTIONARY
360
416
102
}
330
370
100
AcDbTableStyle
  3
Standard
 70
     0
 71
     0
 40
0.06
 41
0.06
280
     0
281
     0
  7
Standard
140
4.5
170
     2
 62
     0
 63
   257
283
     0
 90
        4
 91
        0
  1

274
    -2
284
     1
 64
     0
275
    -2
285
     1
 65
     0
276
    -2
286
     1
 66
     0
277
    -2
287
     1
 67
     0
278
    -2
288
     1
 68
     0
279
    -2
289
     1
 69
     0
  7
Standard
140
6.0
170
     5
 62
     0
 63
   257
283
     0
 90
        4
 91
        0
  1

274
    -2
284
     1
 64
     0
275
    -2
285
     1
 65
     0
276
    -2
286
     1
 66
     0
277
    -2
287
     1
 67
     0
278
    -2
288
     1
 68
     0
279
    -2
289
     1
 69
     0
  7
Standard
140
4.5
170
     5
 62
     0
 63
   257
283
     0
 90
        4
 91
        0
  1

274
    -2
284
     1
 64
     0
275
    -2
285
     1
 65
     0
276
    -2
286
     1
 66
     0
277
    -2
287
     1
 67
     0
278
    -2
288
     1
 68
     0
279
    -2
289
     1
 69
     0
  0
VISUALSTYLE
  5
358
102
{ACAD_REACTORS
330
353
102
}
330
353
100
AcDbVisualStyle
  2
2dWireframe
 70
     4
177
     3
291
     0
 70
    58
 90
        0
176
     1
 90
        2
176
     1
 90
        0
176
     1
 90
        0
176
     1
 40
0.6
176
     1
 40
30.0
176
     1
 62
     7
420
 16777215
176
     1
 90
        1
176
     1
 90
        4
176
     1
 62
     7
176
     1
 62
   257
176
     1
 90
        1
176
     1
 90
        1
176
     1
 40
1.0
176
     1
 90
        0
176
     1
 62
   257
176
     1
 40
1.0
176
     1
 90
        1
176
     1
 90
        6
176
     1
 90
        2
176
     1
 62
     7
176
     1
 90
        5
176
     1
 90
        0
176
     1
 90
        0
176
     1
290
     0
176
     1
 90
        1
176
     1
 40
0.0
176
     1
 90
        0
176
     1
290
     1
176
     1
290
     1
176
     1
290
     0
176
     1
290
     0
176
     1
290
     0
176
     1
290
     0
176
     1
290
     0
176
     1
290
     0
176
     1
290
     0
176
     1
 90
       50
176
     1
 40
0.0
176
     1
 40
1.0
176
     1
 90
        0
176
     1
 62
    18
420
        0
176
     1
 90
       50
176
     1
 90
        3
176
     1
 62
     5
420
      255
176
     1
290
     0
176
     1
 90
       50
176
     1
 90
       50
176
     1
 90
       50
176
     1
290
     0
176
     1
 90
       50
176
     1
 62
   256
176
     0
 40
1.0
176
     0
 90
        2
176
     1
  1
strokes_ogs.tif
176
     1
290
     0
176
     1
 40
1.0
176
     1
 40
1.0
176
     1
  0
VISUALSTYLE
  5
35B
102
{ACAD_REACTORS
330
353
102
}
330
353
100
AcDbVisualStyle
  2
Basic
 70
     7
177
     3
291
     1
 70
    58
 90
        1
176
     1
 90
        0
176
     1
 90
        1
176
     1
 90
        0
176
     1
 40
0.6
176
     1
 40
30.0
176
     1
 62
     7
420
 16777215
176
     1
 90
        0
176
     1
 90
        4
176
     1
 62
     7
176
     1
 62
   257
176
     1
 90
        1
176
     1
 90
        1
176
     1
 40
1.0
176
     1
 90
        8
176
     1
 62
     7
176
     1
 40
1.0
176
     1
 90
        1
176
     1
 90
        6
176
     1
 90
        2
176
     1
 62
     7
176
     1
 90
        5
176
     1
 90
        0
176
     1
 90
        0
176
     1
290
     0
176
     1
 90
        1
176
     1
 40
0.0
176
     1
 90
        0
176
     1
290
     0
176
     1
290
     1
176
     1
290
     1
176
     1
290
     0
176
     1
290
     0
176
     1
290
     0
176
     1
290
     0
176
     1
290
     0
176
     1
290
     0
176
     1
 90
       50
176
     1
 40
0.0
176
     1
 40
1.0
176
     1
 90
        0
176
     1
 62
    18
420
        0
176
     1
 90
       50
176
     1
 90
        3
176
     1
 62
     5
420
      255
176
     1
290
     0
176
     1
 90
       50
176
     1
 90
       50
176
     1
 90
       50
176
     1
290
     0
176
     1
 90
       50
176
     1
 62
   256
176
     0
 40
1.0
176
     0
 90
        2
176
     1
  1
strokes_ogs.tif
176
     1
290
     0
176
     1
 40
1.0
176
     1
 40
1.0
176
     1
  0
VISUALSTYLE
  5
35F
102
{ACAD_REACTORS
330
353
102
}
330
353
100
AcDbVisualStyle
  2
Brighten
 70
    12
177
     3
291
     1
 70
    58
 90
        2
176
     1
 90
        2
176
     1
 90
        0
176
     1
 90
        0
176
     1
 40
0.6
176
     1
 40
30.0
176
     1
 62
     7
420
 16777215
176
     1
 90
        1
176
     1
 90
        4
176
     1
 62
     7
176
     1
 62
   257
176
     1
 90
        1
176
     1
 90
        1
176
     1
 40
1.0
176
     1
 90
        8
176
     1
 62
     7
176
     1
 40
1.0
176
     1
 90
        1
176
     1
 90
        6
176
     1
 90
        2
176
     1
 62
     7
176
     1
 90
        5
176
     1
 90
        0
176
     1
 90
        0
176
     1
290
     0
176
     1
 90
        1
176
     1
 40
50.0
176
     1
 90
        0
176
     1
290
     0
176
     1
290
     1
176
     1
290
     1
176
     1
290
     0
176
     1
290
     0
176
     1
290
     0
176
     1
290
     0
176
     1
290
     0
176
     1
290
     0
176
     1
 90
       50
176
     1
 40
0.0
176
     1
 40
1.0
176
     1
 90
        0
176
     1
 62
    18
420
        0
176
     1
 90
       50
176
     1
 90
        3
176
     1
 62
     5
420
      255
176
     1
290
     0
176
     1
 90
       50
176
     1
 90
       50
176
     1
 90
       50
176
     1
290
     0
176
     1
 90
       50
176
     1
 62
   256
176
     0
 40
1.0
176
     0
 90
        2
176
     1
  1
strokes_ogs.tif
176
     1
290
     0
176
     1
 40
1.0
176
     1
 40
1.0
176
     1
  0
VISUALSTYLE
  5
363
102
{ACAD_REACTORS
330
353
102
}
330
353
100
AcDbVisualStyle
  2
ColorChange
 70
    16
177
     3
291
     1
 70
    58
 90
        2
176
     1
 90
        2
176
     1
 90
        3
176
     1
 90
        0
176
     1
 40
0.6
176
     1
 40
30.0
176
     1
 62
     8
420
  8421504
176
     1
 90
        1
176
     1
 90
        4
176
     1
 62
     7
176
     1
 62
   257
176
     1
 90
        1
176
     1
 90
        1
176
     1
 40
1.0
176
     1
 90
        8
176
     1
 62
     8
420
  8421504
176
     1
 40
1.0
176
     1
 90
        1
176
     1
 90
        6
176
     1
 90
        2
176
     1
 62
     7
176
     1
 90
        5
176
     1
 90
        0
176
     1
 90
        0
176
     1
290
     0
176
     1
 90
        1
176
     1
 40
0.0
176
     1
 90
        0
176
     1
290
     0
176
     1
290
     1
176
     1
290
     1
176
     1
290
     0
176
     1
290
     0
176
     1
290
     0
176
     1
290
     0
176
     1
290
     0
176
     1
290
     0
176
     1
 90
       50
176
     1
 40
0.0
176
     1
 40
1.0
176
     1
 90
        0
176
     1
 62
    18
420
        0
176
     1
 90
       50
176
     1
 90
        3
176
     1
 62
     5
420
      255
176
     1
290
     0
176
     1
 90
       50
176
     1
 90
       50
176
     1
 90
       50
176
     1
290
     0
176
     1
 90
       50
176
     1
 62
   256
176
     0
 40
1.0
176
     0
 90
        2
176
     1
  1
strokes_ogs.tif
176
     1
290
     0
176
     1
 40
1.0
176
     1
 40
1.0
176
     1
  0
VISUALSTYLE
  5
35D
102
{ACAD_REACTORS
330
353
102
}
330
353
100
AcDbVisualStyle
  2
Conceptual
 70
     9
177
     3
291
     0
 70
    58
 90
        3
176
     1
 90
        2
176
     1
 90
        0
176
     1
 90
        0
176
     1
 40
0.6
176
     1
 40
30.0
176
     1
 62
     7
420
 16777215
176
     1
 90
        2
176
     1
 90
        2
176
     1
 62
     7
176
     1
 62
   257
176
     1
 90
        1
176
     1
 90
        1
176
     1
 40
179.0
176
     1
 90
        8
176
     1
 62
     7
176
     1
 40
1.0
176
     1
 90
        1
176
     1
 90
        6
176
     1
 90
        2
176
     1
 62
     7
176
     1
 90
        3
176
     1
 90
        0
176
     1
 90
        0
176
     1
290
     0
176
     1
 90
        1
176
     1
 40
0.0
176
     1
 90
        0
176
     1
290
     0
176
     1
290
     1
176
     1
290
     1
176
     1
290
     0
176
     1
290
     0
176
     1
290
     0
176
     1
290
     0
176
     1
290
     0
176
     1
290
     0
176
     1
 90
       50
176
     1
 40
0.0
176
     1
 40
1.0
176
     1
 90
        0
176
     1
 62
    18
420
        0
176
     1
 90
       50
176
     1
 90
        3
176
     1
 62
     5
420
      255
176
     1
290
     0
176
     1
 90
       50
176
     1
 90
       50
176
     1
 90
       50
176
     1
290
     0
176
     1
 90
       50
176
     1
 62
   256
176
     0
 40
1.0
176
     0
 90
        2
176
     1
  1
strokes_ogs.tif
176
     1
290
     0
176
     1
 40
1.0
176
     1
 40
1.0
176
     1
  0
VISUALSTYLE
  5
35E
102
{ACAD_REACTORS
330
353
102
}
330
353
100
AcDbVisualStyle
  2
Dim
 70
    11
177
     3
291
     1
 70
    58
 90
        2
176
     1
 90
        2
176
     1
 90
        0
176
     1
 90
        0
176
     1
 40
0.6
176
     1
 40
30.0
176
     1
 62
     7
420
 16777215
176
     1
 90
        1
176
     1
 90
        4
176
     1
 62
     7
176
     1
 62
   257
176
     1
 90
        1
176
     1
 90
        1
176
     1
 40
1.0
176
     1
 90
        8
176
     1
 62
     7
176
     1
 40
1.0
176
     1
 90
        1
176
     1
 90
        6
176
     1
 90
        2
176
     1
 62
     7
176
     1
 90
        5
176
     1
 90
        0
176
     1
 90
        0
176
     1
290
     0
176
     1
 90
        1
176
     1
 40
-50.0
176
     1
 90
        0
176
     1
290
     0
176
     1
290
     1
176
     1
290
     1
176
     1
290
     0
176
     1
290
     0
176
     1
290
     0
176
     1
290
     0
176
     1
290
     0
176
     1
290
     0
176
     1
 90
       50
176
     1
 40
0.0
176
     1
 40
1.0
176
     1
 90
        0
176
     1
 62
    18
420
        0
176
     1
 90
       50
176
     1
 90
        3
176
     1
 62
     5
420
      255
176
     1
290
     0
176
     1
 90
       50
176
     1
 90
       50
176
     1
 90
       50
176
     1
290
     0
176
     1
 90
       50
176
     1
 62
   256
176
     0
 40
1.0
176
     0
 90
        2
176
     1
  1
strokes_ogs.tif
176
     1
290
     0
176
     1
 40
1.0
176
     1
 40
1.0
176
     1
  0
VISUALSTYLE
  5
366
102
{ACAD_REACTORS
330
353
102
}
330
353
100
AcDbVisualStyle
  2
EdgeColorOff
 70
    22
177
     3
291
     1
 70
    58
 90
        2
176
     0
 90
        2
176
     0
 90
        0
176
     0
 90
        0
176
     0
 40
0.6
176
     0
 40
30.0
176
     0
 62
     7
420
 16777215
176
     0
 90
        1
176
     0
 90
        4
176
     0
 62
     7
176
     0
 62
   257
176
     0
 90
        1
176
     0
 90
        1
176
     0
 40
1.0
176
     0
 90
        8
176
     2
 62
     7
176
     0
 40
1.0
176
     0
 90
        1
176
     0
 90
        6
176
     0
 90
        2
176
     0
 62
     7
176
     0
 90
        5
176
     0
 90
        0
176
     0
 90
        0
176
     0
290
     0
176
     0
 90
        1
176
     0
 40
0.0
176
     0
 90
        0
176
     0
290
     0
176
     0
290
     1
176
     0
290
     1
176
     0
290
     0
176
     0
290
     0
176
     0
290
     0
176
     0
290
     0
176
     0
290
     0
176
     0
290
     0
176
     0
 90
       50
176
     0
 40
0.0
176
     0
 40
1.0
176
     0
 90
        0
176
     0
 62
    18
420
        0
176
     0
 90
       50
176
     0
 90
        3
176
     0
 62
     5
420
      255
176
     0
290
     0
176
     0
 90
       50
176
     0
 90
       50
176
     0
 90
       50
176
     0
290
     0
176
     0
 90
       50
176
     0
 62
   256
176
     0
 40
1.0
176
     0
 90
        2
176
     0
  1
strokes_ogs.tif
176
     0
290
     0
176
     0
 40
1.0
176
     0
 40
1.0
176
     0
  0
VISUALSTYLE
  5
362
102
{ACAD_REACTORS
330
353
102
}
330
353
100
AcDbVisualStyle
  2
Facepattern
 70
    15
177
     3
291
     1
 70
    58
 90
        2
176
     1
 90
        2
176
     1
 90
        0
176
     1
 90
        0
176
     1
 40
0.6
176
     1
 40
30.0
176
     1
 62
     7
420
 16777215
176
     1
 90
        1
176
     1
 90
        4
176
     1
 62
     7
176
     1
 62
   257
176
     1
 90
        1
176
     1
 90
        1
176
     1
 40
1.0
176
     1
 90
        8
176
     1
 62
     7
176
     1
 40
1.0
176
     1
 90
        1
176
     1
 90
        6
176
     1
 90
        2
176
     1
 62
     7
176
     1
 90
        5
176
     1
 90
        0
176
     1
 90
        0
176
     1
290
     0
176
     1
 90
        1
176
     1
 40
0.0
176
     1
 90
        0
176
     1
290
     0
176
     1
290
     1
176
     1
290
     1
176
     1
290
     0
176
     1
290
     0
176
     1
290
     0
176
     1
290
     0
176
     1
290
     0
176
     1
290
     0
176
     1
 90
       50
176
     1
 40
0.0
176
     1
 40
1.0
176
     1
 90
        0
176
     1
 62
    18
420
        0
176
     1
 90
       50
176
     1
 90
        3
176
     1
 62
     5
420
      255
176
     1
290
     0
176
     1
 90
       50
176
     1
 90
       50
176
     1
 90
       50
176
     1
290
     0
176
     1
 90
       50
176
     1
 62
   256
176
     0
 40
1.0
176
     0
 90
        2
176
     1
  1
strokes_ogs.tif
176
     1
290
     0
176
     1
 40
1.0
176
     1
 40
1.0
176
     1
  0
VISUALSTYLE
  5
354
102
{ACAD_REACTORS
330
353
102
}
330
353
100
AcDbVisualStyle
  2
Flat
 70
     0
177
     3
291
     1
 70
    58
 90
        2
176
     1
 90
        1
176
     1
 90
        1
176
     1
 90
        2
176
     1
 40
0.6
176
     1
 40
30.0
176
     1
 62
     7
420
 16777215
176
     1
 90
        0
176
     1
 90
        0
176
     1
 62
     7
176
     1
 62
   257
176
     1
 90
        1
176
     1
 90
        1
176
     1
 40
1.0
176
     1
 90
        8
176
     1
 62
     7
176
     1
 40
1.0
176
     1
 90
        1
176
     1
 90
        6
176
     1
 90
        2
176
     1
 62
     7
176
     1
 90
        5
176
     1
 90
        0
176
     1
 90
        0
176
     1
290
     0
176
     1
 90
       13
176
     1
 40
0.0
176
     1
 90
        0
176
     1
290
     0
176
     1
290
     1
176
     1
290
     1
176
     1
290
     0
176
     1
290
     0
176
     1
290
     0
176
     1
290
     0
176
     1
290
     0
176
     1
290
     0
176
     1
 90
       50
176
     1
 40
0.0
176
     1
 40
1.0
176
     1
 90
        0
176
     1
 62
    18
420
        0
176
     1
 90
       50
176
     1
 90
        3
176
     1
 62
     5
420
      255
176
     1
290
     0
176
     1
 90
       50
176
     1
 90
       50
176
     1
 90
       50
176
     1
290
     0
176
     1
 90
       50
176
     1
 62
   256
176
     0
 40
1.0
176
     0
 90
        2
176
     1
  1
strokes_ogs.tif
176
     1
290
     0
176
     1
 40
1.0
176
     1
 40
1.0
176
     1
  0
VISUALSTYLE
  5
355
102
{ACAD_REACTORS
330
353
102
}
330
353
100
AcDbVisualStyle
  2
FlatWithEdges
 70
     1
177
     3
291
     1
 70
    58
 90
        2
176
     1
 90
        1
176
     1
 90
        1
176
     1
 90
        2
176
     1
 40
0.6
176
     1
 40
30.0
176
     1
 62
     7
420
 16777215
176
     1
 90
        1
176
     1
 90
        0
176
     1
 62
     7
176
     1
 62
   257
176
     1
 90
        1
176
     1
 90
        1
176
     1
 40
1.0
176
     1
 90
        0
176
     1
 62
   257
176
     1
 40
1.0
176
     1
 90
        1
176
     1
 90
        6
176
     1
 90
        2
176
     1
 62
     7
176
     1
 90
        5
176
     1
 90
        0
176
     1
 90
        0
176
     1
290
     0
176
     1
 90
       13
176
     1
 40
0.0
176
     1
 90
        0
176
     1
290
     0
176
     1
290
     1
176
     1
290
     1
176
     1
290
     0
176
     1
290
     0
176
     1
290
     0
176
     1
290
     0
176
     1
290
     0
176
     1
290
     0
176
     1
 90
       50
176
     1
 40
0.0
176
     1
 40
1.0
176
     1
 90
        0
176
     1
 62
    18
420
        0
176
     1
 90
       50
176
     1
 90
        3
176
     1
 62
     5
420
      255
176
     1
290
     0
176
     1
 90
       50
176
     1
 90
       50
176
     1
 90
       50
176
     1
290
     0
176
     1
 90
       50
176
     1
 62
   256
176
     0
 40
1.0
176
     0
 90
        2
176
     1
  1
strokes_ogs.tif
176
     1
290
     0
176
     1
 40
1.0
176
     1
 40
1.0
176
     1
  0
VISUALSTYLE
  5
356
102
{ACAD_REACTORS
330
353
102
}
330
353
100
AcDbVisualStyle
  2
Gouraud
 70
     2
177
     3
291
     1
 70
    58
 90
        2
176
     1
 90
        2
176
     1
 90
        1
176
     1
 90
        2
176
     1
 40
0.6
176
     1
 40
30.0
176
     1
 62
     7
420
 16777215
176
     1
 90
        0
176
     1
 90
        0
176
     1
 62
     7
176
     1
 62
   257
176
     1
 90
        1
176
     1
 90
        1
176
     1
 40
1.0
176
     1
 90
        0
176
     1
 62
     7
176
     1
 40
1.0
176
     1
 90
        1
176
     1
 90
        6
176
     1
 90
        2
176
     1
 62
     7
176
     1
 90
        5
176
     1
 90
        0
176
     1
 90
        0
176
     1
290
     0
176
     1
 90
       13
176
     1
 40
0.0
176
     1
 90
        0
176
     1
290
     0
176
     1
290
     1
176
     1
290
     1
176
     1
290
     0
176
     1
290
     0
176
     1
290
     0
176
     1
290
     0
176
     1
290
     0
176
     1
290
     0
176
     1
 90
       50
176
     1
 40
0.0
176
     1
 40
1.0
176
     1
 90
        0
176
     1
 62
    18
420
        0
176
     1
 90
       50
176
     1
 90
        3
176
     1
 62
     5
420
      255
176
     1
290
     0
176
     1
 90
       50
176
     1
 90
       50
176
     1
 90
       50
176
     1
290
     0
176
     1
 90
       50
176
     1
 62
   256
176
     0
 40
1.0
176
     0
 90
        2
176
     1
  1
strokes_ogs.tif
176
     1
290
     0
176
     1
 40
1.0
176
     1
 40
1.0
176
     1
  0
VISUALSTYLE
  5
357
102
{ACAD_REACTORS
330
353
102
}
330
353
100
AcDbVisualStyle
  2
GouraudWithEdges
 70
     3
177
     3
291
     1
 70
    58
 90
        2
176
     1
 90
        2
176
     1
 90
        1
176
     1
 90
        2
176
     1
 40
0.6
176
     1
 40
30.0
176
     1
 62
     7
420
 16777215
176
     1
 90
        1
176
     1
 90
        0
176
     1
 62
     7
176
     1
 62
   257
176
     1
 90
        1
176
     1
 90
        1
176
     1
 40
1.0
176
     1
 90
        0
176
     1
 62
   257
176
     1
 40
1.0
176
     1
 90
        1
176
     1
 90
        6
176
     1
 90
        2
176
     1
 62
     7
176
     1
 90
        5
176
     1
 90
        0
176
     1
 90
        0
176
     1
290
     0
176
     1
 90
       13
176
     1
 40
0.0
176
     1
 90
        0
176
     1
290
     0
176
     1
290
     1
176
     1
290
     1
176
     1
290
     0
176
     1
290
     0
176
     1
290
     0
176
     1
290
     0
176
     1
290
     0
176
     1
290
     0
176
     1
 90
       50
176
     1
 40
0.0
176
     1
 40
1.0
176
     1
 90
        0
176
     1
 62
    18
420
        0
176
     1
 90
       50
176
     1
 90
        3
176
     1
 62
     5
420
      255
176
     1
290
     0
176
     1
 90
       50
176
     1
 90
       50
176
     1
 90
       50
176
     1
290
     0
176
     1
 90
       50
176
     1
 62
   256
176
     0
 40
1.0
176
     0
 90
        2
176
     1
  1
strokes_ogs.tif
176
     1
290
     0
176
     1
 40
1.0
176
     1
 40
1.0
176
     1
  0
VISUALSTYLE
  5
35A
102
{ACAD_REACTORS
330
353
102
}
330
353
100
AcDbVisualStyle
  2
Hidden
 70
     6
177
     3
291
     0
 70
    58
 90
        1
176
     1
 90
        2
176
     1
 90
        2
176
     1
 90
        0
176
     1
 40
0.6
176
     1
 40
30.0
176
     1
 62
     7
420
 16777215
176
     1
 90
        2
176
     1
 90
        2
176
     1
 62
     7
176
     1
 62
   257
176
     1
 90
        2
176
     1
 90
        1
176
     1
 40
40.0
176
     1
 90
        0
176
     1
 62
   257
176
     1
 40
1.0
176
     1
 90
        1
176
     1
 90
        6
176
     1
 90
        2
176
     1
 62
     7
176
     1
 90
        3
176
     1
 90
        0
176
     1
 90
        0
176
     1
290
     0
176
     1
 90
        1
176
     1
 40
0.0
176
     1
 90
        0
176
     1
290
     0
176
     1
290
     1
176
     1
290
     1
176
     1
290
     0
176
     1
290
     0
176
     1
290
     0
176
     1
290
     0
176
     1
290
     0
176
     1
290
     0
176
     1
 90
       50
176
     1
 40
0.0
176
     1
 40
1.0
176
     1
 90
        0
176
     1
 62
    18
420
        0
176
     1
 90
       50
176
     1
 90
        3
176
     1
 62
     5
420
      255
176
     1
290
     0
176
     1
 90
       50
176
     1
 90
       50
176
     1
 90
       50
176
     1
290
     0
176
     1
 90
       50
176
     1
 62
   256
176
     0
 40
1.0
176
     0
 90
        2
176
     1
  1
strokes_ogs.tif
176
     1
290
     0
176
     1
 40
1.0
176
     1
 40
1.0
176
     1
  0
VISUALSTYLE
  5
364
102
{ACAD_REACTORS
330
353
102
}
330
353
100
AcDbVisualStyle
  2
JitterOff
 70
    20
177
     3
291
     1
 70
    58
 90
        2
176
     0
 90
        2
176
     0
 90
        0
176
     0
 90
        0
176
     0
 40
0.6
176
     0
 40
30.0
176
     0
 62
     7
420
 16777215
176
     0
 90
        1
176
     0
 90
        4
176
     0
 62
     7
176
     0
 62
   257
176
     0
 90
        1
176
     0
 90
        1
176
     0
 40
1.0
176
     0
 90
       10
176
     2
 62
     7
176
     0
 40
1.0
176
     0
 90
        1
176
     0
 90
        6
176
     0
 90
        2
176
     0
 62
     7
176
     0
 90
        5
176
     0
 90
        0
176
     0
 90
        0
176
     0
290
     0
176
     0
 90
        1
176
     0
 40
0.0
176
     0
 90
        0
176
     0
290
     0
176
     0
290
     1
176
     0
290
     1
176
     0
290
     0
176
     0
290
     0
176
     0
290
     0
176
     0
290
     0
176
     0
290
     0
176
     0
290
     0
176
     0
 90
       50
176
     0
 40
0.0
176
     0
 40
1.0
176
     0
 90
        0
176
     0
 62
    18
420
        0
176
     0
 90
       50
176
     0
 90
        3
176
     0
 62
     5
420
      255
176
     0
290
     0
176
     0
 90
       50
176
     0
 90
       50
176
     0
 90
       50
176
     0
290
     0
176
     0
 90
       50
176
     0
 62
   256
176
     0
 40
1.0
176
     0
 90
        2
176
     0
  1
strokes_ogs.tif
176
     0
290
     0
176
     0
 40
1.0
176
     0
 40
1.0
176
     0
  0
VISUALSTYLE
  5
361
102
{ACAD_REACTORS
330
353
102
}
330
353
100
AcDbVisualStyle
  2
Linepattern
 70
    14
177
     3
291
     1
 70
    58
 90
        2
176
     1
 90
        2
176
     1
 90
        0
176
     1
 90
        0
176
     1
 40
0.6
176
     1
 40
30.0
176
     1
 62
     7
420
 16777215
176
     1
 90
        1
176
     1
 90
        4
176
     1
 62
     7
176
     1
 62
   257
176
     1
 90
        7
176
     1
 90
        7
176
     1
 40
1.0
176
     1
 90
        8
176
     1
 62
     7
176
     1
 40
1.0
176
     1
 90
        1
176
     1
 90
        6
176
     1
 90
        2
176
     1
 62
     7
176
     1
 90
        5
176
     1
 90
        0
176
     1
 90
        0
176
     1
290
     0
176
     1
 90
        1
176
     1
 40
0.0
176
     1
 90
        0
176
     1
290
     0
176
     1
290
     1
176
     1
290
     1
176
     1
290
     0
176
     1
290
     0
176
     1
290
     0
176
     1
290
     0
176
     1
290
     0
176
     1
290
     0
176
     1
 90
       50
176
     1
 40
0.0
176
     1
 40
1.0
176
     1
 90
        0
176
     1
 62
    18
420
        0
176
     1
 90
       50
176
     1
 90
        3
176
     1
 62
     5
420
      255
176
     1
290
     0
176
     1
 90
       50
176
     1
 90
       50
176
     1
 90
       50
176
     1
290
     0
176
     1
 90
       50
176
     1
 62
   256
176
     0
 40
1.0
176
     0
 90
        2
176
     1
  1
strokes_ogs.tif
176
     1
290
     0
176
     1
 40
1.0
176
     1
 40
1.0
176
     1
  0
VISUALSTYLE
  5
365
102
{ACAD_REACTORS
330
353
102
}
330
353
100
AcDbVisualStyle
  2
OverhangOff
 70
    21
177
     3
291
     1
 70
    58
 90
        2
176
     0
 90
        2
176
     0
 90
        0
176
     0
 90
        0
176
     0
 40
0.6
176
     0
 40
30.0
176
     0
 62
     7
420
 16777215
176
     0
 90
        1
176
     0
 90
        4
176
     0
 62
     7
176
     0
 62
   257
176
     0
 90
        1
176
     0
 90
        1
176
     0
 40
1.0
176
     0
 90
        9
176
     2
 62
     7
176
     0
 40
1.0
176
     0
 90
        1
176
     0
 90
        6
176
     0
 90
        2
176
     0
 62
     7
176
     0
 90
        5
176
     0
 90
        0
176
     0
 90
        0
176
     0
290
     0
176
     0
 90
        1
176
     0
 40
0.0
176
     0
 90
        0
176
     0
290
     0
176
     0
290
     1
176
     0
290
     1
176
     0
290
     0
176
     0
290
     0
176
     0
290
     0
176
     0
290
     0
176
     0
290
     0
176
     0
290
     0
176
     0
 90
       50
176
     0
 40
0.0
176
     0
 40
1.0
176
     0
 90
        0
176
     0
 62
    18
420
        0
176
     0
 90
       50
176
     0
 90
        3
176
     0
 62
     5
420
      255
176
     0
290
     0
176
     0
 90
       50
176
     0
 90
       50
176
     0
 90
       50
176
     0
290
     0
176
     0
 90
       50
176
     0
 62
   256
176
     0
 40
1.0
176
     0
 90
        2
176
     0
  1
strokes_ogs.tif
176
     0
290
     0
176
     0
 40
1.0
176
     0
 40
1.0
176
     0
  0
VISUALSTYLE
  5
35C
102
{ACAD_REACTORS
330
353
102
}
330
353
100
AcDbVisualStyle
  2
Realistic
 70
     8
177
     3
291
     0
 70
    58
 90
        2
176
     1
 90
        3
176
     1
 90
        0
176
     1
 90
        2
176
     1
 40
0.6
176
     1
 40
30.0
176
     1
 62
     7
420
 16777215
176
     1
 90
        0
176
     1
 90
        0
176
     1
 62
     7
176
     1
 62
   257
176
     1
 90
        1
176
     1
 90
        1
176
     1
 40
1.0
176
     1
 90
        8
176
     1
 62
   257
176
     1
 40
1.0
176
     1
 90
        1
176
     1
 90
        6
176
     1
 90
        2
176
     1
 62
     7
176
     1
 90
        3
176
     1
 90
        0
176
     1
 90
        0
176
     1
290
     0
176
     1
 90
       13
176
     1
 40
0.0
176
     1
 90
        0
176
     1
290
     0
176
     1
290
     1
176
     1
290
     1
176
     1
290
     0
176
     1
290
     0
176
     1
290
     0
176
     1
290
     0
176
     1
290
     0
176
     1
290
     0
176
     1
 90
       50
176
     1
 40
0.0
176
     1
 40
1.0
176
     1
 90
        0
176
     1
 62
    18
420
        0
176
     1
 90
       50
176
     1
 90
        3
176
     1
 62
     5
420
      255
176
     1
290
     0
176
     1
 90
       50
176
     1
 90
       50
176
     1
 90
       50
176
     1
290
     0
176
     1
 90
       50
176
     1
 62
   256
176
     0
 40
1.0
176
     0
 90
        2
176
     1
  1
strokes_ogs.tif
176
     1
290
     0
176
     1
 40
1.0
176
     1
 40
1.0
176
     1
  0
VISUALSTYLE
  5
36B
102
{ACAD_REACTORS
330
353
102
}
330
353
100
AcDbVisualStyle
  2
Shaded
 70
    27
177
     3
291
     0
 70
    58
 90
        2
176
     1
 90
        2
176
     1
 90
        1
176
     1
 90
        2
176
     1
 40
0.6
176
     1
 40
30.0
176
     1
 62
     7
420
 16777215
176
     1
 90
        0
176
     1
 90
        4
176
     1
 62
     7
176
     1
 62
   257
176
     1
 90
        1
176
     1
 90
        1
176
     1
 40
1.0
176
     1
 90
        8
176
     1
 62
   257
176
     1
 40
1.0
176
     1
 90
        1
176
     1
 90
        6
176
     1
 90
        2
176
     1
 62
     8
420
  7895160
176
     1
 90
        3
176
     1
 90
        0
176
     1
 90
        0
176
     1
290
     0
176
     1
 90
        5
176
     1
 40
0.0
176
     1
 90
        0
176
     1
290
     0
176
     1
290
     1
176
     1
290
     1
176
     1
290
     0
176
     1
290
     0
176
     1
290
     0
176
     1
290
     0
176
     1
290
     0
176
     1
290
     0
176
     1
 90
       50
176
     1
 40
0.0
176
     1
 40
1.0
176
     1
 90
        0
176
     1
 62
    18
420
        0
176
     1
 90
       50
176
     1
 90
        3
176
     1
 62
     5
420
      255
176
     1
290
     0
176
     1
 90
       50
176
     1
 90
       50
176
     1
 90
       50
176
     1
290
     0
176
     1
 90
       50
176
     1
 62
   256
176
     0
 40
1.0
176
     0
 90
        2
176
     1
  1
strokes_ogs.tif
176
     1
290
     0
176
     1
 40
1.0
176
     1
 40
1.0
176
     1
  0
VISUALSTYLE
  5
36A
102
{ACAD_REACTORS
330
353
102
}
330
353
100
AcDbVisualStyle
  2
Shaded with edges
 70
    26
177
     3
291
     0
 70
    58
 90
        2
176
     1
 90
        2
176
     1
 90
        1
176
     1
 90
        2
176
     1
 40
0.6
176
     1
 40
30.0
176
     1
 62
     7
420
 16777215
176
     1
 90
        1
176
     1
 90
       10
176
     1
 62
     7
176
     1
 62
   257
176
     1
 90
        2
176
     1
 90
        1
176
     1
 40
1.0
176
     1
 90
        8
176
     1
 62
   257
176
     1
 40
1.0
176
     1
 90
        1
176
     1
 90
        6
176
     1
 90
        2
176
     1
 62
     7
176
     1
 90
        3
176
     1
 90
        0
176
     1
 90
        0
176
     1
290
     0
176
     1
 90
        5
176
     1
 40
0.0
176
     1
 90
        0
176
     1
290
     0
176
     1
290
     1
176
     1
290
     1
176
     1
290
     0
176
     1
290
     0
176
     1
290
     0
176
     1
290
     0
176
     1
290
     0
176
     1
290
     0
176
     1
 90
       50
176
     1
 40
0.0
176
     1
 40
1.0
176
     1
 90
        0
176
     1
 62
    18
420
        0
176
     1
 90
       50
176
     1
 90
        3
176
     1
 62
     5
420
      255
176
     1
290
     0
176
     1
 90
       50
176
     1
 90
       50
176
     1
 90
       50
176
     1
290
     0
176
     1
 90
       50
176
     1
 62
   256
176
     0
 40
1.0
176
     0
 90
        2
176
     1
  1
strokes_ogs.tif
176
     1
290
     0
176
     1
 40
1.0
176
     1
 40
1.0
176
     1
  0
VISUALSTYLE
  5
367
102
{ACAD_REACTORS
330
353
102
}
330
353
100
AcDbVisualStyle
  2
Shades of Gray
 70
    23
177
     3
291
     0
 70
    58
 90
        2
176
     1
 90
        2
176
     1
 90
        3
176
     1
 90
        0
176
     1
 40
0.6
176
     1
 40
30.0
176
     1
 62
     7
420
 16777215
176
     1
 90
        2
176
     1
 90
        2
176
     1
 62
     7
176
     1
 62
     7
176
     1
 90
        1
176
     1
 90
        1
176
     1
 40
40.0
176
     1
 90
        8
176
     1
 62
     7
176
     1
 40
1.0
176
     1
 90
        1
176
     1
 90
        6
176
     1
 90
        2
176
     1
 62
     7
176
     1
 90
        3
176
     1
 90
        0
176
     1
 90
        0
176
     1
290
     0
176
     1
 90
        1
176
     1
 40
0.0
176
     1
 90
        0
176
     1
290
     0
176
     1
290
     1
176
     1
290
     1
176
     1
290
     0
176
     1
290
     0
176
     1
290
     0
176
     1
290
     0
176
     1
290
     0
176
     1
290
     0
176
     1
 90
       50
176
     1
 40
0.0
176
     1
 40
1.0
176
     1
 90
        0
176
     1
 62
    18
420
        0
176
     1
 90
       50
176
     1
 90
        3
176
     1
 62
     5
420
      255
176
     1
290
     0
176
     1
 90
       50
176
     1
 90
       50
176
     1
 90
       50
176
     1
290
     0
176
     1
 90
       50
176
     1
 62
   256
176
     0
 40
1.0
176
     0
 90
        2
176
     1
  1
strokes_ogs.tif
176
     1
290
     0
176
     1
 40
1.0
176
     1
 40
1.0
176
     1
  0
VISUALSTYLE
  5
368
102
{ACAD_REACTORS
330
353
102
}
330
353
100
AcDbVisualStyle
  2
Sketchy
 70
    24
177
     3
291
     0
 70
    58
 90
        1
176
     1
 90
        2
176
     1
 90
        2
176
     1
 90
        0
176
     1
 40
0.6
176
     1
 40
30.0
176
     1
 62
     7
420
 16777215
176
     1
 90
        2
176
     1
 90
        2
176
     1
 62
     7
176
     1
 62
     7
176
     1
 90
        1
176
     1
 90
        1
176
     1
 40
40.0
176
     1
 90
       11
176
     1
 62
     7
176
     1
 40
1.0
176
     1
 90
        1
176
     1
 90
        6
176
     1
 90
        2
176
     1
 62
     7
176
     1
 90
        6
176
     1
 90
        0
176
     1
 90
        0
176
     1
290
     0
176
     1
 90
        1
176
     1
 40
0.0
176
     1
 90
        0
176
     1
290
     0
176
     1
290
     1
176
     1
290
     1
176
     1
290
     0
176
     1
290
     0
176
     1
290
     0
176
     1
290
     0
176
     1
290
     0
176
     1
290
     0
176
     1
 90
       50
176
     1
 40
0.0
176
     1
 40
1.0
176
     1
 90
        0
176
     1
 62
    18
420
        0
176
     1
 90
       50
176
     1
 90
        3
176
     1
 62
     5
420
      255
176
     1
290
     0
176
     1
 90
       50
176
     1
 90
       50
176
     1
 90
       50
176
     1
290
     0
176
     1
 90
       50
176
     1
 62
   256
176
     0
 40
1.0
176
     0
 90
        2
176
     1
  1
strokes_ogs.tif
176
     1
290
     0
176
     1
 40
1.0
176
     1
 40
1.0
176
     1
  0
VISUALSTYLE
  5
360
102
{ACAD_REACTORS
330
353
102
}
330
353
100
AcDbVisualStyle
  2
Thicken
 70
    13
177
     3
291
     1
 70
    58
 90
        2
176
     1
 90
        2
176
     1
 90
        0
176
     1
 90
        0
176
     1
 40
0.6
176
     1
 40
30.0
176
     1
 62
     7
420
 16777215
176
     1
 90
        1
176
     1
 90
        4
176
     1
 62
     7
176
     1
 62
   257
176
     1
 90
        1
176
     1
 90
        1
176
     1
 40
1.0
176
     1
 90
       12
176
     1
 62
     7
176
     1
 40
1.0
176
     1
 90
        1
176
     1
 90
        6
176
     1
 90
        2
176
     1
 62
     7
176
     1
 90
        5
176
     1
 90
        0
176
     1
 90
        0
176
     1
290
     0
176
     1
 90
        1
176
     1
 40
0.0
176
     1
 90
        0
176
     1
290
     0
176
     1
290
     1
176
     1
290
     1
176
     1
290
     0
176
     1
290
     0
176
     1
290
     0
176
     1
290
     0
176
     1
290
     0
176
     1
290
     0
176
     1
 90
       50
176
     1
 40
0.0
176
     1
 40
1.0
176
     1
 90
        0
176
     1
 62
    18
420
        0
176
     1
 90
       50
176
     1
 90
        3
176
     1
 62
     5
420
      255
176
     1
290
     0
176
     1
 90
       50
176
     1
 90
       50
176
     1
 90
       50
176
     1
290
     0
176
     1
 90
       50
176
     1
 62
   256
176
     0
 40
1.0
176
     0
 90
        2
176
     1
  1
strokes_ogs.tif
176
     1
290
     0
176
     1
 40
1.0
176
     1
 40
1.0
176
     1
  0
VISUALSTYLE
  5
359
102
{ACAD_REACTORS
330
353
102
}
330
353
100
AcDbVisualStyle
  2
Wireframe
 70
     5
177
     3
291
     0
 70
    58
 90
        0
176
     1
 90
        2
176
     1
 90
        0
176
     1
 90
        0
176
     1
 40
0.6
176
     1
 40
30.0
176
     1
 62
     7
420
 16777215
176
     1
 90
        1
176
     1
 90
        4
176
     1
 62
     7
176
     1
 62
   257
176
     1
 90
        1
176
     1
 90
        1
176
     1
 40
1.0
176
     1
 90
        0
176
     1
 62
   257
176
     1
 40
1.0
176
     1
 90
        1
176
     1
 90
        6
176
     1
 90
        2
176
     1
 62
     7
176
     1
 90
        3
176
     1
 90
        0
176
     1
 90
        0
176
     1
290
     0
176
     1
 90
        1
176
     1
 40
0.0
176
     1
 90
        0
176
     1
290
     0
176
     1
290
     1
176
     1
290
     1
176
     1
290
     0
176
     1
290
     0
176
     1
290
     0
176
     1
290
     0
176
     1
290
     0
176
     1
290
     0
176
     1
 90
       50
176
     1
 40
0.0
176
     1
 40
1.0
176
     1
 90
        0
176
     1
 62
    18
420
        0
176
     1
 90
       50
176
     1
 90
        3
176
     1
 62
     5
420
      255
176
     1
290
     0
176
     1
 90
       50
176
     1
 90
       50
176
     1
 90
       50
176
     1
290
     0
176
     1
 90
       50
176
     1
 62
   256
176
     0
 40
1.0
176
     0
 90
        2
176
     1
  1
strokes_ogs.tif
176
     1
290
     0
176
     1
 40
1.0
176
     1
 40
1.0
176
     1
  0
VISUALSTYLE
  5
369
102
{ACAD_REACTORS
330
353
102
}
330
353
100
AcDbVisualStyle
  2
X-Ray
 70
    25
177
     3
291
     0
 70
    58
 90
        2
176
     1
 90
        2
176
     1
 90
        1
176
     1
 90
        1
176
     1
 40
0.5
176
     1
 40
30.0
176
     1
 62
     7
420
 16777215
176
     1
 90
        1
176
     1
 90
        0
176
     1
 62
     7
176
     1
 62
   257
176
     1
 90
        1
176
     1
 90
        1
176
     1
 40
1.0
176
     1
 90
        8
176
     1
 62
     7
176
     1
 40
1.0
176
     1
 90
        1
176
     1
 90
        6
176
     1
 90
        2
176
     1
 62
     7
176
     1
 90
        3
176
     1
 90
        0
176
     1
 90
        0
176
     1
290
     0
176
     1
 90
       13
176
     1
 40
0.0
176
     1
 90
        0
176
     1
290
     0
176
     1
290
     1
176
     1
290
     1
176
     1
290
     0
176
     1
290
     0
176
     1
290
     0
176
     1
290
     0
176
     1
290
     0
176
     1
290
     0
176
     1
 90
       50
176
     1
 40
0.0
176
     1
 40
1.0
176
     1
 90
        0
176
     1
 62
    18
420
        0
176
     1
 90
       50
176
     1
 90
        3
176
     1
 62
     5
420
      255
176
     1
290
     0
176
     1
 90
       50
176
     1
 90
       50
176
     1
 90
       50
176
     1
290
     0
176
     1
 90
       50
176
     1
 62
   256
176
     0
 40
1.0
176
     0
 90
        2
176
     1
  1
strokes_ogs.tif
176
     1
290
     0
176
     1
 40
1.0
176
     1
 40
1.0
176
     1
  0
DICTIONARYVAR
  5
40D
102
{ACAD_REACTORS
330
40C
102
}
330
40C
100
DictionaryVariables
280
     0
  1
1:1
  0
DICTIONARYVAR
  5
40F
102
{ACAD_REACTORS
330
40C
102
}
330
40C
100
DictionaryVariables
280
     0
  1
Standard
  0
DICTIONARYVAR
  5
40E
102
{ACAD_REACTORS
330
40C
102
}
330
40C
100
DictionaryVariables
280
     0
  1
Standard
  0
DICTIONARYVAR
  5
410
102
{ACAD_REACTORS
330
40C
102
}
330
40C
100
DictionaryVariables
280
     0
  1
0
  0
DICTIONARY
  5
416
330
371
100
AcDbDictionary
280
     1
281
     1
  3
ACAD_ROUNDTRIP_2008_TABLESTYLE_CELLSTYLEMAP
360
417
  0
CELLSTYLEMAP
  5
417
102
{ACAD_REACTORS
330
416
102
}
330
416
100
AcDbCellStyleMap
 90
        3
300
CELLSTYLE
  1
TABLEFORMAT_BEGIN
 90
        5
170
     1
 91
        0
 92
    32768
 62
   257
 93
        1
300
CONTENTFORMAT
  1
CONTENTFORMAT_BEGIN
 90
        0
 91
        0
 92
        4
 93
        0
300

 40
0.0
140
1.0
 94
        5
 62
     0
340
11
144
6.0
309
CONTENTFORMAT_END
171
     1
301
MARGIN
  1
CELLMARGIN_BEGIN
 40
1.5
 40
1.5
 40
1.5
 40
1.5
 40
1.5
 40
1.5
309
CELLMARGIN_END
 94
        6
 95
        1
302
GRIDFORMAT
  1
GRIDFORMAT_BEGIN
 90
        0
 91
        1
 62
     0
 92
       -2
340
14
 93
        0
 40
0.045
309
GRIDFORMAT_END
 95
        2
302
GRIDFORMAT
  1
GRIDFORMAT_BEGIN
 90
        0
 91
        1
 62
     0
 92
       -2
340
14
 93
        0
 40
0.045
309
GRIDFORMAT_END
 95
        4
302
GRIDFORMAT
  1
GRIDFORMAT_BEGIN
 90
        0
 91
        1
 62
     0
 92
       -2
340
14
 93
        0
 40
0.045
309
GRIDFORMAT_END
 95
        8
302
GRIDFORMAT
  1
GRIDFORMAT_BEGIN
 90
        0
 91
        1
 62
     0
 92
       -2
340
14
 93
        0
 40
0.045
309
GRIDFORMAT_END
 95
       16
302
GRIDFORMAT
  1
GRIDFORMAT_BEGIN
 90
        0
 91
        1
 62
     0
 92
       -2
340
14
 93
        0
 40
0.045
309
GRIDFORMAT_END
 95
       32
302
GRIDFORMAT
  1
GRIDFORMAT_BEGIN
 90
        0
 91
        1
 62
     0
 92
       -2
340
14
 93
        0
 40
0.045
309
GRIDFORMAT_END
309
TABLEFORMAT_END
  1
CELLSTYLE_BEGIN
 90
        1
 91
        1
300
_TITLE
309
CELLSTYLE_END
300
CELLSTYLE
  1
TABLEFORMAT_BEGIN
 90
        5
170
     1
 91
        0
 92
        0
 62
   257
 93
        1
300
CONTENTFORMAT
  1
CONTENTFORMAT_BEGIN
 90
        0
 91
        0
 92
        4
 93
        0
300

 40
0.0
140
1.0
 94
        5
 62
     0
340
11
144
4.5
309
CONTENTFORMAT_END
171
     1
301
MARGIN
  1
CELLMARGIN_BEGIN
 40
1.5
 40
1.5
 40
1.5
 40
1.5
 40
1.5
 40
1.5
309
CELLMARGIN_END
 94
        6
 95
        1
302
GRIDFORMAT
  1
GRIDFORMAT_BEGIN
 90
        0
 91
        1
 62
     0
 92
       -2
340
14
 93
        0
 40
0.045
309
GRIDFORMAT_END
 95
        2
302
GRIDFORMAT
  1
GRIDFORMAT_BEGIN
 90
        0
 91
        1
 62
     0
 92
       -2
340
14
 93
        0
 40
0.045
309
GRIDFORMAT_END
 95
        4
302
GRIDFORMAT
  1
GRIDFORMAT_BEGIN
 90
        0
 91
        1
 62
     0
 92
       -2
340
14
 93
        0
 40
0.045
309
GRIDFORMAT_END
 95
        8
302
GRIDFORMAT
  1
GRIDFORMAT_BEGIN
 90
        0
 91
        1
 62
     0
 92
       -2
340
14
 93
        0
 40
0.045
309
GRIDFORMAT_END
 95
       16
302
GRIDFORMAT
  1
GRIDFORMAT_BEGIN
 90
        0
 91
        1
 62
     0
 92
       -2
340
14
 93
        0
 40
0.045
309
GRIDFORMAT_END
 95
       32
302
GRIDFORMAT
  1
GRIDFORMAT_BEGIN
 90
        0
 91
        1
 62
     0
 92
       -2
340
14
 93
        0
 40
0.045
309
GRIDFORMAT_END
309
TABLEFORMAT_END
  1
CELLSTYLE_BEGIN
 90
        2
 91
        1
300
_HEADER
309
CELLSTYLE_END
300
CELLSTYLE
  1
TABLEFORMAT_BEGIN
 90
        5
170
     1
 91
        0
 92
        0
 62
   257
 93
        1
300
CONTENTFORMAT
  1
CONTENTFORMAT_BEGIN
 90
        0
 91
        0
 92
        4
 93
        0
300

 40
0.0
140
1.0
 94
        2
 62
     0
340
11
144
4.5
309
CONTENTFORMAT_END
171
     1
301
MARGIN
  1
CELLMARGIN_BEGIN
 40
1.5
 40
1.5
 40
1.5
 40
1.5
 40
1.5
 40
1.5
309
CELLMARGIN_END
 94
        6
 95
        1
302
GRIDFORMAT
  1
GRIDFORMAT_BEGIN
 90
        0
 91
        1
 62
     0
 92
       -2
340
14
 93
        0
 40
0.045
309
GRIDFORMAT_END
 95
        2
302
GRIDFORMAT
  1
GRIDFORMAT_BEGIN
 90
        0
 91
        1
 62
     0
 92
       -2
340
14
 93
        0
 40
0.045
309
GRIDFORMAT_END
 95
        4
302
GRIDFORMAT
  1
GRIDFORMAT_BEGIN
 90
        0
 91
        1
 62
     0
 92
       -2
340
14
 93
        0
 40
0.045
309
GRIDFORMAT_END
 95
        8
302
GRIDFORMAT
  1
GRIDFORMAT_BEGIN
 90
        0
 91
        1
 62
     0
 92
       -2
340
14
 93
        0
 40
0.045
309
GRIDFORMAT_END
 95
       16
302
GRIDFORMAT
  1
GRIDFORMAT_BEGIN
 90
        0
 91
        1
 62
     0
 92
       -2
340
14
 93
        0
 40
0.045
309
GRIDFORMAT_END
 95
       32
302
GRIDFORMAT
  1
GRIDFORMAT_BEGIN
 90
        0
 91
        1
 62
     0
 92
       -2
340
14
 93
        0
 40
0.045
309
GRIDFORMAT_END
309
TABLEFORMAT_END
  1
CELLSTYLE_BEGIN
 90
        3
 91
        2
300
_DATA
309
CELLSTYLE_END
  0
ENDSEC
  0
EOF
